#TITLE:天才 (雄之助 Remix);
#SUBTITLE:;
#ARTIST:yowanecity;
#TITLETRANSLIT:Tensai (Yunosuke Remix);
#SUBTITLETRANSLIT:;
#ARTISTTRANSLIT:yowanecity;
#GENRE:POP;
#CREDIT:;
#MUSIC:Tensai (Yunosuke Remix).ogg;
#BANNER:Tensai (Yunosuke Remix).png;
#BACKGROUND:Tensai (Yunosuke Remix)-bg.png;
#CDTITLE:;
#SAMPLESTART:85.523;
#SAMPLELENGTH:12.000;
#SELECTABLE:YES;
#OFFSET:-0.022;
#BPMS:0.000=160.030
,196.000=159.800
,228.000=160.000
;
#STOPS:;
#DISPLAYBPM:160.000;
#BGCHANGES:3.500=Tensai (Yunosuke Remix).avi=1.000=0=0=0=StretchNoLoop====,
99999.000=-nosongbg-=1.000=0=0=0=StretchNoLoop====
;
#FGCHANGES:;

//--------------- dance-single - ----------------
#NOTES:
     dance-single:
     :
     Medium:
     13:
     0,0,0,0,0:
0000
0000
0000
0000
,
0000
0000
0000
0000
,
0000
0000
0000
0000
,
0000
0000
0000
0000
,
0000
0000
0000
0000
,
0001
0101
1000
1100
,
0001
0101
1000
1100
,
1000
0010
0100
0000
0001
0010
0100
0000
,
1000
0001
0100
0010
1000
0001
1000
0000
,
0001
1000
0001
1000
0101
0000
0100
0000
,
0001
0010
0100
1000
0001
0100
0000
0010
,
1000
0001
0100
0010
1000
0001
1000
0100
,
0010
0000
0001
0000
1000
0000
0010
0000
0100
0001
0000
0100
0010
0000
0010
0000
,
1000
0001
1000
0001
1100
0000
0100
1000
,
0001
0000
1000
0100
0000
0010
0000
0100
1000
0000
0010
0000
0100
0000
0001
0000
,
0010
0000
0010
0000
0100
0000
1000
0000
0100
0010
0000
0000
0001
0000
1000
0000
,
1100
0000
0000
0101
0000
0000
0011
0000
0000
1010
0000
0000
1001
0000
0000
0000
,
0001
0000
0100
0000
0001
1000
0000
0001
0100
0000
0001
1000
0000
0001
0010
0000
,
0100
0000
1000
0000
0001
0000
0100
0000
0010
0000
1000
0002
0000
0000
0013
0000
,
0100
1000
1000
0001
0100
0001
0010
0010
,
0100
1000
0001
0010
1000
0010
0001
0100
,
0020
0000
2030
0000
3001
0010
0100
1000
,
0001
0000
0100
0010
0000
0000
0100
0000
0001
0000
1000
0000
0100
0000
0001
0000
,
0100
1000
0010
0100
0010
1000
0001
0010
,
0100
0010
0001
1000
0001
0100
0010
0100
,
1000
0000
0100
0000
0010
1000
0000
0010
0100
0000
0001
0010
0000
0100
0010
0000
,
0001
0000
0010
0000
0100
0000
1000
0000
0001
0000
0100
0010
0000
1000
0000
0001
,
0010
0000
0100
0000
0001
0000
0100
0000
1000
0000
0010
0100
0000
0001
0000
0010
,
0100
1000
0001
0100
1000
0100
0001
1000
,
0001
0010
1000
0010
0001
0010
1000
0010
,
0001
0100
1000
0100
0001
0100
1000
0100
,
0001
0010
0100
1000
0001
0010
0100
1000
,
1100
1001
0101
1001
,
0110
0000
0001
0100
0001
0000
1000
0100
,
1000
0000
0001
0100
0000
0001
1000
0000
0010
0000
0100
0000
0100
0000
0001
0000
,
1000
0100
0000
1000
0001
0000
0100
0000
0010
0000
0100
0001
0000
1000
0001
0000
,
1000
0000
0100
0000
1000
0000
0001
0000
0100
0000
0001
0000
1000
0000
0100
0000
1000
0000
0010
0000
0000
0010
0000
0000
,
0100
0000
0001
0000
0001
0010
0000
0010
0100
0000
0100
1000
0000
1000
0000
0001
,
0000
0001
0100
0010
0000
0010
0000
1000
0000
0001
0000
0001
0010
0000
0010
0000
,
0100
1000
0000
1000
0000
0010
0000
0010
0000
0100
0000
0100
0001
0000
0000
0000
,
0101
1100
0101
1001
,
0001
0100
1000
0100
0001
1000
0010
0001
,
0010
1000
0001
0100
1000
0100
0001
1001
,
1000
0100
0001
0100
1000
0001
0010
1000
,
0010
0001
1000
0100
0001
0100
1000
0000
,
0001
0010
1000
0001
0100
1000
0001
0100
,
1000
0001
0010
1000
0001
0010
0100
1001
,
1000
0010
0001
1000
0100
0001
0010
1000
,
0001
0100
1000
0010
0000
0010
1000
0001
,
0011
0000
0010
0000
0000
0010
0000
0000
0100
0000
0000
0100
0000
0000
1000
0000
,
0100
0000
0010
0000
0001
0000
1000
0000
0001
0000
0100
0000
0000
0010
0000
0000
,
0010
0000
1000
0000
0010
0000
0100
0000
0001
0000
1000
0000
0000
0001
0000
0000
,
0001
0010
0100
1000
0001
0010
0100
1000
,
0001
0100
0010
0100
1000
0001
0010
0100
,
0010
1000
0100
0010
0100
0001
1000
0010
,
0100
1000
0001
0010
0100
1000
0001
0010
,
0200
0000
2300
3010
,
0100
0000
0001
0000
1000
0010
0000
0100
0010
0000
0001
0010
0000
1000
0000
0001
,
0010
0100
1000
0010
1000
0100
0010
0001
,
0100
0001
0001
1000
0100
1000
0010
0010
,
0100
0001
1000
0100
0010
0100
1000
0001
,
0100
0000
1001
0000
0001
1000
0100
1000
,
0001
0000
0100
0010
0000
0000
1000
0000
0001
0000
0010
0000
0001
0000
1000
0000
,
0010
0000
0100
0000
0010
0000
1000
0000
0001
0000
0010
0100
0000
0100
1000
0000
,
0010
0100
0001
0010
1000
0001
0100
1000
,
0000
0000
1100
0000
0000
1010
0000
0000
0101
0000
0000
0011
0000
0000
0001
0000
,
0010
0000
0100
0000
1000
0000
0010
0000
0100
0000
0010
1000
0000
0001
0000
0010
,
0000
0100
1000
0000
0010
0000
0100
0000
0001
0000
0010
0100
0000
1000
0000
0010
,
0000
0100
0001
0000
0010
0000
0100
0000
0010
0000
0001
0000
1000
0000
0010
0000
,
0100
0000
0000
0100
0000
0000
0001
0000
0010
0000
0100
0000
1000
0000
0001
0000
,
0100
0000
0000
0100
0000
0000
0010
0000
1000
0000
0001
0000
0010
0000
0001
0000
,
2000
0000
0010
0000
0000
0001
0000
0000
0100
0000
0000
0001
0000
3010
0100
0000
,
0001
0010
1000
0010
0001
0100
0110
0000
,
1010
1100
0101
1001
,
0110
0000
0000
0000
0001
0000
0100
0000
1000
0000
0100
0010
0000
1000
0000
0001
,
0000
0010
0100
0000
1000
0000
0001
0000
0100
0000
0010
0000
0100
0000
0010
0000
;

//--------------- dance-single - ----------------
#NOTES:
     dance-single:
     :
     Hard:
     16:
     0,0,0,0,0:
0000
0000
0000
0000
,
0000
0000
0000
0000
,
0000
0000
0000
0000
,
0000
0000
0000
0000
,
0000
0000
0000
0000
,
0001
1000
0010
0100
0001
0000
0001
1000
,
0100
0010
0100
1000
0001
0000
1000
0100
,
0010
0100
1000
0001
0100
1000
0100
0001
,
1000
0000
0001
0010
0100
0000
1000
0000
0001
0000
1000
0010
0100
0000
0000
0000
,
0001
0001
0001
0001
1100
0000
1000
0001
,
1000
0010
0100
0010
0000
0010
1000
0001
0010
0000
0100
0000
0000
0010
0001
1000
,
0000
1000
0010
0100
0001
0000
0010
0000
1000
0000
0010
0000
0001
0000
1000
0100
,
1000
0000
0001
0100
0010
0000
0100
0001
0000
0010
0000
0000
0010
0000
0100
0000
,
1000
0000
1000
0000
1000
0000
1000
0000
0101
0000
0000
0000
0001
0000
1000
0010
,
0100
0000
0100
0001
0000
1000
0000
0001
0010
0000
0100
1000
0010
0000
0100
0000
,
1000
0000
0100
0000
0001
0000
1000
0000
0010
0200
0000
0000
0310
0000
1000
0000
,
1010
0000
0000
0101
0000
0000
1001
0000
0000
0011
0000
0000
1100
0000
0000
0000
,
1000
0001
1000
0000
0010
0100
0000
0010
0100
0000
0001
0010
0000
0001
0010
0100
,
1000
0000
0010
0000
1000
0000
0001
0000
1000
0000
0010
0200
0000
0000
0301
0000
,
0100
1000
0100
0010
0010
1000
0001
0001
,
0010
0000
0100
0000
1000
0000
0010
0000
0100
0000
0001
0010
0100
0000
1000
0000
,
0002
0000
0203
0000
0310
1000
0001
0010
,
0100
0000
1000
0002
0000
0000
0103
0000
0010
0000
0100
0000
0001
0000
1000
0000
,
0100
0000
0010
0001
0000
0001
0100
0000
0010
0000
1000
0010
0000
0010
0100
0000
,
0001
1000
0100
0000
0010
0000
0001
0000
0010
0000
0100
0000
1000
0000
0001
0000
,
1000
0000
1000
0000
0010
0100
0000
0001
0010
0000
0100
1000
0000
0001
0100
0000
,
0010
1000
0001
0000
0010
0000
0100
0000
0010
0000
0001
0010
0000
0100
0000
0010
,
0001
0000
1000
0010
0002
0000
0023
0000
2030
0000
3100
0010
0000
0010
0000
0001
,
0000
1000
0001
0010
2000
0000
3020
0000
0032
0000
0103
0000
0010
1000
0001
0000
,
0010
0000
0100
1000
0000
1000
0001
0000
0100
0000
0010
0000
1000
0000
0010
0000
,
1000
0000
0001
0010
0000
0010
0100
0000
1000
0000
0001
0000
1000
0000
0001
0000
,
0100
0000
0010
1000
0000
1000
0001
0000
0001
0010
0000
0010
0100
0000
0100
1000
,
0010
1000
0100
0000
0010
0001
0100
0000
0010
1000
0001
0000
0110
0000
0000
0000
,
1001
0000
0000
0000
0001
0010
0100
0000
0010
0100
1000
0000
0001
0000
0001
0000
,
0000
1000
0010
0000
1000
0010
0100
0000
0001
1000
0001
1000
0001
0010
0100
0000
,
1000
0000
1000
0010
0100
0000
0001
0000
0001
0000
0001
0010
0000
0001
1000
0000
,
1000
0000
0100
0000
0100
0000
0001
0000
0100
0000
0100
0000
1000
0000
0100
0000
0100
0000
0001
0000
0000
1001
0000
0000
,
1000
0100
1000
0100
1000
0001
0000
0001
0100
0001
0100
0010
0000
0010
0000
0010
,
1000
0010
1000
0001
0000
0001
0000
0001
1000
0001
1000
0001
0100
0000
0100
0000
,
0010
1000
0000
1000
0001
0010
0000
0010
0100
1000
0100
1000
0020
0000
0000
0000
,
0130
0001
0010
0000
0100
1000
0010
0000
0100
0001
0010
0000
0200
0000
0000
0000
,
1300
0000
0001
0100
0001
0000
1000
0100
1000
0000
0001
1000
0001
0000
1000
0010
,
1000
0000
0001
0010
0001
0000
1000
0010
1000
0000
0001
1000
0001
0000
0001
0000
,
1000
0000
0001
0100
0001
0000
0010
0001
0010
0000
0100
0010
0100
0000
1000
0100
,
1000
0000
0010
1000
0010
0000
1000
0100
1000
0000
0010
0100
0010
0000
0100
1000
,
0100
0000
0001
0100
0001
0000
0100
1000
0100
0000
0001
1000
0001
0000
0010
0001
,
0010
0000
1000
0010
1000
0000
0010
0001
0010
0000
0001
1000
0001
0000
0001
0000
,
1000
0000
0001
0100
1000
0000
0001
0010
0001
0000
1000
0100
0001
0000
1000
0100
,
0001
0000
1000
0010
1000
0000
0010
0000
0000
0001
1000
0001
1000
0000
0100
0000
,
1001
0000
1000
0000
0010
0100
0000
0010
1000
0000
0001
0010
0000
0100
0010
0000
,
0001
1000
0010
0000
0100
0000
0001
0000
0010
0000
0100
0000
1000
0010
0000
0100
,
0001
0010
0100
0000
1000
0000
0001
0000
0100
0000
0010
1000
0000
0001
0000
0010
,
0100
1000
0010
0000
0001
0000
0010
0000
1000
0000
0100
0000
0001
0000
0100
0000
,
1000
0010
0100
0000
0001
0010
0100
0000
1000
0010
0100
0000
0001
0010
0100
0000
,
1000
0100
0010
0000
0001
0100
0010
0000
1000
0100
0010
0000
0001
0100
0010
0000
,
1000
0000
0001
0010
0000
0100
0010
0000
1000
0010
0001
0000
0100
0000
1000
0100
,
0002
0000
0023
0130
,
1000
0000
1000
0000
0001
0100
0000
0010
0100
0000
1000
0100
0000
0001
0000
1000
,
0100
1000
0010
0000
0100
0000
0001
0000
0010
0000
0100
0000
0010
0001
0010
0000
,
0001
1000
0010
0010
0100
0001
0001
0010
,
0100
1000
0001
0100
1000
0100
0001
0010
,
0100
0000
1001
0000
0001
1000
0001
0100
,
1000
0000
0100
0010
0000
0000
1000
0000
0001
0000
0010
0100
1000
0000
0100
0000
,
0010
0000
0001
0100
0010
0000
1000
0000
0001
0010
0100
1000
0000
0010
0100
0000
,
0010
0000
1000
0000
0001
0000
0100
0000
1000
0000
0100
0000
0001
0000
0010
0100
,
1000
0000
1000
0000
0001
0100
0000
0100
0010
0000
1000
0100
0000
0100
0010
0001
,
1000
0000
0010
0000
0001
0000
0010
0000
0100
0000
0010
1000
0000
0001
0000
0010
,
0000
0010
0100
0000
1000
0000
0100
0000
0001
0000
0100
1000
0000
0010
0000
0100
,
0000
0100
0001
0000
0010
0000
0100
0000
1000
0000
0001
0000
0100
0000
0010
0000
,
1000
0000
0001
0010
0000
0000
0010
0000
0100
0000
1000
0001
0100
0000
0010
0000
,
1000
0000
0100
0010
0000
0000
0010
0000
0001
0000
1000
0010
0100
0000
0010
0000
,
1000
0000
0010
0000
0100
0001
0000
0001
0010
0000
0010
0100
0000
0100
1000
0010
,
0001
1000
0100
0001
0010
0000
0100
0000
0010
0000
0100
0000
0110
0000
0000
0000
,
1100
0010
0101
0010
1100
0010
1001
0000
,
1001
0000
0000
0000
0001
1000
0100
0000
0010
0000
0001
0100
0000
0010
0000
0100
,
0000
0100
0001
0000
0001
0010
0100
0000
1000
0001
1000
0001
0100
0000
0100
0000
;

//--------------- dance-single - ----------------
#NOTES:
     dance-single:
     :
     Challenge:
     18:
     0.759931,0.918806,0.086496,0.00865,0.23354,615,605,10,1,0,0,0.759931,0.918806,0.086496,0.00865,0.23354,615,605,10,1,0,0:
0000
0000
0000
0000
,
0000
0000
0000
0000
,
0000
0000
0000
0000
,
0000
0000
0000
0000
,
0000
0000
0000
0000
,
0001
0000
0100
0001
0010
0000
0100
0000
1100
0000
0000
0000
1000
0000
0001
0010
,
0100
0000
0010
0001
1000
0000
0010
0000
0110
0000
0000
0000
0100
0000
0001
0000
,
1000
0000
0100
0000
0010
0001
0010
0100
1000
0000
0010
0000
0100
0000
0010
1000
,
0001
0000
0010
0100
0010
0000
0001
0000
1000
0100
1000
0100
1000
0100
0010
0000
,
1100
0000
0101
0000
1100
0000
0101
0000
0110
0000
0000
0000
0001
0010
0100
1000
,
0100
0010
0100
1000
0001
0100
0010
0100
1000
0000
0100
0000
0001
1000
0100
0010
,
0000
0100
1000
0001
0100
0000
0010
1000
0001
0000
0010
0000
0100
1000
0010
0100
,
0001
0000
1000
0100
0010
0000
0100
1000
0000
0001
0000
1000
0100
0000
0010
0000
,
0101
0000
1100
0000
0101
0000
1100
0000
0110
0000
0000
0000
0001
0010
0100
1000
,
0010
0000
0100
0001
0010
1000
0000
0010
0100
0000
1000
0010
0100
0000
0001
0000
,
1000
0010
0100
0010
0001
0010
1000
0000
0100
0020
0000
0000
0130
1000
0100
0010
,
0011
0000
0000
0101
0000
0000
1100
0000
0000
1010
0000
0000
1001
0000
0000
0000
,
0001
0100
0001
0100
0001
0010
0000
0100
0010
0000
1000
0010
0000
0001
0100
0001
,
1000
0100
0010
0100
1000
0000
0001
0000
0100
0000
0010
0002
0000
0000
0013
0000
,
1010
1100
1000
0001
0100
0101
1100
1000
,
1010
0000
0011
0000
0001
0000
0010
0100
0010
0001
0010
0100
1000
0100
0010
0100
,
2000
0000
0000
0000
3020
0000
0000
0000
0130
0000
0100
0001
1000
0000
0100
0000
,
0010
0000
0010
0001
0000
0001
0100
0000
0010
0000
0100
0001
1000
0000
0100
0000
,
0010
0000
0100
1000
0001
0010
0100
1000
0001
1000
0100
0010
0100
1000
0001
0100
,
0001
0000
0000
0010
0000
0000
0100
0000
0000
1000
0000
0000
0010
0000
0000
0000
0000
0000
0100
0000
0001
0000
0100
0000
0001
0000
0000
0000
0000
0000
0000
0000
0000
0011
0000
0000
0000
0000
0000
0000
0000
0000
1100
0000
0000
0000
0000
0000
,
1000
0010
0100
0000
1000
0100
0000
0010
0100
0000
0001
0010
0000
0100
1000
0010
,
0001
0010
0100
0001
1000
0000
0001
0010
0100
0000
1000
0010
0000
0100
0000
0010
,
1000
0001
0010
1000
0002
0000
0203
0000
2300
0000
3010
0100
0000
1000
0000
0100
,
0001
0010
0100
1000
0002
0000
0203
0000
0320
0000
1030
0100
0010
0001
0010
0100
,
1000
0000
1000
0001
0000
0001
0100
0000
0010
0000
1000
0100
0010
0000
1000
0010
,
0100
0000
1000
0010
0000
0100
1000
0000
0100
0000
0001
0010
0100
0000
1000
0000
,
0001
0000
0100
0001
0010
0100
1000
0001
1000
0010
0100
0001
1000
0001
0010
0100
,
1000
0010
0010
0001
0100
0100
1000
0010
0010
0001
0000
0000
,
1001
0000
0000
0000
0000
0000
0000
0000
0000
0000
0000
0000
0001
0000
0000
0010
0000
0000
0100
0000
0000
1000
0000
0000
0010
0000
0000
1000
0000
0000
0100
0000
0000
0010
0000
0000
0001
0000
0000
0000
0000
0000
1000
0000
0100
0000
1000
0000
,
0100
1000
0001
0000
1000
0010
0100
0010
1000
0100
1000
0100
1000
0010
0100
0000
,
0001
0000
0100
0000
0001
0000
0100
0000
0000
0010
0000
0000
1000
0000
0000
0000
0000
0000
0001
0000
0000
0000
0000
0000
1000
0000
0000
0100
0000
0000
1000
0000
0000
0010
0000
0000
0000
0000
0000
0010
0000
0000
1000
0000
0000
0100
0000
0000
,
1000
0000
0001
0000
0001
0000
0010
0000
0100
0000
0100
0000
1000
0000
0010
0000
0010
0000
0100
0000
0000
0110
0000
0000
,
0001
0100
0010
0100
0010
0002
0000
1003
0100
0010
0100
0002
0000
2003
0000
3001
,
0010
0000
0100
0000
0010
0000
2000
0000
0000
0000
3002
0000
0000
0000
0103
0000
1000
0000
0001
0000
0100
0000
0001
0000
1000
0100
1000
0000
0001
0100
0001
0000
,
1000
0010
0000
0100
0001
0010
0000
0010
0100
1000
0100
1000
0020
0000
0000
0000
,
1030
0100
1000
0001
0100
0001
1000
0010
1000
0001
0100
0001
0020
0000
0000
0000
,
0130
1000
1000
0010
0100
0001
0001
0010
0100
1000
1000
0010
0100
0001
0001
0010
,
0100
1000
1000
0010
0100
0001
0001
0010
0100
1000
0001
0010
0100
0000
0110
0000
,
0010
0001
0001
0100
0010
1000
1000
0100
0010
0001
0001
0100
0010
1000
1000
0100
,
0010
0001
0001
0100
0010
1000
1000
0100
0010
0001
1000
0100
0010
0000
0001
1000
,
0100
0100
0100
1000
0100
0100
0100
1000
0001
0100
0100
0100
0001
0100
0100
0100
,
0001
1000
0100
0100
0100
1000
0001
0100
0100
0100
0001
1000
0100
0000
1001
0000
,
0001
0100
0100
1000
0001
0100
0100
0100
0001
1000
0100
0100
0001
1000
0100
0100
,
0100
1000
0001
0010
0100
0000
1000
0010
0000
0010
0100
0001
1000
0000
0100
0000
,
0110
0000
0010
0000
0001
0010
0000
0100
0010
0000
1000
0010
0000
0001
1000
0010
,
0100
0001
1000
0010
0100
0000
0010
1000
0001
0000
0010
0000
0010
0100
0000
1000
,
0010
0001
0010
1000
0001
0000
0010
0001
1000
0000
0010
0100
0000
0001
0000
1000
,
0001
0010
1000
0010
0001
0000
1000
0000
0010
0000
0100
0000
0001
0010
0100
1000
,
0001
0010
0100
0000
0100
1000
0010
0000
0010
0100
0001
0000
0001
0010
0100
0000
,
0100
1000
0001
0000
0001
0100
0010
0000
0010
1000
0001
0000
0001
0010
0100
0000
,
0100
1000
0010
0100
0001
1000
0001
0010
0100
0010
0001
0010
0100
1000
0100
0010
,
0002
0000
0000
0000
0000
0000
0000
0000
0000
0000
0000
0000
0000
0000
0000
0000
0000
0000
0000
0000
0000
0000
0000
0000
1003
0000
0000
0000
0000
0000
0010
0000
0000
0100
0000
0000
0001
0000
0000
0000
0000
0000
1000
0000
0100
0000
0010
0000
,
0001
0000
1000
0000
0001
0100
0000
0010
0100
0000
1000
0100
0000
0001
0010
0100
,
0010
0001
1000
0010
0100
0000
0010
1000
0001
0000
0010
0100
1000
0010
1000
0100
,
0010
0000
0001
0000
1000
0000
0010
0100
0001
0100
0010
1000
0100
0000
0010
0000
,
0001
0100
1000
0100
0010
0000
0100
0001
0010
1000
0010
0000
0100
1000
0010
0100
,
0001
0000
0000
0000
1001
0000
1000
0100
0010
0100
1000
0100
0001
0000
0100
1000
,
0010
0000
0001
0010
0000
0100
0001
0010
0100
0010
0001
1000
0010
0000
0100
0000
,
0001
0000
0100
0010
0001
0010
0100
0001
0010
0100
1000
0010
0001
1000
0100
0001
,
0010
0000
0100
1000
0001
0000
0010
0100
1000
0100
0010
0100
1000
0001
0010
0100
,
1000
0000
1000
0000
0001
0100
0000
0100
0001
0000
1000
0100
0000
0100
1000
0100
,
0010
0100
1000
0001
0100
0000
0010
1000
0100
0000
0010
0100
0000
0001
0100
1000
,
0010
1000
0100
1000
0010
0000
0100
0000
1000
0000
0100
0001
0000
0010
0000
0100
,
1000
0010
0100
0001
1000
0000
1000
0000
0001
0000
0010
0100
0010
0100
1000
0000
,
0001
1000
0100
1000
0010
1000
0001
0100
0001
0010
0100
1000
0001
0010
0100
1000
,
0001
0100
0001
0010
0001
1000
0100
1000
0010
0100
0001
1000
0010
0100
0001
0010
,
1000
0000
0010
0000
0001
0010
0000
1000
0010
0000
0001
0100
0000
1000
0000
0100
,
0010
0100
1000
0100
0001
0010
0100
1000
0010
0000
0100
0000
1001
0000
0000
0000
,
0001
0010
0100
1000
0001
0010
0100
1000
0001
0010
0100
1000
1001
0000
0000
0000
,
0110
0000
0000
0000
0000
0000
0000
0000
0000
0000
0000
0000
0001
0000
0000
1000
0000
0000
0100
0000
0000
0000
0000
0000
0010
0000
0000
0100
0000
0000
1000
0000
0000
0100
0000
0000
0000
0000
0000
0010
0000
0000
0001
0000
1000
0000
0001
0000
,
1000
0010
0100
0000
0100
0001
1000
0001
0010
0100
0010
0100
0010
0000
0110
0000
;
