#TITLE:帝国少女;
#SUBTITLE:;
#ARTIST:R Sound Design Covered by カシ・オトハ;
#TITLETRANSLIT:Teikoku Shoujo;
#SUBTITLETRANSLIT:;
#ARTISTTRANSLIT:Sound Design Covered by Kashi Otoha;
#GENRE:POP;
#CREDIT:;
#MUSIC:Teikoku Shoujo (Imperial Girl).ogg;
#BANNER:Teikoku Shoujo (Imperial Girl).png;
#BACKGROUND:Teikoku Shoujo (Imperial Girl)-bg.png;
#CDTITLE:;
#SAMPLESTART:85.447;
#SAMPLELENGTH:8.136;
#SELECTABLE:YES;
#OFFSET:-0.028;
#BPMS:0.000=118.000;
#STOPS:198.000=2.288;
#BGCHANGES:3.750=Teikoku Shoujo (Imperial Girl).avi=1.000=0=0=0=StretchNoLoop====,
99999.000=-nosongbg-=1.000=0=0=0=StretchNoLoop====
;
#FGCHANGES:;

//--------------- dance-single - ----------------
#NOTES:
     dance-single:
     :
     Medium:
     11:
     0,0,0,0,0:
0000
0000
0000
0000
,
0000
0000
0000
0000
,
0000
0000
0000
0000
,
0000
0000
0000
0000
,
0000
0000
0000
0000
,
0000
0000
0000
0000
,
1000
0000
0001
0100
0000
0001
0100
0000
0010
0000
1000
0000
1100
0000
0000
0000
,
0001
0000
1000
0100
0000
1000
0100
0000
0010
0000
0001
0000
0101
0000
0000
0000
,
0100
0000
0001
1000
0000
0001
1000
0000
0100
0000
0010
0000
0110
0000
0000
0000
,
0011
1100
1010
0101
,
1000
0000
0001
0010
0000
0001
0010
0000
0100
0000
1000
0000
1010
0000
0000
0000
,
0001
0000
1000
0010
0000
1000
0010
0000
0100
0000
0001
0000
0101
0000
0000
0000
,
1000
0000
0010
0100
0000
0010
0100
0000
0001
0000
1000
0000
0001
0000
0000
0000
,
1010
0101
0011
1100
,
0001
0001
1000
0010
0100
0001
0000
0010
,
0100
0000
0000
0000
1000
0000
0000
0000
0001
0000
0000
0000
1000
0010
0000
0100
,
0000
0000
0001
0000
0001
0000
1000
0100
0000
0100
0000
0100
0010
0000
0001
0000
,
1000
0000
0001
0000
1000
0000
0010
0100
0000
0100
0000
0100
0001
0000
1000
0000
,
0100
0100
0010
0001
1000
0001
0000
1000
,
0010
0000
0000
0000
0100
0000
0000
0000
0001
0000
1000
0000
0100
0010
0000
0100
,
0000
1000
0001
1000
0000
0010
0100
0010
,
1000
0000
0000
0000
0001
0000
0010
0000
0000
0000
0100
0000
1000
0000
0000
0000
0010
0000
0100
0000
0000
0001
0000
0000
,
1000
0000
0100
0000
0001
0000
0100
0000
1000
0000
0000
0001
0000
0000
1000
0000
,
0200
0320
0032
2003
,
3001
0000
0100
0000
1000
0000
0100
0000
0001
0000
0000
1000
0000
0000
0010
0000
,
0200
0320
2030
3002
,
0013
0010
0100
1000
0001
0100
0000
0010
,
1000
0000
0000
0000
0001
0000
0000
0000
0010
0000
0000
0000
0100
1000
0000
0001
,
0000
0000
1000
0000
0010
0000
0100
0001
0000
0001
0000
0001
1000
0000
0100
0000
,
0001
0000
0100
0000
1000
0000
0001
0100
0000
0100
0000
0100
0001
0000
0010
0000
,
0100
1000
0001
0100
0010
0100
0000
0001
,
1000
0000
0000
0000
0100
0000
0000
0000
0010
0000
0001
0000
1000
0010
0000
0100
,
0000
0001
0100
0001
0000
1000
0100
1000
,
0001
0000
1000
0010
0000
0100
0001
0000
1000
0001
0000
0000
,
0010
0000
0010
0000
0010
0000
0100
1000
0000
1000
0001
0000
0100
0000
0001
0000
,
1000
0000
0100
0000
1000
0000
0010
0100
0000
0100
0001
0000
1001
0000
0000
0000
,
1000
0000
1000
0000
1000
0000
0010
0100
0000
0100
0001
0000
1000
0000
0100
0000
,
0110
0000
1001
0000
0110
0000
1001
1000
,
0001
0000
0001
0000
0001
0000
1000
0010
0000
0010
0100
0000
0001
0000
0001
0000
,
1000
0000
0100
0000
0001
0000
0100
1000
0000
1000
0010
0000
0110
0000
0000
0000
,
0100
0001
0010
0010
0100
1000
0010
0100
,
0001
1000
0000
0001
1000
0000
0001
1000
0000
0001
1000
0000
0110
0000
0000
0000
,
0001
0000
0100
0000
0001
0000
0010
0000
0001
1000
0000
1000
0000
1000
0100
0000
,
0010
0000
0010
0000
0001
0000
1000
0000
0001
0010
0000
0100
0000
0010
0001
0000
,
1000
0010
0100
0010
0100
0001
1000
0001
,
1000
0001
0010
0100
1000
0100
0010
0001
,
1000
0000
0010
0000
1000
0000
0100
0000
1000
0000
0001
0100
0000
0100
0001
0000
,
0010
0000
0100
0000
0010
0000
0001
0000
1000
0010
0000
0100
0000
0001
1000
0001
,
1000
0000
0000
0001
0010
0100
1000
0001
,
0100
0010
0100
0010
0110
0000
0000
0001
,
1000
0100
0000
1000
0100
0000
0010
0000
0001
0000
0101
0000
0000
0000
1000
0000
,
0001
0100
0000
0001
0100
0000
0010
0000
1000
0000
1100
0000
0000
0000
0100
0000
,
1000
0001
0000
1000
0001
0000
0100
0000
0010
0000
0110
0000
0000
0000
1010
0000
,
0000
0101
0000
0011
0000
1100
0000
0001
,
1000
0010
0000
1000
0010
0000
0100
0000
0001
0000
0011
0000
0000
0000
1000
0000
,
0001
0010
0000
0001
0010
0000
0100
0000
1000
0000
1100
0000
0000
0000
0001
0000
,
0010
0100
0000
0010
0100
0000
1000
0000
0001
0000
1000
0000
0000
0000
0011
0000
,
0000
1100
0000
1010
0000
0101
0000
0001
,
0100
0000
0000
1000
0100
0000
0000
0000
,
0001
0000
0000
1000
0000
0000
0001
0000
0000
0000
0000
0000
0000
0000
0000
0000
;

//--------------- dance-single - ----------------
#NOTES:
     dance-single:
     :
     Hard:
     14:
     0.525339,0.590688,0.023776,0,0.154545,464,461,3,0,0,0,0.525339,0.590688,0.023776,0,0.154545,464,461,3,0,0,0:
0000
0000
0000
0000
,
0000
0000
0000
0000
,
0000
0000
0000
0000
,
0000
0000
0000
0000
,
0000
0000
0000
0000
,
0000
0000
0000
0000
,
0101
0000
0001
0100
0001
0100
0000
0010
1000
0000
0100
0000
0010
0000
0100
0000
,
1100
0000
1000
0100
1000
0100
0000
0010
0001
0000
0100
0000
0010
0000
0100
0000
,
0110
0000
0010
1000
0010
1000
0000
0001
0010
0000
0100
0000
0010
0000
0001
0000
,
1001
0000
1000
0010
0100
0000
0001
0010
0100
0000
1000
0010
0100
0000
0001
0000
,
0011
0000
0001
0010
0001
0010
0000
0100
1000
0000
0010
0000
0100
0000
0010
0000
,
1010
0000
1000
0010
1000
0010
0000
0100
0001
0000
0010
0000
0100
0000
0010
0000
,
0110
0000
0100
1000
0100
1000
0000
0001
0100
0000
0010
0000
1010
0000
0100
0000
,
0101
0000
0001
0010
0100
0000
1000
0010
0100
0000
0010
0000
1000
0001
1000
0001
,
0010
0000
0010
0000
0100
0000
0010
0001
1000
0000
0101
0000
0010
0000
1000
0100
,
0010
0000
0000
0001
0010
0000
0000
1000
0010
0000
0000
0001
0100
0010
0000
0110
,
0000
0000
1010
0000
0010
0000
1000
0100
0000
0010
0000
0100
1000
0100
1000
0001
,
0100
0000
1010
0000
0011
0000
0001
0010
0000
0100
1000
0010
1000
0100
0001
0100
,
1000
0000
1000
0000
0010
0000
0100
0001
0010
0000
0100
0000
0110
0000
1000
0010
,
0100
0000
0000
1000
0100
0000
0000
0001
0010
0000
0100
1000
0100
0010
0000
0011
,
0000
0000
0001
0100
0010
0000
0110
0000
0010
0000
1000
0100
0010
0000
0110
0000
,
0010
0000
0001
0000
0001
0000
0100
0000
0010
0000
0010
0000
1000
0000
0100
0000
0100
0000
0010
0000
0000
0001
0000
0000
,
0100
0000
1000
0100
0001
0000
0010
0000
0020
0000
0000
1000
0000
0000
0130
0000
,
2000
0000
3020
0000
0230
0000
2300
0000
3200
0000
0302
0000
,
1003
0100
0010
0001
1000
0000
0010
0000
0200
0000
0000
1000
0000
0000
0301
0000
,
1000
0000
0000
1100
0000
0000
0010
0000
0100
0000
0000
0101
0000
0000
0001
0000
,
0010
0000
0100
0000
1000
0010
0100
0000
0101
0000
1010
0000
0001
0000
1000
0100
,
0010
0000
0000
0001
0010
0000
0000
1000
0010
0000
0001
0100
0010
1000
0000
0110
,
0000
0000
0100
0001
1000
0000
0001
0020
0000
0130
0000
0100
1000
0010
1000
0100
,
0001
0000
0101
0000
0110
0000
0100
1000
0000
1000
0010
0100
1000
0100
0001
0010
,
0100
0000
0011
0000
1000
0010
0100
0001
1000
0000
1100
0000
0100
0000
0010
0001
,
0100
0000
0000
1000
0100
0000
0000
0010
0100
0001
0010
0001
0010
0100
0000
1001
,
0000
0000
1000
0010
0100
0000
0101
0000
1001
0000
0001
0010
0100
0000
0001
0100
,
0010
0000
0001
0000
0001
0000
1000
0000
0010
0000
0010
0000
0100
0000
1000
0000
0100
0000
0001
0000
0000
1000
0000
0000
,
0010
0000
0010
0000
0010
0000
0100
0001
0000
0001
0010
0100
1000
0000
1000
0000
,
0010
0100
1000
0100
0010
0100
1000
0100
0000
0010
1000
0100
0010
0000
0100
0000
,
1000
0000
1000
0000
1000
0000
0001
0100
0000
0000
0010
0100
0001
0000
0010
0000
,
0110
0100
1001
1000
0110
0010
1001
1001
,
1000
0000
0001
0010
0100
0000
0010
0001
0000
1000
0010
0000
0100
0000
0110
0000
,
0010
1000
0100
0001
0100
1000
0001
0100
0000
0100
0001
0010
0100
0000
0110
0000
,
0001
0010
0001
0100
0010
1000
0100
1000
0010
0100
0001
0010
0001
0000
0001
0100
,
0010
0001
0000
1000
0100
0000
0001
0010
0000
1000
0010
0000
1001
0000
0000
0000
,
0001
0000
0000
0000
0010
0000
0100
0000
0000
0000
1000
0000
0001
0000
0000
0100
0000
0000
0010
0000
0000
0100
0000
0000
0001
0000
0000
1000
0000
0000
0000
0000
0000
1000
0000
0000
0000
0000
0000
1000
0000
0000
0100
0000
0000
0010
0000
0000
,
0001
0000
0000
0000
1000
0000
0010
0000
0000
0000
0100
0000
0001
0000
0000
0100
0000
0000
0010
0000
0000
1000
0000
0000
0001
0000
0000
0010
0000
0000
0000
0000
0000
0010
0000
0000
0000
0000
0000
0010
0000
0000
0001
0000
0000
0100
0000
0000
,
0010
0000
1000
0100
1000
0100
0001
0100
0010
0000
0010
0001
0100
0001
0100
1000
,
0001
0010
0100
0001
0010
0100
0001
0100
1000
0001
0100
0010
0110
0000
1001
0000
,
1000
0100
0001
0100
1000
0100
0001
0100
1000
0001
0100
0010
0000
0010
0100
0001
,
0010
0100
0010
0100
1000
0001
0100
0000
0010
0010
0000
0100
0000
0001
0010
0100
,
1000
0010
0100
0010
0101
0001
1100
1000
,
0002
0023
0230
1300
1001
0000
0000
0101
,
0001
0010
0001
0010
0000
0100
1000
0000
0010
0000
0100
0000
0001
0000
1100
0000
,
1000
0010
1000
0010
0000
0100
0001
0000
0010
0000
0100
0000
0010
0000
1001
0000
,
0001
0100
0001
0100
0000
0010
1000
0000
0100
0000
0001
0000
0100
0000
1100
0000
,
1000
0010
0100
0000
0001
0010
0100
0000
1000
0010
0100
0000
0001
0000
0011
0000
,
0001
0100
0001
0100
0000
0010
1000
0000
0100
0000
1000
0000
0001
0000
1010
0000
,
1000
0100
1000
0100
0000
0010
0001
0000
0100
0000
0001
0000
1000
0000
0110
0000
,
1000
0001
1000
0001
0000
0010
0100
0000
0010
0000
0001
0000
1000
0000
0110
0000
,
0010
1000
0100
0000
0010
0001
0100
0000
1000
0000
0100
0001
0100
0001
0010
0000
,
0110
0000
0000
0001
1001
0000
0000
0000
,
0010
0000
0000
0010
0000
0000
0010
0000
0000
0000
0000
0000
0000
0000
0000
0000
;

//--------------- dance-single - ----------------
#NOTES:
     dance-single:
     :
     Challenge:
     16:
     0,0,0,0,0:
0000
0000
0000
0000
,
0000
0000
0000
0000
,
0001
0000
1000
0000
,
0100
0000
1000
0010
,
0100
0000
0001
0000
,
2000
0000
0000
0000
0000
0000
0000
0000
0000
0000
0000
0000
0000
0000
0000
0000
3002
0000
0000
0000
0000
0000
0000
0000
0000
0000
0000
0000
0000
0000
0000
0000
0103
0000
0000
0000
0010
0000
0000
0000
0100
0000
0000
0000
0000
0000
0000
0000
0001
0000
0000
0000
0000
1000
0000
0000
0010
0000
0000
0000
0100
0000
0000
0000
,
0101
0000
0001
0100
1000
0100
0001
0010
0100
1000
0001
0000
0101
0000
0100
0001
,
1000
0000
1000
0100
0001
0100
1000
0010
0100
0001
1000
0000
1010
0000
0010
1000
,
0001
0000
0001
0010
1000
0010
0001
0100
0010
1000
0001
0000
1001
0000
0001
0010
,
1000
0000
0010
0001
1000
0000
0001
0100
1000
0000
0100
0010
0100
0010
1000
0001
,
0101
0000
0100
0001
0010
1000
0010
0001
1000
0100
0010
0000
0011
0000
0001
1000
,
0010
0000
0010
1000
0010
0001
0010
1000
0001
0010
0100
0000
0110
0000
0010
0001
,
0100
0000
0100
1000
0100
0001
0100
1000
0100
0001
0010
0000
1001
0000
1000
0100
,
0001
0000
0000
0000
0000
0000
0000
0000
0100
0000
0000
0000
1000
0000
0000
0000
0001
0000
0000
0000
0000
0000
0000
0000
1000
0000
0000
0000
0010
0000
0000
0000
0001
0000
0000
0000
0010
0000
0000
0000
1000
0000
0000
0000
0000
0000
0000
0000
0001
0000
0000
0000
0000
0010
0000
0000
0100
0000
0000
0000
1000
0000
0000
0000
,
0001
0000
0000
0000
0000
0000
0000
0000
0000
0000
0000
0000
0000
0000
0000
0000
0000
0000
0000
0000
0000
0000
0000
0000
0011
0000
0000
0000
0000
0000
0000
0000
0000
0000
0000
0000
0000
0000
0000
0000
0000
0000
0000
0000
0000
0000
0000
0000
0010
0000
0000
0000
0000
0000
0000
0000
0000
0000
0000
0000
0000
0000
0000
0100
0000
0000
0000
0000
0000
0000
0000
0000
1000
0000
0000
0000
0000
0000
0000
0000
0000
0000
0000
0000
0000
0000
0001
0000
0000
0000
0000
0000
0000
0000
0000
0000
1000
0000
0000
0000
0000
0000
0000
0000
0000
0000
0000
0000
0000
0000
0000
0000
0000
0000
0000
0000
0000
0000
0000
0000
0110
0000
0000
0000
0000
0000
0000
0000
0000
0000
0000
0000
0000
0000
0000
0000
0000
0000
0000
0000
0000
0000
0000
0000
0001
0000
0000
0000
0000
0000
0000
0000
0000
0000
0000
0000
0000
0000
0000
0000
0000
0000
0000
0000
0000
0000
0000
0000
1000
0000
0000
0000
0000
0000
0000
0000
0000
0000
0000
0000
0000
0000
0010
0000
0000
0000
0000
0000
0000
0000
0000
0000
,
0100
0000
0000
0000
0000
0000
0000
0000
0000
0000
0000
0000
0001
0000
0000
0000
0000
0000
0000
0010
0000
0000
0000
0000
0100
0000
0000
0000
0000
0000
0000
0000
0000
0000
0000
0000
1000
0000
0000
0000
0000
0000
0000
0010
0000
0000
0000
0000
0100
0000
0000
0000
0000
0000
0000
0000
0000
0000
0000
0000
0100
0000
0000
0000
0000
0000
0001
0000
0000
0000
0000
0000
1000
0000
0000
0000
0000
0000
0100
0000
0000
0000
0000
0000
0000
0000
0000
0000
0000
0000
1100
0000
0000
0000
0000
0000
,
0000
0000
0000
0000
0000
0000
0000
0000
0000
0000
0000
0000
1000
0000
0000
0000
0000
0000
0000
0010
0000
0000
0000
0000
0100
0000
0000
0000
0000
0000
0000
0000
0000
0000
0000
0000
1000
0000
0000
0000
0000
0000
0100
0000
0000
0000
0000
0000
0000
0000
0000
0000
0000
0000
0001
0000
0000
0000
0000
0000
0000
0000
0000
0000
0000
0000
0010
0000
0000
0000
0000
0000
0100
0000
0000
0000
0000
0000
0010
0000
0000
0000
0000
0000
0100
0000
0000
0000
0000
0000
1000
0000
0000
0000
0000
0000
,
0010
0000
0000
0000
0000
0000
0000
0000
0000
0000
0000
0000
0000
0000
0000
1000
0000
0000
0000
0000
0000
0000
0000
0000
0001
0000
0000
0000
0000
0000
0000
0000
0000
0000
0000
0000
0000
0000
1000
0000
0000
0000
0000
0000
0000
0000
0000
0000
0100
0000
0000
0000
0000
0000
0000
0000
0000
0000
0000
0000
0000
0000
0000
0000
0000
0000
0000
0000
0000
0000
0000
0000
0100
0000
0000
0000
0000
0000
0000
0000
0000
0000
0000
0000
0001
0000
0000
0000
0000
0000
0000
0000
0000
0000
0000
0000
0000
0000
0000
0000
0000
0000
0000
0000
0000
0000
0000
0000
0001
0000
0000
0000
0000
0000
0000
0000
0000
0000
0000
0000
0100
0000
0000
0000
0000
0000
0000
0000
0000
0000
0000
0000
1000
0000
0000
0000
0000
0000
0000
0000
0000
0000
0000
0000
0010
0000
0000
0000
0000
0000
0000
0000
0000
0000
0000
0000
1000
0000
0000
0000
0000
0000
0000
0000
0000
0000
0000
0000
0001
0000
0000
0000
0000
0000
0000
0000
0000
0000
0000
0000
0010
0000
0000
0000
0000
0000
0000
0000
0000
0000
0000
0000
,
0110
0000
0000
0000
0000
0000
0000
0000
0000
0000
0000
0000
0000
0000
0000
0000
0000
0000
0000
0000
0000
0000
0000
0000
0100
0000
0000
0000
0000
0000
0000
0000
0000
0000
0000
0000
0000
0000
0000
0000
0000
0000
0000
0000
0000
0000
0000
0000
0010
0000
0000
0000
0000
0000
0000
0000
0000
0000
0000
0000
0000
0000
0000
0001
0000
0000
0000
0000
0000
0000
0000
0000
1000
0000
0000
0000
0000
0000
0000
0000
0000
0000
0000
0000
0000
0000
0010
0000
0000
0000
0000
0000
0000
0000
0000
0000
0100
0000
0000
0000
0000
0000
0000
0000
0000
0000
0000
0000
0000
0000
0000
0000
0000
0000
0000
0000
0000
0000
0000
0000
0210
0000
0000
0000
0000
0000
0000
0000
0000
0000
0000
0000
0000
0000
0000
0000
0000
0000
0000
0000
0000
0000
0000
0000
1000
0000
0000
0000
0000
0000
0000
0000
0000
0000
0000
0000
0000
0000
0000
0000
0000
0000
0000
0000
0000
0000
0000
0000
0301
0000
0000
0000
0000
0000
0000
0000
0000
0000
0000
0000
0000
0000
0010
0000
0000
0000
0000
0000
0000
0000
0000
0000
,
0100
0000
0000
0000
0000
0000
0000
0000
0000
0000
0000
0000
1000
0000
0000
0000
0000
0000
0000
0010
0000
0000
0000
0000
0100
0000
0000
0000
0000
0000
0000
0000
0000
0000
0000
0000
0001
0000
0000
0000
0000
0000
0000
0010
0000
0000
0000
0000
0100
0000
0000
0000
0000
0000
0000
0000
0000
0000
0000
0000
1000
0000
0000
0000
0000
0000
0000
0010
0000
0000
0000
0000
0100
0000
0000
0000
0000
0000
0010
0000
0000
0000
0000
0000
0000
0000
0000
0000
0000
0000
1010
0000
0000
0000
0000
0000
,
0000
0000
0000
0000
0000
0000
0000
0000
0000
0000
0000
0000
1000
0000
0000
0000
0000
0000
0000
0100
0000
0000
0000
0000
1000
0000
0000
0000
0000
0000
0000
0000
0000
0000
0000
0000
1100
0000
0000
0000
0000
0000
0000
0000
0000
0000
0000
0000
1000
0000
0000
0000
0000
0000
0000
0000
0000
0000
0000
0000
0001
0000
0000
0000
0000
0000
0000
0100
0000
0000
0000
0000
0001
0000
0000
0000
0000
0000
0000
0000
0000
0000
0000
0000
0101
0000
0000
0000
0000
0000
0000
0000
0000
0000
0000
0000
,
0110
0000
0000
0000
0010
0000
0000
0000
1000
0000
0000
0000
1001
0000
0000
0000
0001
0000
0000
0000
0010
0000
0000
0000
0110
0000
0000
0000
0100
0000
0000
0000
1000
0000
0000
0000
1001
0000
0000
0000
0000
0000
1000
0000
0000
0100
0000
0000
,
0010
0000
0010
0001
1000
0000
0010
0100
0010
0100
0000
0001
0010
0000
0100
0000
,
2000
0000
0010
0000
0100
0000
3002
0000
0010
0000
0100
0000
,
0013
0100
1000
0100
0010
0000
0001
0000
0001
0100
0000
0010
0000
0100
1000
0000
,
0100
0000
0000
0000
0000
0000
0000
0000
0000
0000
0000
0000
0001
0000
0000
0000
0000
0000
0000
0010
0000
0000
0000
0000
0100
0000
0000
0000
0000
0000
0000
0000
0000
0000
0000
0000
0010
0000
0000
0000
0000
0000
0000
0000
0000
0000
0000
0000
0100
0000
0000
0000
0000
0000
0000
0000
0000
0000
0000
0000
1000
0000
0000
0000
0000
0000
0000
0010
0000
0000
0000
0000
0100
0000
0000
0000
0000
0000
0000
0000
0000
0000
0000
0000
0001
0000
0000
0000
0000
0000
0000
0000
0000
0000
0000
0000
,
0010
0000
0000
0000
0000
0000
0000
0000
0000
0000
0000
0000
0000
0000
0000
0100
0000
0000
0000
0000
0000
0000
0000
0000
0010
0000
0000
0000
0000
0000
0000
0000
0000
0000
0000
0000
0000
0000
0000
0000
0000
0000
0000
0000
0000
0000
0000
0000
0001
0000
0000
0000
0000
0000
0000
0000
0000
0000
0000
0000
0000
0000
0000
1000
0000
0000
0000
0000
0000
0000
0000
0000
0010
0000
0000
0000
0000
0000
0000
0000
0000
0000
0000
0000
0000
0000
0100
0000
0000
0000
0000
0000
0000
0000
0000
0000
0010
0000
0000
0000
0000
0000
0000
0000
0000
0000
0000
0000
0000
0000
0000
0000
0000
0000
0000
0000
0000
0000
0000
0000
0110
0000
0000
0000
0000
0000
0000
0000
0000
0000
0000
0000
0000
0000
0000
0000
0000
0000
0000
0000
0000
0000
0000
0000
0001
0000
0000
0000
0000
0000
0000
0000
0000
0000
0000
0000
0000
0000
0000
0000
0000
0000
0000
0000
0000
0000
0000
0000
0010
0000
0000
0000
0000
0000
0000
0000
0000
0000
0000
0000
0000
0000
0100
0000
0000
0000
0000
0000
0000
0000
0000
0000
,
1000
0000
0000
0000
0000
0000
0000
0000
0000
0000
0000
0000
0010
0000
0000
0000
0000
0000
0000
0100
0000
0000
0000
0000
0001
0000
0000
0000
0000
0000
0000
0000
0000
0000
0000
0000
0010
0000
0000
0000
0000
0000
0000
0100
0000
0000
0000
0000
1000
0000
0000
0000
0000
0000
0000
0000
0000
0000
0000
0000
0010
0000
0000
0000
0000
0000
0001
0000
0000
0000
0000
0000
1000
0000
0000
0000
0000
0000
0100
0000
0000
0000
0000
0000
0000
0000
0000
0000
0000
0000
0101
0000
0000
0000
0000
0000
,
0000
0000
0000
0000
0000
0000
0000
0000
0000
0000
0000
0000
0001
0000
0000
0000
0000
0000
0000
1000
0000
0000
0000
0000
0100
0000
0000
0000
0000
0000
0000
0000
0000
0000
0000
0000
1000
0000
0000
0000
0000
0000
0001
0000
0000
0000
0000
0000
0000
0000
0000
0000
0000
0000
0101
0000
0000
0000
0000
0000
0000
0000
0000
0000
0000
0000
0100
0000
0000
0000
0000
0000
0001
0000
0000
0000
0000
0000
0010
0000
0000
0000
0000
0000
0100
0000
0000
0000
0000
0000
0010
0000
0000
0000
0000
0000
,
0100
0000
0000
0000
0000
0000
0000
0000
0000
0000
0000
0000
0100
0000
0000
0000
0000
0000
0000
1000
0000
0000
0000
0000
0001
0000
0000
0000
0000
0000
0000
0000
0000
0000
0000
0000
0100
0000
0000
0000
0000
0000
0010
0000
0000
0000
0000
0000
0000
0000
0000
0000
0000
0000
0010
0000
0000
0000
0000
0000
1000
0000
0000
0000
0000
0000
0100
0000
0000
0000
0000
0000
0010
0000
0000
0000
0000
0000
0001
0000
0000
0000
0000
0000
1000
0000
0000
0000
0000
0000
0100
0000
0000
0000
0000
0000
,
0001
0000
0000
0000
0000
0000
0000
0000
0000
0000
0000
0000
0000
0000
0000
0000
0000
0000
0000
0000
0000
0000
0000
0000
0101
0000
0000
0000
0000
0000
0000
0000
0000
0000
0000
0000
0000
0000
0000
0000
0000
0000
0000
0000
0000
0000
0000
0000
0100
0000
0000
0000
0000
0000
0000
0000
0000
0000
0000
0000
0000
0000
0000
1000
0000
0000
0000
0000
0000
0000
0000
0000
0010
0000
0000
0000
0000
0000
0000
0000
0000
0000
0000
0000
0000
0000
0100
0000
0000
0000
0000
0000
0000
0000
0000
0000
0010
0000
0000
0000
0000
0000
0000
0000
0000
0000
0000
0000
0000
0000
0000
0000
0000
0000
0000
0000
0000
0000
0000
0000
0110
0000
0000
0000
0000
0000
0000
0000
0000
0000
0000
0000
0000
0000
0000
0000
0000
0000
0000
0000
0000
0000
0000
0000
0100
0000
0000
0000
0000
0000
0000
0000
0000
0000
0000
0000
0000
0000
0000
0000
0000
0000
0000
0000
0000
0000
0000
0000
0010
0000
0000
0000
0000
0000
0000
0000
0000
0000
0000
0000
0000
0000
1000
0000
0000
0000
0000
0000
0000
0000
0000
0000
,
0100
0000
0000
0000
0000
0000
0000
0000
0000
0000
0000
0000
0010
0000
0000
0000
0000
0000
0000
0001
0000
0000
0000
0000
0100
0000
0000
0000
0000
0000
0000
0000
0000
0000
0000
0000
0010
0000
0000
0000
0000
0000
0000
1000
0000
0000
0000
0000
0100
0000
0000
0000
0000
0000
0010
0000
0000
0000
0000
0000
0100
0000
0000
0000
0000
0000
1000
0000
0000
0000
0000
0000
0010
0000
0000
0000
0000
0000
0100
0000
0000
0000
0000
0000
0000
0000
0000
0000
0000
0000
1001
0000
0000
0000
0000
0000
,
0000
0000
0000
0000
0000
0000
0000
0000
0000
0000
0000
0000
0001
0000
0000
0000
0000
0000
0000
0010
0000
0000
0000
0000
0001
0000
0000
0000
0000
0000
0000
0000
0000
0000
0000
0000
0101
0000
0000
0000
0000
0000
0000
0000
0000
0000
0000
0000
1010
0000
0000
0000
0000
0000
0000
0000
0000
0000
0000
0000
1000
0000
0000
0000
0000
0000
0000
0010
0000
0000
0000
0000
1000
0000
0000
0000
0000
0000
0000
0000
0000
0000
0000
0000
0010
0000
0000
0000
0000
0000
0000
0100
0000
0000
0000
0000
,
0010
0000
1000
0000
0001
0000
1100
0000
1000
0000
0010
0000
0101
0000
0001
0000
0010
0000
0110
0000
0000
0100
0000
0000
,
1000
0000
0000
0000
0000
0000
0000
0000
1001
0000
0000
0000
0000
0000
0000
0000
1000
0000
0000
0000
0000
0000
0000
0000
0100
0000
0000
0000
0010
0000
0000
0000
0000
0000
0000
0000
0000
0001
0000
0000
1000
0000
0000
0000
0000
0000
0000
0000
0010
0000
0000
0000
0000
0000
0000
0000
0110
0000
0000
0000
0000
0000
0000
0000
,
0010
0100
1000
0100
0010
1000
0100
0010
0000
0100
1000
0010
0001
0000
0011
0000
,
0010
0000
0000
0000
0000
1000
0000
0000
0100
0000
0000
0000
0000
0000
0000
0000
0110
0000
0000
0000
0000
0000
0000
0000
0010
0000
0000
0000
0001
0000
0000
0000
0000
0000
0000
0000
0000
0000
0000
0000
0001
0000
0000
0000
0010
0000
0000
0000
0100
0000
0000
0000
0000
0000
0000
0000
0010
0000
0000
0000
0000
0000
0000
0000
,
0011
0000
0100
0000
1010
0000
0100
0010
0110
0000
1000
0000
1001
0000
0001
0010
,
0100
0000
0000
0000
0000
0000
0000
0000
1000
0000
0000
0000
0001
0000
0000
0000
0000
0000
0000
0000
0000
0000
0000
0000
0101
0000
0000
0000
0000
0000
0000
0000
0000
0000
0000
0000
0100
0000
0000
0000
0000
0000
0001
0000
0000
0000
0000
0000
0000
0000
0000
0000
0000
0000
0000
0001
0000
0000
0000
0000
0010
0000
0000
0000
0000
0000
0000
0000
0000
0000
0000
0000
1100
0000
0000
0000
0000
0000
0000
0000
0000
0000
0000
0000
0100
0000
0000
0000
0000
0000
0000
0000
0000
0000
0000
0000
,
1000
0001
0100
0001
1000
0100
1000
0001
0000
0100
0010
1000
1001
0000
0001
0000
,
1000
0100
0010
0100
0010
0001
0100
1000
0001
1000
0100
0001
0010
0000
0100
1000
,
0010
0001
0000
1000
0100
0000
0001
1000
0000
0100
0010
0000
1001
0000
0000
0000
,
0001
0000
0000
0000
0000
0100
0000
0000
0001
0000
0000
0000
0000
0100
0000
0000
0010
0000
0000
0000
0100
0000
0000
0000
0001
0000
0000
0000
1000
0000
0000
0000
0100
0000
0000
0000
0010
0000
0000
0000
0000
0000
0000
0000
0010
0000
0000
0000
0000
0000
0000
0000
0010
0000
0000
0000
0100
0000
0000
0000
1000
0000
0000
0000
,
0010
0000
0000
0000
0000
0100
0000
0000
0010
0000
0000
0000
0000
0100
0000
0000
0001
0000
0000
0000
1000
0000
0000
0000
0001
0000
0000
0000
0010
0000
0000
0000
0100
0000
0000
0000
1000
0000
0000
0000
0000
0000
0000
0000
1000
0000
0000
0000
0000
0000
0000
0000
0010
0000
0000
0000
0100
0000
0000
0000
0000
0001
0000
0000
,
1000
0000
0000
0000
0000
1000
0000
0000
0100
0000
0000
0000
0000
0100
0000
0000
0001
0000
0000
0000
0000
0001
0000
0000
0100
0000
0000
0000
0000
0100
0000
0000
1000
0000
0000
0000
0000
0000
0000
0000
0001
0000
0000
0000
0100
0000
0000
0000
0010
0000
0000
0000
0000
1000
0000
0000
0001
0000
0000
0000
0000
0001
0000
0000
,
0100
0000
0000
0000
0000
0100
0000
0000
1000
0000
0000
0000
0000
1000
0000
0000
0100
0000
0000
0000
0000
0100
0000
0000
0001
0000
0000
0000
0010
0000
0000
0000
0100
0000
0000
0000
1000
0000
0000
0000
0001
0000
0000
0000
0010
0000
0000
0000
1100
0000
0000
0000
0000
0000
0000
0000
0011
0000
0000
0000
0000
0000
0000
0000
,
0001
0000
0000
0000
0000
0100
0000
0000
1000
0000
0000
0000
0000
0100
0000
0000
0010
0000
0000
0000
0000
1000
0000
0000
0100
0000
0000
0000
0000
0010
0000
0000
0100
0000
0000
0000
1000
0000
0000
0000
0001
0000
0000
0000
0100
0000
0000
0000
0000
0000
0000
0000
0100
0000
0000
0000
0001
0000
0000
0000
1000
0000
0000
0000
,
0100
0000
0000
0000
0000
0010
0000
0000
0001
0000
0000
0000
0000
0100
0000
0000
0010
0000
0000
0000
0000
0001
0000
0000
0010
0000
0000
0000
0000
0000
0000
0000
1000
0000
0000
0000
0001
0000
0000
0000
0000
0000
0000
0000
0001
0000
0000
0000
0000
0000
0000
0000
0001
0000
0000
0000
1000
0000
0000
0000
0010
0000
0000
0000
,
0100
0000
0010
0000
1000
0000
0001
1000
0100
0000
1000
0001
0100
0000
1000
0100
,
0010
1000
0100
0010
1000
0010
0001
0100
2000
0000
0000
0000
0000
0000
3100
0000
,
0001
0010
1000
0010
0001
0010
0100
1000
0001
0000
0101
0000
0100
0001
1000
0000
,
1000
0100
0001
0100
1000
0100
0010
0001
1000
0000
1010
0000
0010
0100
0001
0000
,
0001
0010
1000
0010
0001
1000
0010
0100
0010
0000
0110
0000
0100
0001
1000
0000
,
0001
0010
1000
0000
0010
0001
1000
0000
0001
0100
1000
0000
0100
0001
0010
0000
,
0010
0001
0010
0100
1000
0010
0001
0010
1000
0000
1010
0000
0001
0010
0100
0000
,
0100
1000
0010
0001
0010
1000
0100
0000
0110
0000
0010
0001
1000
0000
1001
0000
,
0001
0100
1000
0100
0001
0010
1000
0010
0001
1000
0010
0000
0100
0000
0110
0000
,
0010
1000
0001
0000
1000
0100
0010
0000
0110
0000
0100
1000
0001
1000
0001
0000
,
0101
0000
0000
1000
1100
0000
0000
0000
,
0010
0000
0000
0010
0000
0000
0010
0000
0000
0000
0000
0000
0000
0000
0000
0000
;
