#TITLE:太陽系デスコ (ft.初音ミク);
#SUBTITLE:;
#ARTIST:ナユタン星人;
#TITLETRANSLIT:Taiyoukei Disco;
#SUBTITLETRANSLIT:;
#ARTISTTRANSLIT:NayutalieN;
#GENRE:POP;
#CREDIT:;
#MUSIC:Taiyoukei Disco.ogg;
#BANNER:Taiyoukei Disco.png;
#BACKGROUND:Taiyoukei Disco-bg.png;
#CDTITLE:;
#SAMPLESTART:60.426;
#SAMPLELENGTH:12.800;
#SELECTABLE:YES;
#OFFSET:-0.023;
#BPMS:0.000=150.000
,140.000=75.000
,141.000=150.000
,201.000=75.000
,203.000=150.000
,235.000=75.000
,237.000=150.000
;
#STOPS:24.000=0.200
,24.500=0.200
,25.000=0.200
,25.500=0.200
,26.000=0.200
,26.500=0.200
,27.000=0.200
,27.500=0.200
,28.000=0.200
,28.500=0.200
,29.000=0.200
,29.500=0.200
,130.000=0.800
,132.000=0.800
;
#BGCHANGES:3.625=Taiyoukei Disco.avi=1.000=0=0=0=StretchNoLoop====,
99999.000=-nosongbg-=1.000=0=0=0=StretchNoLoop====
;
#FGCHANGES:;

//--------------- dance-single - ----------------
#NOTES:
     dance-single:
     :
     Hard:
     13:
     0.591208,0.839141,0.66615,0.366383,0.058288,497,417,80,44,0,0,0.591208,0.839141,0.66615,0.366383,0.058288,497,417,80,44,0,0:
0000
0000
0000
0000
,
0000
0000
0000
0000
,
0202
0000
0000
0303
,
2200
0000
0000
3300
,
0220
0000
0000
0330
,
2002
0000
0000
0000
0000
3003
0001
0100
,
1010
1010
1100
1100
0011
0011
0101
0101
,
0110
0110
1001
1001
1000
0100
0010
0001
,
0100
0000
0110
0000
1001
0000
0010
0100
,
0010
0000
0110
0000
0001
0100
0010
0100
,
0001
0010
0100
1000
1001
0000
0100
0010
,
0100
0000
0110
0000
1000
0010
0100
0010
,
2000
0001
3001
0000
1001
0000
0001
0100
,
0010
0000
0110
0000
0100
0001
0010
0100
,
0001
0100
1000
0000
1001
0000
1000
0010
,
0100
0000
0110
0000
1000
0001
1000
0000
,
0001
0000
1000
0000
0001
1000
0001
1000
0001
0000
0100
0010
0100
0000
0001
0000
,
0000
0010
0100
0010
0000
0100
1000
0010
,
0100
0000
0010
0000
0001
0000
0010
0000
0100
0000
0001
0010
0001
0000
1000
0000
,
0000
0010
1000
0100
0000
0010
0001
1000
,
0020
0000
0100
0000
0130
0000
0000
0000
0010
0000
1000
0001
1000
0000
0100
0000
,
0000
1000
0001
1000
0000
0001
0100
0010
,
0100
1000
0100
0010
0100
0001
1000
0100
,
0000
0010
0001
0100
0110
0000
1001
0000
,
2100
0000
0010
0000
3010
0000
0000
0000
0001
0000
0100
0010
0100
0000
0001
0000
,
0000
0010
0100
1000
0000
1000
0100
1000
,
0100
0010
0100
1000
0001
0100
0001
0100
,
0000
0001
1000
0001
0000
1000
0010
0100
,
0002
1000
1003
0000
1000
0100
1000
0001
,
0000
0100
0010
0100
0000
0010
0100
0001
,
1000
0000
0100
0010
0100
0000
1000
0000
0010
0000
0100
0000
0001
0000
0100
0000
,
0000
0010
1000
0100
0011
0000
1100
0000
,
1010
0000
0101
0000
2010
0010
3010
0000
,
0012
0010
0013
0100
0010
0001
1000
0001
,
0010
0100
1000
0001
1000
0010
0010
0010
,
0110
0000
0100
0010
1010
0000
0000
0000
0101
0000
0000
0000
1010
0000
0000
0000
,
0101
1000
0000
0010
1000
0001
0100
0001
,
1000
0000
0100
0000
0000
0000
0010
0100
0010
0000
0001
0000
1000
0000
0010
0000
,
1000
0001
0100
0001
0011
0000
2100
0001
,
3001
0010
0011
0000
1100
0000
0011
0000
,
1100
0001
0000
0010
0001
1000
0100
1000
,
0001
0000
0100
0000
0000
0000
0001
0100
0001
0000
1000
0000
0020
0000
0000
0000
,
0130
0001
0010
0001
0200
0000
1300
0100
,
0010
1000
0010
1010
0001
0011
1000
1010
,
0001
0011
1000
1010
0001
1000
1010
0011
,
1010
0000
0011
0000
0000
0000
0001
1000
0001
0000
0010
0000
1000
0000
0001
0000
,
1000
0010
0001
0100
2000
0000
3002
0010
,
0013
1000
1100
0000
0011
0000
0101
0000
,
0010
0000
1010
0000
0000
0000
1100
0000
1000
0000
1001
0000
0001
0000
1000
0010
,
1000
0000
0010
0000
1001
0000
0001
0100
0001
0000
0100
0000
0020
0000
0000
0000
,
1030
0100
0020
0100
0130
1001
1020
0000
,
1030
0100
0020
0000
0031
0100
0001
1000
,
0100
1000
0200
0010
0310
0001
0021
0000
,
0031
0100
0020
0000
1030
0100
1000
0001
,
1000
0001
0020
0100
0130
0000
1020
0000
,
1030
0100
0020
0000
0031
0100
0010
0100
,
1000
0100
0002
1000
1003
0100
0021
0000
,
0031
0100
0020
0000
1030
0010
1010
0000
,
1100
0101
0011
2002
,
0000
0003
0001
3001
1001
0000
0000
0000
0001
0000
0100
0000
2000
0000
0000
0000
,
3001
0010
2000
0000
3001
0010
1000
0000
,
0110
0000
1001
0000
0001
0010
2000
0000
,
3001
0100
2000
0000
3001
0100
2000
0100
,
3100
0000
1001
0000
0001
0010
2000
0000
,
3001
0100
2000
0000
3001
0100
1000
0000
,
0110
0000
1001
0000
0001
0100
1000
0000
,
0001
0010
2000
0100
3100
0010
0110
0000
,
1001
2002
0000
0000
,
0000
0000
0000
0000
,
0000
0000
3003
0000
;

//--------------- dance-single - ----------------
#NOTES:
     dance-single:
     :
     Challenge:
     16:
     0.848152,0.925949,0.624516,0.26646,0.624516,713,638,75,32,0,0,0.848152,0.925949,0.624516,0.26646,0.624516,713,638,75,32,0,0:
0000
0000
0000
0000
,
0000
0000
0000
0000
,
0102
0100
0010
0013
,
2100
0100
0010
3010
,
0210
0010
0001
0301
,
0120
0000
0000
0000
0100
0000
0000
0000
1000
0000
0000
0000
1030
0010
1000
0000
,
1100
0101
1100
0101
1010
0011
1010
0011
,
1010
0000
1100
0000
0101
0000
0011
0000
1001
0000
0100
0010
0100
0000
0001
0000
,
0100
0000
0000
0000
0110
0000
0000
0000
1001
0000
1000
0100
1000
0000
0001
0100
,
0001
0000
1000
0100
1000
0000
0001
0000
0010
0000
0100
1000
0010
0000
0100
0000
,
0001
0000
0010
0001
0010
0001
0010
0100
1000
0000
0001
0100
0001
0000
1000
0100
,
1000
0000
0001
0100
0001
0000
0010
0000
0100
1000
0100
0010
0100
0000
1000
0000
,
0020
0000
0100
0000
0130
0001
0100
0001
0010
0000
0100
1000
0100
0000
0010
0001
,
0010
0000
0100
1000
0100
0000
0001
0000
0100
0000
1000
0010
0100
0000
0001
0000
,
1000
0000
0100
0000
0001
1000
0010
0100
1000
0000
0010
1000
0010
0000
0100
0001
,
0100
0000
0010
1000
0010
0000
0100
0000
0010
1000
0010
1000
0100
0000
0010
0000
,
0011
0000
1100
0000
0001
1000
0001
1000
0001
0000
0100
0001
0010
0000
0100
0000
,
0001
0000
0100
1000
0001
0000
0100
0000
0010
1000
0010
1000
0001
0000
0010
0000
,
0100
0000
1000
0000
0010
0000
0001
0000
0010
0000
1000
0100
0010
0000
0100
0000
,
1000
0001
1000
0001
0100
0000
0010
0000
0100
0010
0100
0010
1000
0000
0001
0000
,
2001
0000
0010
0000
3010
0000
0000
0000
0101
0000
0100
0001
1000
0000
0100
0000
,
0001
0000
0100
1000
0010
0000
0100
0000
0010
0100
0001
0010
0100
0000
0001
0000
,
0100
0000
1000
0000
0010
0000
0010
0000
0100
0000
0001
1000
0001
0000
0010
0000
,
0100
1000
0100
0010
0001
0000
1000
0000
0020
0000
0100
0000
0032
0000
0000
0010
,
0203
0000
1000
0000
0301
0100
0010
0100
1000
0000
0100
0001
1000
0000
0100
0000
,
0010
0001
0010
0100
0010
0000
0001
0000
0100
1000
0100
0010
0100
0000
1000
0000
,
0100
0001
0010
0100
0010
0000
0100
0000
0010
0000
0100
1000
0001
0000
0100
0000
,
0010
1000
0001
0010
0100
0000
0001
0000
0100
1000
0001
0100
0010
0000
0100
0000
,
2001
0000
0010
0000
3010
0000
0000
0000
0110
0000
0100
0001
0010
0000
0100
0000
,
1000
0001
0010
0001
1000
0000
0010
0000
0100
0010
1000
0010
0100
0000
0010
0000
,
1000
0000
0001
0000
0100
0000
1000
0000
0100
0000
0010
1000
0100
0000
0010
0000
,
0100
1000
0100
0010
1000
0000
0010
0000
0011
0000
0000
0000
1100
0000
0000
0000
,
1010
0000
0010
0100
0001
0000
0010
0000
2100
0000
0010
0000
3010
0000
0000
0000
,
0102
0000
0010
0000
0013
0100
1000
0100
1000
0000
0001
0100
0010
0000
0110
0000
,
0100
0001
0010
0000
0100
0000
1000
0000
0001
0000
1000
0000
1001
0000
0100
0000
,
0210
0000
0310
0010
1001
0000
1000
0010
0100
0000
0001
0010
0100
0000
1000
0010
,
0100
0000
2000
0000
0000
0000
3100
0001
1000
0000
0001
0010
0100
0000
0001
0100
,
1000
0000
0100
0000
0110
0000
0010
0001
0100
0000
0010
0000
0001
0000
0010
0000
,
1000
0010
1010
0001
0101
1000
2001
0010
,
3010
0100
0001
0010
0100
0000
1000
0010
0100
0000
0001
0010
0100
0000
1000
0010
,
0100
0000
0200
0000
0000
0000
0301
0010
1000
0000
0010
0001
0100
0000
0010
1000
,
0001
0000
0100
0000
0110
0000
0010
1000
0200
0000
0320
0000
2030
0000
0000
0000
,
3020
0000
0032
0000
0203
0000
2300
0000
3200
0000
0000
0301
1000
0000
0001
0010
,
0100
0010
0001
0010
0100
0000
1100
0000
1000
0000
0011
0000
0010
0000
0101
0000
,
0001
1010
0010
0101
0100
1001
1100
0011
,
1010
0000
0101
0000
0000
0000
0100
0001
0100
0000
0010
0000
1000
0000
0001
0000
,
1000
0100
0010
0001
2000
0000
3002
0100
,
0103
0010
1000
0010
1000
0000
0100
0000
0011
0000
0010
0000
1100
0000
0000
0000
,
1100
0000
0101
0000
0000
0000
0101
0000
0011
0000
1010
0000
1100
0000
0001
0010
,
0100
0000
0110
0000
1001
0000
0001
0100
0001
0000
0100
0010
0100
0000
0010
1000
,
0010
0000
0100
0001
1000
0010
0100
0001
1000
0000
1001
0000
1001
0000
1000
0010
,
1000
0000
0001
0010
0001
0000
1000
0010
1000
0000
0010
0000
0100
0000
0001
0000
,
0010
0000
1000
0000
0020
0000
0001
0000
0031
0000
1000
0000
0001
0000
1000
0100
,
1000
0000
0001
0100
0001
0000
1000
0100
1000
0000
0001
0100
0001
0000
0100
0000
,
1000
0000
0001
0000
0020
0000
1000
0000
1030
0010
0100
0001
1000
0000
0100
0100
,
0001
0000
0100
0100
1000
0000
0100
0100
0001
0000
1000
0100
0010
0000
0001
0000
,
1000
0000
0001
0000
0100
0000
0001
0000
0100
0000
1000
0000
0001
0000
0010
1000
,
0010
0000
0010
0001
0010
0000
0010
1000
0010
0000
0100
0000
1001
0000
0100
1000
,
0010
0000
0100
0001
0010
0000
0100
1000
0010
0100
0001
0010
2002
0000
0000
0000
,
0000
0003
0010
3010
1001
0000
0001
0100
1000
0000
0001
0010
1000
0000
0001
0010
,
1000
0000
0001
0100
1000
0000
0001
0100
1000
0000
0001
0010
1000
0000
1010
0000
,
0101
0000
0100
0000
1001
0000
0001
0010
1000
0000
0001
0100
1000
0000
0001
0100
,
1000
0000
0001
0010
1000
0000
0001
0010
1000
0000
0001
0100
1000
0000
1001
0000
,
0001
0010
0001
0010
1000
0000
0010
0001
0100
0000
0001
0100
1000
0000
0100
0010
,
1000
0000
0001
0010
1000
0000
0010
0100
1000
0000
0001
0100
1000
0000
0100
0000
,
0101
0000
0010
0000
1001
0000
0001
0100
1000
0000
0001
0010
0100
0000
0001
0010
,
1000
0000
0010
0100
1000
0000
1001
0000
1001
0000
0010
0000
0110
0000
0000
0000
,
0110
2002
0000
0000
,
0000
0000
0000
0000
,
0000
0000
3003
0000
;
