#TITLE:大正浪漫;
#SUBTITLE:;
#ARTIST:YOASOBI;
#TITLETRANSLIT:Taisho Romance;
#SUBTITLETRANSLIT:;
#ARTISTTRANSLIT:YOASOBI;
#GENRE:POP;
#CREDIT:;
#MUSIC:Taisho Romance.ogg;
#BANNER:Taisho Romance.png;
#BACKGROUND:Taisho Romance-bg.png;
#CDTITLE:;
#SAMPLESTART:49.404;
#SAMPLELENGTH:14.769;
#SELECTABLE:YES;
#OFFSET:-0.019;
#BPMS:0.000=130.000
,216.000=32.500
,217.000=65.000
,225.000=32.500
,226.000=130.000
;
#STOPS:243.000=0.115
,243.250=0.115
;
#BGCHANGES:1.500=Taisho Romance.avi=1.000=0=0=0=StretchNoLoop====,
99999.000=-nosongbg-=1.000=0=0=0=StretchNoLoop====
;
#FGCHANGES:;

//--------------- dance-single - ----------------
#NOTES:
     dance-single:
     :
     Hard:
     12:
     0,0,0,0,0:
0000
0000
0000
0000
,
0001
0100
0010
0000
1000
0010
0100
0000
,
0001
1000
0010
0100
0001
1000
0100
0010
,
0001
0000
0000
0000
0001
0000
1000
0000
0100
0000
1100
0000
0000
0000
1000
0100
,
0000
1000
0100
0000
0010
0000
0001
0000
0100
0000
0001
1000
0000
0000
0010
0000
,
0000
0100
0001
0100
1000
0200
0000
0301
,
0000
1000
0100
1000
0000
0001
0100
0001
,
0100
0000
0010
1000
0100
1000
0001
0010
,
0011
0000
0110
0000
1001
1000
0100
1000
,
0001
0000
0100
0001
0010
0100
1000
0001
,
0100
0010
0110
0000
1010
1000
0001
0100
,
0101
0000
0001
0010
0001
1000
0000
1001
,
0000
1000
0010
0000
0100
0000
0001
0000
1000
0000
0000
1100
0000
0000
0100
0000
,
0000
0010
0001
0100
0010
0000
0010
0100
,
0000
0100
0010
0000
0000
1000
1000
1000
,
0001
0100
0010
1000
0100
0001
0100
1000
,
1010
0000
1001
0000
0011
0000
0010
0001
,
1000
0001
0100
0010
0000
0100
0001
1000
,
0000
0001
0001
0000
1000
0100
0010
0001
,
1000
0100
0010
0001
1000
0001
0100
0020
,
0000
1000
0000
0031
0010
1000
0000
0001
,
0010
0100
1000
0001
0100
0001
0100
1000
,
0100
0000
0000
0010
1000
0100
0010
0001
,
0011
0000
0000
0010
0001
0100
0010
1000
,
1010
0000
0000
1000
0010
0100
0001
1000
,
0200
0000
0001
0000
0010
0000
1300
0001
,
1000
0001
0100
0010
0100
0000
0010
0010
,
0110
0000
0100
0001
0011
0000
0100
1000
,
0010
0001
1000
0100
0001
0000
0001
1000
,
0100
0000
1000
0010
0000
0100
0000
0100
0000
0000
0001
0000
1000
0000
0010
0000
,
0100
0000
0001
1000
0000
0001
0100
0010
0000
0000
0100
0000
0001
0000
0010
0000
,
0011
0000
0100
1000
1010
0000
0010
1000
,
0100
0001
1000
0010
0001
0000
0001
0100
,
0101
0000
0000
0000
1000
0000
0100
0000
1100
0000
0000
0100
1000
0000
0001
0000
,
0100
0000
0010
1000
0000
0001
0000
0000
1001
0000
0000
0000
0001
0000
0100
0000
,
0001
0000
1000
0100
0000
0001
0000
0100
0000
0000
1000
0001
0000
0000
1000
0000
,
0001
0000
0100
1000
0000
0100
0000
0001
0000
0000
1000
0001
0000
0000
0100
0010
,
0100
0000
0001
1000
0000
0000
0100
0000
1000
0000
0001
0000
0010
0000
0100
0000
,
1000
0000
0000
1000
0000
0001
0100
0000
0001
1000
0000
0010
0000
0010
0000
0100
,
0000
0000
0101
0000
0001
0000
0010
0000
0100
1000
0000
1000
0000
0010
0000
0100
,
0000
0000
0001
0000
1000
0010
0000
1000
0000
0001
0000
0010
0100
0010
0000
0001
,
0000
0000
1000
0000
0001
0000
0100
0000
0010
0100
0000
0001
0000
1000
0000
2002
,
0000
0000
3003
0000
1001
0000
0000
0000
1000
0000
0001
1000
0000
0010
0000
0100
,
0000
0000
0010
0000
1000
0000
0010
0000
0100
0001
0000
0010
0000
0100
0000
1000
,
0000
0001
0100
0000
0010
0000
1000
0100
0000
1000
0001
0000
0010
0000
0100
0010
,
0000
0100
0000
1000
0000
0001
0000
1000
0010
0000
0100
0000
0010
0000
0010
0000
,
1000
0001
0010
0001
1000
0001
0010
0002
,
0000
0023
0000
0230
0000
2300
0000
3010
,
0100
0010
1000
0010
0100
0010
1000
0010
,
0200
0000
0001
0000
0301
1000
0100
1000
,
0001
0000
1000
0001
0010
0001
0010
0001
,
1000
0000
0010
1000
0100
0001
0100
1000
,
0020
0000
1000
0000
0100
0000
0031
0010
,
1000
0100
0001
0100
1000
0010
0001
0010
,
2000
3002
1003
0100
1000
0000
0001
0100
,
0001
0000
0010
0001
1000
0001
0100
0010
,
1000
0000
0001
1000
0001
0000
1000
0000
,
1001
0000
0000
0000
1000
0000
0010
0000
1000
0000
0000
0010
0000
0000
0100
0000
,
0001
0011
1100
1001
,
0001
0000
1000
0000
0010
0000
1000
0000
0100
1000
0000
0001
0000
0100
0000
0001
,
0000
1000
0100
0000
0010
0000
0100
0000
0020
0000
0000
0000
0130
0100
0110
0000
,
0000
1001
1000
0001
0100
0010
0100
0001
,
0000
0000
1000
0000
0100
0000
1000
0000
0001
0100
0000
0010
0000
0100
0000
0000
,
0010
0000
1000
0000
0100
0000
0001
0000
0100
1000
0000
0010
0000
0100
0000
0000
,
1000
0100
0001
0011
0000
0001
0100
0110
,
0000
0010
1000
0100
0010
0001
0100
0110
,
0000
0001
1000
1100
0000
1000
0001
0101
,
0000
0000
0100
0000
0001
0000
0010
0000
0100
1000
0000
0001
0000
0000
0100
0000
,
0000
0010
0100
0101
0000
0001
0010
0110
,
0000
0100
1000
0010
0001
1000
0100
0110
,
0000
0000
1000
0000
0010
0000
0100
0000
0001
1000
0000
0100
0000
0010
0000
0000
,
0100
0000
1000
0000
0010
0000
0001
0000
0010
0100
0000
0001
0000
1000
0000
0100
,
0010
0001
1000
1001
0000
0001
1000
1001
,
0000
0001
0010
0100
0010
0001
1000
1100
,
0000
0010
0001
0100
0000
0010
1000
0100
,
0000
0010
0001
0000
0100
0000
0001
0000
1000
0100
0000
0010
0000
0000
1001
0000
,
0000
0000
1000
0000
0010
0000
0100
0000
0001
0010
0000
0100
0000
0010
0000
0000
,
0001
0000
0000
0000
1000
0000
0010
0000
0100
0010
0000
1000
0000
0001
0000
0000
,
0010
0000
0000
0000
0100
0000
1000
0000
0010
0100
0000
1000
0000
0001
0000
0010
,
0000
1000
0100
0000
0001
0000
1000
0000
0010
0001
0000
0100
0000
0000
0110
0000
,
0000
0000
1000
0000
0100
0000
0010
0000
0100
1000
0000
0001
0000
0100
0000
0000
,
0010
0000
0000
0000
0100
0000
0001
0000
1000
0100
0000
0010
0000
0100
0000
0000
,
1000
0001
0000
0000
0100
0000
0010
0000
0100
0000
0001
0000
1000
0000
0001
0000
,
0010
0100
0000
1000
0000
0000
1000
0000
0001
0100
0000
0001
1000
0000
0010
0100
,
0000
0010
0000
1000
0000
0001
0000
0000
0001
0000
0100
0000
1000
0000
0100
0001
,
0000
0010
0000
0100
0000
1000
0001
0000
0100
0000
0001
0000
1000
0100
0000
0010
,
0000
0001
0000
1000
0100
1000
0000
0001
0010
0000
0001
0100
0000
0110
0000
0000
;

//--------------- dance-single - ----------------
#NOTES:
     dance-single:
     :
     Challenge:
     16:
     0.864338,0.979875,0.577075,0.160629,1.151176,1017,920,97,27,0,0,0.864338,0.979875,0.577075,0.160629,1.151176,1017,920,97,27,0,0:
0000
0000
0000
0000
,
0001
0000
1000
0100
0010
0000
0001
0010
0100
0000
1000
0010
0100
0000
0010
0000
,
1000
0000
0000
0000
0000
0000
0001
0000
0000
0100
0000
0000
0010
0000
0000
0000
0000
0000
1000
0000
0000
0000
0000
0000
0001
0000
0000
0000
0000
0000
1000
0000
0100
0000
0010
0000
0100
0000
1000
0000
0001
0000
0010
0000
0100
0000
0010
0000
,
0001
0000
0000
0000
0001
0000
0010
0000
0100
0000
1100
0000
0000
0000
1000
0100
,
0000
1000
0010
0000
0100
0000
0001
0000
1000
0000
0001
0010
0000
0000
0100
0000
,
1000
0000
0001
0100
0001
0000
0100
0001
1000
0000
0200
0000
0000
0000
0310
0000
,
0000
0100
1000
0100
0010
0100
1000
0001
0010
0100
1000
0001
0010
0100
1000
0100
,
0010
0000
0010
0001
0100
0000
0100
0010
1000
0000
0100
0000
0001
0000
0100
0000
,
1100
0000
0000
0000
0011
0000
0000
0000
0101
0000
0001
1000
0100
0010
0001
1000
,
0001
0000
0000
0100
0000
0000
0001
0000
0000
1000
0000
0000
0010
0000
0000
0100
0000
0000
0001
0000
0000
0100
0000
0000
0010
0000
1000
0000
0010
0000
1000
0000
0001
0000
0010
0000
0001
0000
0010
0000
0100
0000
1000
0000
0001
0000
0100
0000
,
0001
0000
0101
0000
1010
0000
0010
0000
1000
0100
1000
0100
0010
0001
0100
0001
,
0100
0000
0110
0000
0010
1000
0000
0000
1000
0100
0010
0001
0000
0011
0000
1001
,
0000
0000
1001
0000
1000
0010
0100
0000
0001
0010
0000
0011
0000
1000
0010
0100
,
0001
0000
1010
0000
1000
0100
1000
0000
0001
0010
0100
0010
0001
1000
0000
1010
,
0000
0000
0110
0000
0001
0100
0010
1000
0001
0010
0100
1000
0100
0010
0100
1000
,
0001
0100
0001
0100
0010
0100
0010
0100
1000
0100
0000
0100
0001
0000
0010
0000
,
0011
0000
0001
0000
1001
0000
1000
0000
1100
0000
1000
0100
0010
0001
1000
0001
,
0010
0100
0000
1100
0000
0001
0100
0001
0100
1000
0000
0100
0000
0001
0000
0010
,
0100
0000
1000
0100
1000
0010
0000
0100
0001
0010
0100
1000
0001
0100
0010
1000
,
0001
0000
1000
0100
0010
0000
0100
0010
0001
0000
0010
0000
0001
0000
0100
0000
,
1010
0000
1000
0010
0100
0000
0001
0000
1000
0000
0100
0000
1100
0000
0101
0000
,
0001
0000
0100
0010
1000
0000
0010
0000
0100
0000
0001
0010
0100
0000
1000
0000
,
1100
0000
0100
0010
0001
0000
0010
0100
1000
0000
0100
0010
0001
0000
0011
0000
,
1001
0000
1000
0000
0010
0000
0100
0000
0020
0000
0000
1000
0000
0000
0100
0000
,
1030
0000
0100
0000
0110
0000
0001
0000
0020
0000
0000
0100
0000
0000
0001
0000
,
0130
0000
1000
0001
1000
0000
0010
0000
0100
0000
1000
0000
0001
0000
0010
0000
,
1000
0010
0100
0001
0010
0100
1000
0100
0010
0000
0010
0002
0100
0000
0103
0000
,
1001
0000
0100
0001
0011
0000
0010
0100
,
1000
0000
0010
0100
0000
0100
0001
0000
1001
0000
0000
0000
0001
0000
1000
0000
,
0100
0000
1000
0010
0000
0110
0000
0101
0000
0001
0010
0000
0100
0000
1000
0000
,
0001
0000
0100
0010
0000
0100
0001
2000
0000
0000
3100
0000
0010
0001
0100
0000
,
0110
0000
0010
1000
1100
0000
0100
0010
,
0011
0001
0100
0010
1010
0000
0001
0100
,
1010
0000
0000
0000
0001
0000
0010
0000
1100
0000
0000
0100
1000
0000
0001
0000
,
0100
0000
0000
0000
0000
0000
0010
0000
0000
1000
0000
0000
0000
0000
0000
1100
0000
0000
0000
0000
0000
0000
0000
0000
0010
0000
0000
0001
0000
0000
1000
0000
0100
0000
0010
0000
0100
0000
1000
0000
0100
0000
0010
0000
0001
0000
1000
0000
,
0010
0000
0010
0200
0000
0010
0000
0302
0000
0000
1000
1003
0000
0000
1000
0000
,
0100
0000
0010
0002
0000
1000
0000
2003
0000
0000
3010
0020
0000
0000
0130
0001
,
1000
0000
1000
0001
0000
0010
0100
0000
1100
0000
0001
0000
0101
0000
0100
0001
,
1000
0000
0000
1100
0000
0010
0001
0010
0100
1000
0000
1010
0000
0110
0000
0101
,
0000
0000
0000
0000
1010
0000
0000
0000
0001
0000
0100
0000
0010
0000
0100
0000
0001
0000
1000
0000
0000
0000
1100
0000
0000
0000
0011
0000
0000
0000
0001
0010
,
0001
0000
0100
0000
0001
1000
0000
1010
0000
0100
0000
0010
1000
0100
0000
0100
,
0000
0000
0000
0000
0000
0000
1001
0000
0000
0000
0000
0000
0001
0000
0000
0100
0000
0000
0010
0000
0000
1000
0000
0000
0001
0000
0000
0100
0000
0000
0000
0000
0000
1010
0000
0000
0000
0000
0000
1100
0000
0000
0000
0000
0000
1000
0000
0100
,
0000
0000
0010
0000
0000
0000
0001
0000
0000
1000
0000
0000
0100
0000
0000
0010
0000
0000
0002
0000
0000
2000
0000
0000
0000
0000
0000
0000
0000
0000
0000
0000
0000
3003
0000
0000
0000
0000
0000
0000
0000
0000
0000
0000
0000
0000
0000
0000
1001
0000
0000
0000
0000
0000
0000
0000
0000
0000
0000
0000
0001
0000
0000
0000
0000
0000
0010
0000
0000
0000
0000
0000
0000
0000
0000
0000
0000
0000
0100
0000
0000
0000
0000
0000
0000
0000
0000
0000
0000
0000
2100
0000
0000
0000
0000
0000
,
0000
0000
3010
0000
0100
0001
0010
0001
0010
0100
0000
0110
0000
0100
1000
0001
,
0000
0001
0100
0000
0100
0010
1000
0010
0000
0100
0001
0000
0010
0000
0100
0010
,
0000
0100
1000
0100
0010
0001
0010
0001
1000
0000
1010
0000
0010
0100
0010
0100
,
0001
0000
0000
0001
0010
0100
0010
0100
0010
1000
0010
0001
0100
0010
0100
0010
,
1000
0000
1000
0100
0010
0100
0010
0100
0001
0100
1000
0010
0100
0001
0100
0010
,
1000
0000
1000
0100
0010
0001
0010
0100
1000
0010
0100
1000
0100
0010
1000
0100
,
0010
0000
0010
0001
0010
0100
0010
0100
1000
0100
0010
0001
1000
0100
0010
0001
,
1000
0000
0000
0010
0100
0001
1000
0100
1000
0001
0010
0100
1000
0010
0100
0010
,
1000
0001
0100
0010
0100
1000
0100
0010
0001
0010
0100
0010
1000
0100
0010
0001
,
0010
0100
0010
0001
0000
0001
1000
0100
0010
0100
1000
0010
0100
0010
1000
0010
,
0100
0001
0010
0100
1000
0001
1000
0010
0100
0001
0010
0100
1000
0001
0100
0010
,
2000
0000
0000
0000
3002
0000
0000
0000
1003
0000
0010
0000
0010
0000
0100
0000
0100
0000
0000
0101
0000
0000
1000
0000
0001
0000
0010
0000
0010
0000
0100
0000
,
0100
0000
0000
1100
0000
0000
1000
0000
0010
0000
0100
0000
0001
0000
0100
0000
1000
0000
0100
0000
0001
0000
0010
0000
0100
0000
1000
0000
0001
1000
0001
0000
,
0010
0000
0000
0000
0100
0000
0000
0000
0020
0000
0000
0000
0000
0000
0000
0000
0031
0000
0000
0011
0000
0000
1000
0000
0100
0000
0000
1100
0000
0000
0001
0000
2002
0000
0000
0000
0000
0000
0000
0000
3003
0000
0000
0000
0000
0000
0000
0000
0202
0000
0000
0000
0000
0000
0000
0000
0303
0000
0000
0000
0000
0000
0000
0000
,
1100
0000
1000
0100
1000
0100
0010
0001
1000
0000
0010
0100
0000
0100
0001
0000
,
0101
0000
0000
0000
1010
0000
0000
0000
1100
0000
0000
1000
0010
0000
0110
0000
,
0001
0000
1000
0100
0010
0001
1000
0010
0100
0001
0000
1010
0000
0110
0000
0101
,
0000
0000
0000
0001
0000
0000
1000
0000
0000
0000
0000
0000
0001
0000
0010
0000
0100
0000
1000
0000
0100
0000
0010
0000
0002
0000
0000
0000
0000
0000
0000
0000
0000
0000
0000
0000
1003
0000
0000
1000
0000
0000
1010
0000
0000
0000
0000
0000
,
0000
0000
1001
0000
1000
0100
1000
0000
0001
0000
0100
0000
0010
1000
0200
0000
,
0000
0000
0310
0000
0001
0100
1000
0000
0100
0010
0000
1010
0000
0101
0000
0001
,
0010
0100
1000
0000
0010
0000
1000
0000
0100
0010
0000
0001
0000
0101
0000
0010
,
1000
0000
1000
0100
0010
0000
0011
0000
0000
0000
0001
0000
0100
0000
0110
0000
,
0000
0000
0010
0000
1000
0000
0100
0000
0001
0100
1000
0000
0010
0000
0110
0000
,
0000
0100
0001
0000
1000
0000
1100
0000
0000
0100
1000
0000
0001
0000
0101
0000
,
0000
0010
0100
0000
0001
0000
0010
0000
0100
1000
0000
0101
0000
0000
0110
0000
,
0010
1000
0001
0000
0010
0000
1100
0000
1000
0000
1010
0000
0010
0000
0101
0000
,
0001
0000
0011
0000
0010
0100
1000
0000
0010
0000
1010
0000
0010
0000
0101
0000
,
0000
0000
1000
0000
0010
1000
0100
0000
0100
2000
0000
3020
0000
0230
0000
0310
,
0001
0010
0100
0000
0010
1000
0001
0000
0001
0010
0100
1000
0000
0101
0000
0100
,
0010
0110
0100
1010
1000
1100
0100
0011
,
0001
0000
0101
0000
0100
0001
0010
0000
0010
0001
1000
0000
0010
0000
0110
0000
,
0000
0000
0010
1000
0100
0010
2000
0000
0001
0000
3002
0000
0103
1000
0010
0000
,
0010
0100
0001
0000
0100
0000
0001
0000
1000
0100
0000
0110
0000
0000
0011
0000
,
0000
0000
1100
0000
0010
0000
0101
0000
0100
0010
0000
1000
0000
0010
0000
0100
,
0001
0000
0001
0010
0100
1000
0001
0000
0100
0010
0000
1000
0000
0020
0000
0000
,
0130
0000
0001
0000
1000
0100
0010
0000
0001
0100
0010
1000
0000
1010
0000
1001
,
0000
0100
0001
0000
0010
0000
0110
0000
1000
0001
0000
0100
0000
0000
0110
0000
,
0010
0100
1000
0000
1100
0000
0110
0000
0100
0001
0010
0100
0000
1000
0000
1000
,
0010
0000
1000
0000
0010
0100
0010
0000
0001
0010
0000
1000
0000
0200
0000
0000
,
0310
0000
0000
0001
0000
0000
0000
0000
0000
1000
0000
0000
0001
0000
0000
0010
0000
0000
0001
0000
0000
0000
0000
0000
1000
0000
0100
0000
1000
0000
0100
0000
0000
0000
0000
0000
0010
0000
0000
0000
0000
0000
1001
0000
0000
0000
0000
0000
,
0000
0000
1001
0000
0000
0000
1000
0100
0010
0100
1000
0010
0100
0010
1000
0100
,
0000
0010
0000
0010
0000
0001
1000
0000
0001
0100
0010
0100
0001
0010
0100
1000
,
0000
0010
0000
0100
0000
0001
1000
0000
0001
0000
0001
0000
1000
0100
0000
0010
,
0000
0100
1000
0100
0010
0001
0000
0100
1000
0100
0001
0010
0000
0110
0000
0000
;
