#TITLE:大河よ共に泣いてくれ;
#SUBTITLE:;
#ARTIST:フランシュシュ;
#TITLETRANSLIT:Taiga Yo Tomo Ni Naite Kure;
#SUBTITLETRANSLIT:;
#ARTISTTRANSLIT:FranChouChou;
#GENRE:ANIME;
#CREDIT:;
#MUSIC:Taiga Yo Tomo Ni Naite Kure.ogg;
#BANNER:Taiga Yo Tomo Ni Naite Kure.png;
#BACKGROUND:Taiga Yo Tomo Ni Naite Kure-bg.png;
#CDTITLE:;
#SAMPLESTART:61.007;
#SAMPLELENGTH:11.034;
#SELECTABLE:YES;
#OFFSET:0.890;
#BPMS:0.000=174.000;
#STOPS:;
#BGCHANGES:3.000=Taiga Yo Tomo Ni Naite Kure.avi=1.000=0=0=0=StretchNoLoop====,
99999.000=-nosongbg-=1.000=0=0=0=StretchNoLoop====
;
#FGCHANGES:;

//--------------- dance-single - ----------------
#NOTES:
     dance-single:
     :
     Hard:
     12:
     0,0,0,0,0:
0000
0000
0000
0000
,
1000
0100
1000
0001
1000
0010
1000
0100
,
1000
0001
0100
0001
1000
0001
0010
0001
,
1000
0010
1000
0001
1000
0100
1000
0010
,
1000
0001
0010
0001
1000
0001
0100
0101
,
0000
1000
0010
0100
0010
0100
0001
1001
,
0001
0010
0100
0010
0100
1000
0001
1000
,
1010
0000
0000
0000
0101
0000
0000
0000
0011
0000
0000
1100
0000
0000
1001
0000
,
0100
0000
0100
0002
0000
1003
0010
0100
,
0010
0000
1001
0000
0100
0102
0000
0023
,
0000
0130
1000
0000
1000
0001
0000
0110
,
0000
0000
0120
0000
1030
0001
0000
0101
,
0000
0001
0000
1100
0000
1000
0010
0000
,
0110
0000
1001
0000
1000
0001
0100
0010
,
0000
0100
1010
0000
0001
1000
0000
0011
,
0000
0000
2100
0000
3001
1000
0010
0110
,
0000
1010
0000
0101
0000
0001
0010
0000
,
0100
1000
0100
0010
0001
0010
0100
0000
,
1000
0010
0100
0001
0100
0010
1000
0000
,
1000
0000
1010
0000
0001
0011
0000
0010
,
0100
0110
0000
1001
0000
0001
1000
1100
,
0000
0001
0101
0000
1000
0010
0100
0110
,
0000
0010
1010
1000
0100
0001
0000
0001
,
0100
1000
0010
0010
0100
0100
0001
0001
,
1000
0100
1000
1010
0000
0010
1000
0001
,
1000
0010
0100
0001
0100
0010
1000
0000
,
0001
0010
0100
1000
0100
0010
0001
0000
,
0001
0000
0101
0000
1000
1100
0000
0010
,
0100
0110
0000
1001
0000
0001
0100
1010
,
0000
0100
0110
0000
1000
0100
0010
0011
,
0000
0001
0100
1000
0100
1000
0100
0002
,
0000
0013
0100
0010
1000
0010
0100
0010
,
0002
0000
1003
0020
0000
0130
0001
1000
,
0100
2000
3200
0320
,
0230
2300
3002
0203
,
0320
2030
3002
2003
3200
0320
0000
0031
,
1000
0000
1000
0010
0000
0010
0100
0000
,
0001
0200
0320
0230
,
0302
0000
0000
0000
0023
0000
0000
0000
0230
0000
0000
0001
0000
0000
0010
0000
,
1300
0000
0000
0000
1001
0000
0000
0000
1000
0000
0000
0010
0000
0000
0110
0000
,
0000
0000
0100
0000
0001
0000
0000
0000
0001
0000
0000
1000
0000
0000
1001
0000
,
0000
0001
0100
0010
1000
0001
0100
0010
,
2000
0000
0000
0000
0000
0000
0010
0000
0000
0000
0000
3010
0000
0000
0000
0000
0002
0000
0000
0000
0000
0000
0100
0000
0000
0000
0000
0103
0000
0000
0000
0000
,
2000
3020
0000
0000
,
0000
0130
0010
0100
0010
0110
0000
1001
,
0000
0001
1000
0100
1000
0001
0100
0010
,
1000
0010
0001
1000
0100
1000
0001
0010
,
1000
0100
0010
0000
0001
0100
0001
0100
,
0010
0100
0010
1000
0001
1000
0100
0002
,
0000
1003
0010
0002
0000
1003
0010
0002
,
0000
1003
0100
0002
0000
1003
0010
0100
,
0001
0000
0001
0010
0000
0110
0000
1001
,
0000
1000
0010
0100
0001
1000
0000
1001
,
0000
1000
0001
0100
0001
1000
0100
0010
,
0001
0010
1000
0001
0100
0001
1000
0010
,
0001
0100
0010
0000
1000
0100
1000
0100
,
0010
0100
0010
0001
1000
0001
0100
0110
,
0000
0100
0001
0100
1000
0100
0001
1000
,
1001
0001
0010
1000
0010
0001
1000
1001
,
0000
0001
1000
0001
1000
0010
0100
0010
,
0200
0000
0000
0000
0000
0000
1000
0000
0000
0000
0000
0001
0000
0000
0000
0000
0320
0000
0000
0000
0000
0000
0001
0000
0000
0000
0000
1000
0000
0000
0000
0000
,
0230
0000
0320
0000
,
2030
0000
0000
0000
3200
0000
0310
0010
,
0001
1000
0000
0100
0001
0000
0100
1000
,
0000
0010
0001
0000
0010
2000
0100
3010
;

//--------------- dance-single - ----------------
#NOTES:
     dance-single:
     :
     Challenge:
     15:
     0.800205,0.865221,0.277849,0.011114,0.033342,504,479,25,1,0,0,0.800205,0.865221,0.277849,0.011114,0.033342,504,479,25,1,0,0:
0000
0000
0000
0000
,
0001
0000
1000
0000
0001
0000
0100
0000
0001
0010
0100
0000
0010
0100
1000
0001
,
1000
0000
0001
0000
1000
0000
0100
0000
1000
0010
0100
0000
0010
0100
0001
1000
,
0001
0000
0010
0000
0001
0000
0100
0000
0001
0100
0010
0000
0100
0010
1000
0001
,
1000
0010
1000
0100
1000
1010
0110
1001
,
0000
0001
0010
0100
0010
0001
0100
0110
,
0010
0000
1000
0000
0100
0000
0010
0000
0100
0000
1000
0000
0010
0100
0010
0000
,
0110
0000
1000
0000
0110
0000
0001
0000
0110
0000
0000
1001
0000
0000
1000
0000
,
0100
0000
0001
0000
0100
0000
2000
0000
0000
0000
3001
0000
1000
0000
0010
0100
,
0010
0000
0000
0000
1001
0000
0000
0000
0010
0100
0002
0000
0000
0000
0023
0000
,
0000
0000
0130
0000
1100
0000
0000
0000
1000
0000
0001
0100
0001
0000
0110
0000
,
0000
0000
0210
0000
0301
0100
1001
0010
,
0000
0000
0010
0000
1001
0000
0100
0000
0000
0000
1000
0000
0010
0100
0010
0000
,
0110
0000
1001
0000
0010
1000
0100
0020
,
0000
0000
0031
0000
0011
0000
0000
0000
0001
0000
1000
0100
1000
0000
0110
0000
,
0000
0000
0000
0000
0210
0000
0000
0000
0301
0100
0010
0000
1000
0010
0100
0000
,
0001
0000
1000
0100
0010
0000
1001
0000
0000
0000
0001
0010
0001
0000
1000
0100
,
1000
0010
0100
0010
0001
0010
0100
0010
,
1000
0100
0010
0100
0001
0100
0010
0100
,
1000
0100
0011
0001
0100
1010
0001
1000
,
0110
0110
0000
1001
0001
0100
1000
1100
,
0000
0100
0110
0000
0010
1000
0100
0110
,
0000
0010
0011
0001
0100
0010
1000
0001
,
0010
0000
0100
0000
1000
0100
1000
0000
0100
0010
0100
0000
0010
0001
0010
0000
,
0100
1000
0001
0000
0100
0000
0110
0000
0000
0000
0010
0000
1000
0010
0100
0000
,
0001
0100
0010
0100
1000
0100
0010
0100
,
0001
0010
0100
0010
1000
0010
0100
0010
,
0001
0010
1100
1000
0010
0101
1000
0001
,
0110
0000
0110
0000
0000
0000
1001
0000
1000
0000
0001
0100
0001
0100
0010
0000
,
0000
0000
0100
0000
0110
0000
0010
0000
1000
0000
0001
0010
0001
0010
0100
0000
,
0000
0100
0110
0010
0001
1000
0010
0200
,
0000
0000
0301
0000
0010
0000
0001
0000
1000
0100
1000
0100
0010
0100
0010
0001
,
1000
0000
0010
0000
0100
0000
1010
0000
0000
0000
0101
0000
0001
0010
0100
1000
,
0001
0100
0020
0130
0002
0103
0020
0130
,
2000
3100
0020
0130
2000
3100
0020
0130
,
0002
0103
0100
0100
0002
2003
3001
0010
,
0011
0000
1000
1100
0000
0100
0110
0000
,
0001
0010
0200
0310
0002
0013
0200
0310
,
2000
0000
3010
0000
0200
0000
0310
0000
2000
0000
3010
0001
0010
0001
0010
0001
,
0100
0000
1000
0000
0100
0000
0010
0000
1010
0000
0000
1001
0000
0000
0101
0000
,
0000
0000
0100
0000
0010
1000
0100
0000
0010
0000
0000
0001
0010
0100
1000
0000
,
0000
0000
0001
0100
0010
0000
0001
0010
1000
0000
0001
0010
0100
0000
0001
0100
,
2000
0000
0000
0000
0000
0000
0010
0000
0000
0000
0000
3100
0000
0000
0000
0000
1002
0000
0000
0000
0000
0000
0010
0000
0000
0000
0000
0103
0000
0000
0000
0000
,
0210
0320
0000
0000
,
0000
0100
0100
0100
0130
0110
0000
1001
,
0000
0000
1000
0100
0010
0000
0100
0000
1000
0000
0001
0100
0010
0000
0100
0000
,
0001
0000
1000
0010
0100
0000
1000
0100
0010
0000
0100
0001
0010
0000
0100
0000
,
1000
0000
0010
0100
0010
0000
0001
0000
1000
0000
0100
0010
0100
0000
0001
0000
,
1000
0000
0100
0010
0100
0000
0010
0001
0010
0000
0100
1000
0100
0000
0020
0000
,
0000
1000
0100
0032
0000
0203
0320
0230
,
0000
0000
0001
0000
0010
0000
2300
0000
0000
0000
3100
0000
0001
0000
1000
0100
,
1000
0010
0100
0101
0000
1010
0000
0110
,
0010
0000
1000
0100
0010
0100
0010
0001
1000
0100
0010
0000
0001
0000
2001
0000
,
0000
0000
3100
0000
0010
0000
0001
0100
0010
0000
0100
0000
0001
0000
1000
0100
,
0010
0000
0100
0000
1000
0000
0001
0010
0100
0000
0001
0100
0010
0000
0100
1000
,
0010
0000
0100
0000
0001
0000
0010
0100
0010
0000
1000
0000
0001
0000
0100
0010
,
0100
0000
1000
0000
0001
0000
0100
0010
0100
0000
0010
1000
0010
0000
0100
0010
,
1001
1000
1100
1000
1010
1000
1100
1000
,
1001
0001
0101
0001
0011
0001
0101
2001
,
0000
3001
0010
0001
0010
0100
1000
0100
,
1100
0000
0000
0000
0000
0000
1001
0000
0000
0000
0000
1010
0000
0000
0000
0000
0101
0000
0000
0000
0000
0000
1001
0000
0000
0000
0000
0011
0000
0000
0000
0000
,
2002
0003
3200
0000
,
0320
0000
0000
0000
0000
0000
0000
0000
0032
0000
0000
0000
1003
0100
0010
0000
,
0011
1001
0000
1010
1001
0000
1100
1001
,
0000
0101
1001
0000
0110
1002
0010
0103
;
