#TITLE:ただ、君のままで;
#SUBTITLE:;
#ARTIST:Sou;
#TITLETRANSLIT:Tada Kimi no Mama de;
#SUBTITLETRANSLIT:;
#ARTISTTRANSLIT:Sou;
#GENRE:ANIME;
#CREDIT:;
#BANNER:Tada Kimi no Mama de.png;
#BACKGROUND:Tada Kimi no Mama de-bg.png;
#LYRICSPATH:;
#CDTITLE:;
#MUSIC:Tada Kimi no Mama de.ogg;
#OFFSET:0.996000;
#SAMPLESTART:45.095001;
#SAMPLELENGTH:10.091000;
#SELECTABLE:YES;
#BPMS:0.000000=110.000000
;
#STOPS:
;
#BGCHANGES:0.000=1.000=0.000=0=0=0=StretchNoLoop====,
1.750=Tada Kimi no Mama de.avi=1.000=0=0=0=====,
99999=-nosongbg-=1.000=0=0=0 // don't automatically add -songbackground-
;
#KEYSOUNDS:;
#ATTACKS:;

//---------------dance-single - ----------------
#NOTES:
     dance-single:
     :
     Medium:
     11:
     0.514916,0.486568,0.339626,0.449182,0.372493,329.000000,298.000000,31.000000,41.000000,0.000000,0.000000,0.514916,0.486568,0.339626,0.449182,0.372493,329.000000,298.000000,31.000000,41.000000,0.000000,0.000000:
0000
0000
0000
0000
,
1000
0000
0001
0100
0000
0001
0010
0000
0001
0000
1000
0100
0000
1000
0010
0000
,
1000
0000
0001
0100
0000
0001
0010
0000
0200
0000
2300
0000
3002
0000
0203
0000
,
0310
0000
1000
0001
0000
0001
0010
0000
0010
0000
0100
1000
0000
1000
0010
0000
,
0020
0000
0230
0000
0302
0000
0023
0000
0230
0000
2300
0000
3001
0000
0010
0100
,
0000
0000
0000
0000
1000
0000
0010
0100
0000
0000
0000
0001
0100
0000
0001
1000
,
0000
0000
0000
0000
0001
0000
1000
0100
0000
0000
0000
0000
0010
0000
0001
1000
,
0000
0000
0000
0000
0010
0000
1000
0001
0000
0000
0000
0000
1000
0000
0100
0010
,
0000
0000
0000
0001
0010
0000
0100
1000
0000
0000
0000
0000
1000
0000
0001
0000
,
0101
0100
0001
1000
1100
0100
0010
0001
,
1001
1000
0010
0100
0110
0010
1000
0001
,
0011
0010
0100
1000
1010
0010
0100
0001
,
1001
0010
0100
0000
0000
0000
2000
3200
,
0320
0000
0032
0000
2003
0000
3020
0000
0230
0000
0302
0000
1003
0000
0000
1000
,
0010
0000
0000
0010
0100
0001
1000
0000
0001
0000
0010
0000
0110
0000
0000
1000
,
0001
0010
0100
1100
0000
1000
0001
0000
,
0001
1000
1010
0000
0001
2000
0001
0000
,
3010
0200
0010
0000
0310
2000
0001
0000
,
3002
0023
0230
1300
1100
0101
1001
1000
,
0010
0000
0100
0000
0001
0000
0010
0000
0100
0000
1000
0000
0020
0000
0000
1030
,
0001
0000
0100
0000
0010
0000
0100
0000
0010
0000
0100
0000
1010
0000
0000
1001
,
0000
0000
0102
0000
0023
0000
0230
0000
2300
0000
3010
0000
0110
0000
0000
1001
,
0000
0000
0001
0000
0010
0000
1000
0000
0010
0000
0001
0000
0100
0000
0010
1000
,
0000
0000
1000
0000
0100
0000
0010
0000
0001
0000
0100
0000
0110
0000
0000
1001
,
0000
0000
1000
0000
0010
0000
0001
0000
0010
0000
1000
0000
1010
0000
0000
0101
,
0000
0000
1001
0000
0000
0011
0000
0000
0010
0000
0100
0000
0110
0000
0000
1001
,
0000
0000
0001
0000
0100
0000
1000
0000
0100
0000
0001
0000
1000
0000
0100
0010
,
0000
0001
1000
0000
0010
0000
0000
0000
0100
0001
1000
0000
0001
0000
0100
0000
,
1000
0000
0100
0000
1000
0000
0100
0000
0001
1000
0001
0000
1000
0000
0100
0000
,
0001
0000
0100
0000
0001
0000
0100
0000
1000
0001
1000
0000
0010
0000
0100
0000
,
0001
1000
1100
0000
0011
0001
1100
0000
,
1000
0010
0200
0000
0302
0000
2003
0000
,
0100
3002
0000
0100
2003
0000
0010
3002
,
0000
0000
0010
0000
1003
0000
0000
0110
0000
0000
1000
0000
0100
0000
0010
0000
,
0001
0000
0000
0110
0000
0000
0001
0000
0100
0000
0010
0000
2000
0000
0000
3010
,
0000
0100
0002
0000
0000
0013
0000
0010
0100
0000
1000
0001
0000
1000
0002
0000
,
0000
0103
0000
0010
2000
0000
0000
3001
0000
0010
0200
0000
0000
1300
0000
0001
,
0020
0000
0000
0130
0000
1000
0001
0000
0100
0000
0010
1000
0001
0000
0000
0010
,
0000
0100
1000
0000
0000
1000
0010
0100
0001
0000
0001
1000
0000
1000
0010
0000
,
0000
0100
0000
0001
1000
0000
0000
0001
0000
0010
0100
0000
0000
1000
0000
0010
,
0100
0000
0000
0010
0000
1000
0001
0000
0000
0000
0000
0000
0000
0000
0000
0000
;

//---------------dance-single - ----------------
#NOTES:
     dance-single:
     :
     Hard:
     15:
     0.701162,0.774086,0.142424,0.175291,1.007921,448.000000,435.000000,13.000000,16.000000,0.000000,0.000000,0.701162,0.774086,0.142424,0.175291,1.007921,448.000000,435.000000,13.000000,16.000000,0.000000,0.000000:
0000
0000
0000
0000
,
1000
0100
0010
0001
0000
0001
0100
0000
0001
0100
0010
1000
0000
1000
0100
0000
,
1000
0100
0010
0001
0000
0001
0010
0100
1000
0100
0010
0001
1000
0100
0010
0001
,
0100
0010
0100
0000
0110
0000
1000
0001
0000
0010
0000
0010
0100
1000
0001
1000
,
0001
0000
0100
0000
0010
0000
1000
0010
0000
0100
0001
0100
0010
1000
0001
0010
,
0000
0000
0000
0000
0001
1000
0001
0100
0000
0000
0000
0010
1000
0100
0010
0001
,
0000
0000
0000
0000
1000
0010
0100
0001
0000
0000
0000
0000
1000
0001
1000
0100
,
0000
0000
0000
0000
1000
0001
1000
0010
0100
0000
0000
0000
0010
1000
0100
0010
,
0000
0000
0000
0001
0010
0100
1000
0001
0000
0000
0000
0000
1000
0100
0010
0001
,
1000
0000
1000
0010
0100
0000
0001
0010
0100
0000
1000
0001
1000
0000
0001
0010
,
0100
1000
0000
1000
0001
0000
0001
0100
0000
0010
0000
1000
0001
0000
0010
0100
,
0010
0000
0001
1000
0001
0000
0100
0010
0100
0000
0001
1000
0100
0010
0100
1000
,
0001
0000
0000
0010
0000
0000
0100
0000
0000
1000
0000
0000
0001
0000
0000
0000
0000
0000
0000
0000
0000
0000
0000
0000
0000
0000
0000
0000
0000
0000
0000
0000
0000
0000
0000
0000
1000
0000
0100
0000
1000
0000
0001
0000
0100
0000
0001
0000
,
1000
0000
0001
0000
0010
0000
0100
0000
1000
0000
0001
0000
0100
0000
0001
0000
1000
0000
0100
0000
1000
0000
0010
0000
0100
0000
0001
0000
1000
0000
0100
0000
0010
0000
0001
0000
1000
0000
0000
0000
0000
0000
0000
0000
0000
1000
0000
0000
,
0010
0000
0000
0010
0100
0001
1000
0000
0001
0000
0010
0100
1000
0000
0000
1000
,
0001
0000
0100
0000
0010
1000
0001
0000
0010
0000
0100
1000
0001
0000
0100
0010
,
0100
0001
0010
0000
0110
0000
0000
0000
0100
1000
0002
0000
0100
0000
1000
0000
,
0103
0010
2000
0000
0100
0000
3001
0010
0100
0010
0002
0000
1000
0000
0103
0010
,
0200
0000
0010
0000
0310
1000
0001
0000
0011
0000
1100
0000
1001
0000
1000
0010
,
0100
0000
0100
0001
1000
0000
0100
0000
0001
0000
0100
0000
2000
0000
0000
3001
,
0100
0000
0010
0000
1010
0000
0100
0000
0101
0000
0001
1000
0010
0000
0010
0100
,
0000
0100
0010
0000
0120
0000
2030
0000
3200
0000
0310
0000
1001
0000
0001
0010
,
0000
0100
1000
0000
0100
0000
0001
0000
0100
0000
1000
0000
0010
0000
0100
0001
,
0000
1000
0100
0000
0010
0000
0001
0000
0010
0000
0100
0000
1100
0000
1000
0010
,
0000
0100
0001
0000
1000
0000
0010
0000
0100
0000
0001
0000
0011
0000
0010
0100
,
0000
0100
1000
0000
1000
0001
0010
1000
0010
0001
1000
0100
0010
0000
0001
1000
,
0000
1000
0010
0000
0110
0000
0100
0000
0001
0000
0100
0000
1000
0000
0100
0001
,
0000
1000
0001
0000
0010
0000
0100
0000
0010
0001
1000
0000
0001
0000
0100
0010
,
0100
0001
0100
1000
0100
0000
0100
0001
0010
0100
1000
0000
0100
0000
0010
0100
,
0010
0001
0010
1000
0010
0000
0010
0100
1000
0010
0100
0000
1001
0000
0001
0100
,
0010
0100
0001
0010
1000
0002
0000
0103
1000
0001
0100
1000
0100
0010
0000
1000
,
0000
0000
0000
0001
0000
0000
0000
0000
0000
0010
0000
0000
0100
0000
0000
0010
0000
0000
0000
0000
0000
0001
0000
0000
1000
0000
0000
0000
0100
0000
0000
0000
0010
0000
0000
0000
0002
0000
0000
0000
0000
0000
1000
0000
0000
0000
0000
0000
,
0100
0000
0023
0000
0100
0000
0001
0000
0130
0000
1000
0001
0000
0100
0010
0000
,
0000
0100
0001
0010
0100
0000
0100
1000
0000
1000
0001
0100
1000
0100
0000
0100
,
0001
0010
1000
0010
0000
0010
0100
1000
0001
0010
0100
1000
0002
0000
0000
0013
,
0001
1000
0020
0000
0000
0130
0010
1000
0001
0000
0010
0100
0000
1000
0002
0000
,
0000
0103
0010
0100
2000
0000
0000
3100
0010
0100
0002
0000
0000
0013
0100
1000
,
0001
0000
0001
0010
0000
0010
0100
0000
0100
1000
0100
0010
0001
0000
0000
0100
,
0000
0001
1000
0000
0000
1000
0010
0100
0001
0000
0001
0010
0000
0100
1000
0000
,
0000
1000
0100
0010
0001
0000
0000
0001
0010
0100
1000
0000
0000
1000
0010
0100
,
0001
0000
0000
0001
0100
0010
1000
0000
0000
0000
0000
0000
0000
0000
0000
0000
;

//---------------dance-single - ----------------
#NOTES:
     dance-single:
     :
     Challenge:
     17:
     1.053309,1.039487,0.942187,0.471093,1.654305,673.000000,587.000000,86.000000,43.000000,0.000000,0.000000,1.053309,1.039487,0.942187,0.471093,1.654305,673.000000,587.000000,86.000000,43.000000,0.000000,0.000000:
// measure 0
0000
0000
0000
0000
,  // measure 1
1000
0100
0010
0001
0000
0001
0100
0000
0001
0100
0010
1000
0000
1000
0100
0000
,  // measure 2
1000
0100
0010
0001
0000
0001
0010
0100
1000
0100
0010
0001
1000
0100
0010
0001
,  // measure 3
0100
0010
0100
0001
0000
1000
0100
0000
0010
0001
0100
0010
0000
1000
0001
0000
,  // measure 4
1000
0000
0010
0000
0100
0000
0001
0000
0000
0000
0010
0000
0000
0000
0100
0000
1000
0000
0001
0000
1000
0100
1000
0100
2000
0000
3002
0000
0023
0000
0230
0000
,  // measure 5
1300
0100
0010
0001
2000
3020
0230
0302
1003
0010
0100
0020
2030
3200
0320
0230
,  // measure 6
1300
0001
0100
0010
2000
3020
0230
0302
1003
0100
0010
0001
2000
3020
0230
0320
,  // measure 7
1030
0001
0010
0100
2000
3002
2003
3020
0230
0301
0010
0100
2000
3020
0230
0302
,  // measure 8
1003
0000
0100
0000
0010
0000
0200
0000
2300
0000
3020
0000
0230
0000
0302
0000
0013
0000
0100
0000
1000
0000
0001
0000
2000
0000
3020
0000
0230
0000
0301
1000
,  // measure 9
0001
0010
0100
1000
1100
0000
1001
0001
1100
1000
0010
0100
0110
0000
0110
0001
,  // measure 10
1001
0000
1000
0000
0010
0000
0100
0000
0101
0000
0000
0000
0011
0000
0010
0000
1100
0000
1000
0000
0010
0000
0100
0000
0101
0000
0001
0000
1000
0100
1000
0000
,  // measure 11
0001
0000
0010
0000
0100
0000
1000
0000
1001
0000
1000
0000
0001
0100
0001
0000
1000
0000
0010
0000
0100
0000
0001
0000
1001
0000
0001
0000
0010
0100
0010
0000
,  // measure 12
0001
0000
0000
0010
0000
0000
0100
0000
0000
1000
0000
0000
0010
0000
0000
0000
0000
0000
0000
0000
0000
0000
0000
0000
0000
0000
0000
0000
0000
0000
0000
0000
0000
0000
0000
0000
0001
0000
0100
0000
0001
0000
1000
0000
0010
0000
0001
0000
,  // measure 13
0010
0000
1000
0000
0100
0000
1000
0000
0001
0000
0010
0000
1000
0000
0010
0000
0001
0000
0100
0000
0001
0000
1000
0000
0010
0000
0001
0000
1000
0000
0100
0000
0001
0000
0010
0000
0100
0000
0000
0000
0000
0000
0000
0000
0000
0100
0000
0000
,  // measure 14
1000
0000
0000
0000
0000
0000
0000
0000
0000
0000
0000
0000
0000
0000
0000
0000
0000
0000
0000
0000
0000
0000
0000
0000
0000
0000
0000
0000
0000
0000
0000
0000
0000
0000
0000
0000
1000
0000
0000
0000
0000
0000
0000
0000
0000
0000
0000
0000
0010
0000
0000
0000
0000
0000
0000
0000
0000
0000
0000
0000
0100
0000
0000
0000
0000
0000
0000
0000
0000
0000
0000
0000
0001
0000
0000
0000
0000
0000
1000
0000
0000
0000
0000
0000
0001
0000
0000
0000
0000
0000
0000
0000
0000
0000
0000
0000
0010
0000
0000
0000
0000
0000
0000
0000
0000
0000
0000
0000
0000
0000
0000
0000
0000
0000
0000
0000
0000
0000
0000
0000
0100
0000
0000
0000
0000
0000
0000
0000
1000
0000
0000
0000
0000
0000
0000
0000
0001
0000
0000
0000
0000
0000
0000
0000
1000
0000
0000
0000
0000
0000
0000
0000
0000
0000
0000
0000
0000
0000
0000
0000
0000
0000
0000
0000
0000
0000
0000
0000
1000
0000
0000
0000
0000
0000
0000
0000
0000
0000
0000
0000
0010
0000
0000
0000
0000
0000
0000
0000
0000
0000
0000
0000
,  // measure 15
0100
0000
0000
0000
0010
0000
1000
0000
0100
0000
0010
0000
0001
0000
0000
0000
0011
0000
0010
0000
0100
0000
1000
0000
0001
0000
0100
0010
0100
0000
1000
0000
,  // measure 16
0001
0010
1000
0100
0110
0000
0010
0001
1000
0100
0010
0000
0012
0000
1003
0010
,  // measure 17
0100
0000
0000
0010
0000
0000
1000
0000
0000
0000
0000
0000
2010
0000
0000
0000
0000
0000
3001
0000
0000
0010
0000
0000
0100
0000
0000
0010
0000
0000
0001
0000
0000
0000
0000
0000
1002
0000
0000
0000
0000
0000
1003
0000
0100
0000
0010
0000
,  // measure 18
0001
0000
0010
0000
0100
0000
1000
0000
1001
0000
0001
0000
0100
0001
0100
0001
1000
0000
0000
0000
0110
0000
0000
0000
1001
0000
0000
0000
1000
0000
0010
0000
,  // measure 19
0110
0100
0001
1000
1100
0000
0011
0000
1100
1000
0001
0000
0101
0000
1001
0000
,  // measure 20
1100
0000
1001
0000
0011
0000
1001
0000
1010
0000
0010
0100
0110
0000
1010
1100
,  // measure 21
0000
0000
0000
0011
0000
0000
0101
0000
0000
0000
0000
0000
0001
0000
0010
0000
0100
0000
1000
0000
0001
0000
0010
0000
0100
0000
1000
0000
0100
0000
0010
0000
0001
0000
1000
0000
0010
0000
0000
0000
0000
0000
0100
0000
0000
0101
0000
0000
,  // measure 22
0000
0001
0100
0010
1010
1000
0100
0010
0110
0100
1000
0001
0101
0000
0101
1001
,  // measure 23
1000
0010
0100
0001
0011
0000
0010
0100
1100
0000
1000
0001
0101
0000
1000
1100
,  // measure 24
0000
1000
0010
0100
0101
0001
0010
0100
1100
1000
0001
0100
0110
0000
0101
1100
,  // measure 25
1000
0000
0001
0000
0101
0000
0100
0000
0001
1000
0100
1000
0001
0100
0010
0100
0001
0010
0100
1000
0010
0100
0010
1000
0001
0000
0000
0000
0011
0000
1100
0000
,  // measure 26
0000
1000
0001
0100
0101
0000
0001
1000
1100
0000
0110
0000
1001
0000
0001
0100
,  // measure 27
0110
0000
0001
0000
1001
0000
0000
0000
1000
0000
0100
0000
1000
0000
0001
0000
0100
0000
1000
0000
0100
0000
0001
0000
1000
0000
0000
0000
0001
0100
0001
0100
,  // measure 28
0010
0000
1000
0000
0001
0010
0001
0010
0100
0000
1000
0000
0001
0100
0010
1000
0001
0000
0010
0000
0110
0000
0000
0000
1001
0000
0000
0000
1000
0100
1000
0100
,  // measure 29
0010
0000
0001
0000
1000
0010
1000
0010
0100
0000
0001
0000
1000
0100
0010
0001
1000
0000
0010
0000
0110
0000
0000
0000
1001
0000
0000
0000
0001
0000
1000
0000
,  // measure 30
0101
0001
1100
1000
0110
0002
0000
0013
1100
1000
0010
0100
0001
1100
0000
0101
,  // measure 31
0000
0000
0110
0000
2000
0000
0000
0000
3001
0010
0100
0010
0100
0000
1000
0000
0010
0000
0100
0000
0001
1000
0001
1000
0100
0000
0000
0000
1000
0000
0101
0000
,  // measure 32
0010
0000
0000
0000
0001
0000
1100
0000
0010
0000
0000
0000
1000
0010
0100
0001
0010
0000
0000
0000
0010
0000
1100
0000
0000
0000
0010
0000
0101
0000
0000
0000
,  // measure 33
0000
0000
1000
0000
0001
0010
0100
1000
0010
0000
0000
0000
0100
0000
1010
0000
0000
0000
0100
0000
0001
0000
0010
0000
0100
0000
1000
0000
0001
0000
0010
0000
,  // measure 34
0100
0000
1000
0000
0010
0100
0001
1000
0100
0000
0010
0000
0100
0000
1000
0000
0001
0000
0010
0000
0100
0000
1000
0000
1100
0000
0000
0000
0001
1000
0100
1000
,  // measure 35
0001
0010
0110
0000
0110
1000
0001
0100
0101
0000
1000
1100
0000
0001
0101
0000
,  // measure 36
0001
0010
0100
1000
0001
1000
0100
0010
0001
0000
1000
0000
0010
0000
1000
0000
0001
0000
0100
0000
0110
0000
0000
0000
0001
0000
0100
0000
0010
0000
1000
0000
,  // measure 37
1100
0000
0000
0000
0001
0000
0011
0000
0000
0000
1000
0000
1010
0000
0000
0000
0010
0100
0001
1000
0100
0010
0001
1000
0010
0000
0000
0000
0000
0000
0100
0000
,  // measure 38
0000
0001
0010
0000
0100
1000
0001
1000
0010
0000
0100
0001
0000
0001
0010
0000
,  // measure 39
0000
0100
1000
0010
0100
0000
0000
0100
0001
0010
0100
0000
0000
1000
0100
0010
,  // measure 40
0001
0000
0000
1000
0010
0100
0001
0000
0000
0000
0000
0000
0000
0000
0000
0000
;
