#TITLE:TENSIONS alterna 2018;
#SUBTITLE:;
#ARTIST:高橋洋子;
#TITLETRANSLIT:TENSIONS alterna 2018;
#SUBTITLETRANSLIT:;
#ARTISTTRANSLIT:Takahashi Youko;
#GENRE:Anime;
#CREDIT:;
#MUSIC:TENSIONS alterna 2018.ogg;
#BANNER:TENSIONS alterna 2018.png;
#BACKGROUND:TENSIONS alterna 2018-bg.png;
#CDTITLE:;
#SAMPLESTART:0.299;
#SAMPLELENGTH:19.233;
#SELECTABLE:YES;
#OFFSET:-0.296;
#BPMS:0.000=150.000
,188.000=110.000
;
#STOPS:;
#BGCHANGES:;
#FGCHANGES:;

//--------------- dance-single - ----------------
#NOTES:
     dance-single:
     :
     Hard:
     13:
     0,0,0,0,0:
0000
0000
0000
0000
,
0000
0000
0000
0000
,
0000
0000
0000
0000
,
0000
0000
0000
0000
,
0001
0100
0001
1000
0010
1000
0001
0100
,
0001
0000
1000
0000
0010
0000
1000
0000
0001
0000
1000
0100
1000
0000
0001
0010
,
0001
0100
0100
1000
0010
0010
0001
0100
,
0100
1000
0010
0010
0001
0100
0010
1000
,
0001
0010
0001
1000
0100
1000
0001
0010
,
0001
0000
1000
0000
0100
0000
1000
0000
0001
0000
1000
0010
1000
0000
0001
0100
,
0001
0010
0010
1000
0100
0100
0001
0010
,
0010
1000
0100
0100
0001
1000
0010
0100
,
0001
0000
1010
0000
0101
0000
0001
0010
,
0110
0000
0100
1000
0000
1100
0000
1001
,
0000
0000
0001
0100
0000
0110
0000
0010
,
1000
0000
1000
0100
0000
0011
0000
1100
,
0000
0000
1001
0000
0110
0000
0100
0001
,
1001
0000
1000
0010
0000
0110
0000
1010
,
0000
0000
0000
0101
0000
1001
0000
1100
,
0000
0000
0000
2000
0000
0000
0000
0000
0100
0000
0000
0000
3002
0000
0000
0000
0010
0000
0000
0000
0000
1003
0000
0000
,
1000
0100
1000
0001
0010
0001
1000
0100
,
1000
0000
0001
0000
0010
0000
0001
0000
1000
0000
0001
0100
0001
0000
1000
0010
,
1000
0100
0100
0001
0010
0010
1000
0100
,
0100
0001
0010
0010
1000
0100
0010
0100
,
1000
0000
0011
0000
1100
0000
1000
0100
,
0110
0000
1000
1001
0000
1010
0000
0101
,
0000
0000
0000
1001
0000
0110
0000
1000
,
1100
0000
0001
0011
0000
1010
0000
0101
,
0000
0000
1100
0000
0011
0000
0001
0100
,
1001
0000
1000
1010
0000
0110
0000
1001
,
0000
0000
0000
1001
0000
0101
0000
0001
,
0011
0000
0010
0110
0000
1001
0000
0110
,
0000
0000
1001
0000
0110
0000
1000
0010
,
0101
0000
0100
1010
0000
1001
0000
0011
,
0000
0000
0000
1001
0000
1100
0000
0100
,
0011
0000
0010
1100
0000
0101
0000
1100
,
0000
0000
0101
0000
1010
0000
1000
0010
,
1001
0000
0010
0101
0000
0110
0000
1001
,
0000
0000
0000
1100
0000
0101
0000
1100
,
0000
0000
0000
0002
0000
0000
0000
0000
0100
0000
0000
0000
2003
0000
0000
0000
0010
0000
0000
0000
0000
3001
0000
0000
,
0000
0000
1010
0000
0101
0000
0001
0010
,
1100
0000
1000
0011
0000
0101
0000
1010
,
0000
0000
0000
1001
0000
1100
0000
1000
,
0101
0000
0001
1100
0000
0001
0010
1001
,
0000
0000
1010
0000
0110
0000
0100
0001
,
0110
0000
1000
0110
0000
1010
0000
0101
,
0000
0000
0000
1100
0000
0011
0000
1001
,
2000
0000
3002
0203
0000
0302
0000
2003
,
3001
0000
1000
0100
1000
0000
0100
0010
0100
0000
0010
0001
0010
0000
0001
1000
,
0001
0000
0100
0001
0100
0000
0010
0100
0010
0000
0000
0000
1001
0000
0000
0000
,
1000
0000
0001
0100
0001
0000
0100
0010
0100
0000
0010
1000
0010
0000
1000
0001
,
1000
0000
0100
1000
0100
0000
0010
0100
0010
0000
0001
1000
0001
0000
1000
0100
,
2000
0000
0000
0000
0001
0000
3001
0100
0002
0000
0000
0000
0100
0000
0103
0010
,
0200
0000
0000
0000
1000
0000
1300
0100
0002
0000
0000
2003
0000
0000
0100
0000
,
0010
0000
0000
0000
3001
0010
0001
0010
0200
0000
0000
0000
0000
0000
0000
0000
,
0310
1001
0000
0000
0002
0023
0230
2300
,
3002
0023
0230
0000
0000
0000
0000
0000
,
0000
0000
0000
0000
,
0000
0300
0000
0000
;

//--------------- dance-single - ----------------
#NOTES:
     dance-single:
     :
     Challenge:
     15:
     0,0,0,0,0:
0000
0000
0000
0000
,
0000
0000
0000
0000
,
0000
0000
0000
0000
,
0000
0000
0000
0000
,
0001
1000
1000
0010
0100
0100
0001
0010
,
0010
0000
0100
0000
1000
0000
1000
0000
0001
0000
1000
0100
1000
0000
0001
0100
,
0001
0100
0100
1001
0010
0010
1001
0100
,
0100
1001
0010
0010
1000
0010
1000
0100
,
1000
0010
0010
0100
0001
0001
0010
0100
,
0100
0000
1000
0000
0010
0000
0010
0000
0100
0000
0001
0010
0001
0000
1000
0010
,
1000
0001
0001
0110
1000
1000
0110
0001
,
0001
0110
1000
1000
0001
0010
0001
0100
,
0001
0000
0011
0000
1100
0000
0011
0010
,
0110
0000
1001
1001
0000
1010
0000
0101
,
0000
0000
0000
0110
0000
1001
0000
1100
,
0011
0000
0011
1100
0000
1010
0000
0101
,
0000
0000
1001
0000
1001
0000
1100
0100
,
0011
0000
1100
1010
0000
0011
0000
0101
,
0000
0000
0000
0011
0000
1100
0000
1001
,
0000
0000
0000
0011
0000
0000
0000
0000
1100
0000
0000
0000
0101
0000
0000
0000
1010
0000
0000
0000
0000
0011
0000
0000
,
0011
0100
0100
1001
0010
0010
1001
0100
,
0100
0000
1001
0000
0010
0000
0010
0000
1001
0000
0001
0010
0100
0000
0100
0010
,
0001
1000
1000
1100
0001
0001
0101
1000
,
1000
1010
0001
0001
0011
0100
1010
0100
,
0011
0000
1001
0000
0110
0000
1100
0100
,
0011
0000
1010
0101
0000
0110
0000
1001
,
0000
0000
0000
1001
0000
1100
0000
0110
,
0011
0000
0101
1010
0000
1001
0000
0110
,
0000
0000
1001
0000
1001
0000
0011
0010
,
1100
0000
1001
1001
0000
0110
0000
0110
,
0000
0000
0000
0011
0000
0101
0000
1100
,
1010
0000
0011
0101
0000
1001
0000
1001
,
0000
0000
1001
0001
0110
0100
1100
0110
,
1001
0010
0101
0110
0010
1010
0001
0011
,
0010
0100
1000
0011
0100
1010
0100
0101
,
1001
0010
1010
0101
0010
0110
0100
1100
,
0010
0001
0011
0010
1010
0100
0101
0011
,
1001
1000
1010
0101
0010
0110
1000
1001
,
0100
0010
1000
0101
0010
1100
0010
0110
,
0100
0000
0000
0011
0000
0000
0000
0000
0101
0000
0000
0000
1100
0000
0000
0000
1010
0000
0000
0000
0000
0011
0000
0000
,
0000
0000
1001
0100
0011
1000
0101
0011
,
1001
0100
1010
1100
0010
0101
0010
1001
,
0001
0010
0100
0011
1000
0011
0100
1010
,
0011
0100
1100
1010
0100
0011
0110
1100
,
0001
0010
1100
0010
1001
0100
1010
0101
,
1010
0100
0101
1010
0100
0110
1000
0101
,
0010
0100
0010
1100
0010
1100
0010
1001
,
0002
0000
0023
0230
0000
2300
0000
3020
,
0130
0000
0001
0100
0001
0000
0001
1000
0001
0000
0001
0010
0001
0000
1000
0100
,
1000
0000
1000
0001
1000
0000
1000
0010
2000
0000
0000
0000
0100
0000
0000
0000
,
3010
0000
0010
1000
0010
0000
0010
0100
0010
0000
0010
0001
0010
0000
0100
0001
,
0100
0000
0100
0010
0100
0000
0100
1000
0100
0000
0010
0100
0010
0000
0100
0001
,
0020
0000
0000
0000
0000
0000
0031
0100
0020
0000
0000
0000
1000
0000
1030
0100
,
0020
0000
0000
0000
0001
0000
0031
0010
0200
0000
0000
2300
0000
0000
0100
0000
,
0001
0000
0000
0000
3001
0010
0100
1000
0020
0000
0000
0000
0100
0000
0000
0000
,
0030
0000
0000
1001
0000
0000
0000
0000
0000
0000
0000
0000
0001
0010
0100
1000
0001
0010
0100
1000
0001
0010
0100
1000
,
0001
0010
0100
1000
0001
0010
0200
0000
0000
0000
0000
0000
0000
0000
0000
0000
0000
0000
0000
0000
0000
0000
0000
0000
,
0000
0000
0000
0000
,
0000
0300
0000
0000
;
