#TITLE:たまものまえ;
#SUBTITLE:;
#ARTIST:水曜日のカンパネラ;
#TITLETRANSLIT:TAMAMO-NO-MAE;
#SUBTITLETRANSLIT:;
#ARTISTTRANSLIT:WEDNESDAY CAMPANELLA;
#GENRE:POP;
#CREDIT:;
#MUSIC:TAMAMO-NO-MAE.ogg;
#BANNER:TAMAMO-NO-MAE.png;
#BACKGROUND:TAMAMO-NO-MAE-bg.png;
#CDTITLE:;
#SAMPLESTART:8.226;
#SAMPLELENGTH:12.800;
#SELECTABLE:YES;
#OFFSET:2.374;
#BPMS:0.000=150.000;
#STOPS:;
#LASTBEATHINT:3.389950;
#BGCHANGES:6.500=TAMAMO-NO-MAE.avi=1.000=0=0=0=StretchNoLoop====,
99999.000=-nosongbg-=1.000=0=0=0=StretchNoLoop====
;
#FGCHANGES:;

//--------------- dance-single - ----------------
#NOTES:
     dance-single:
     :
     Medium:
     13:
     0,0,0,0,0:
0000
0000
0000
0000
,
0000
0000
0000
0000
,
0000
0000
0000
0000
,
0000
0000
0000
0000
,
0000
0000
0000
0000
,
0000
0000
0000
0000
,
0000
0000
0000
0000
0000
0001
0100
2000
,
0000
3100
0001
0010
0100
0010
0001
0010
,
0200
0000
1000
1300
0000
1000
0010
0001
,
0000
0001
0010
1000
0100
0010
0001
1000
,
0002
0000
0100
0020
0003
0130
1000
0002
,
0000
0203
0000
2300
0000
3200
0000
0302
,
0000
0013
0100
1000
0002
0000
0010
0200
,
0003
0310
1000
0001
0010
0100
1000
0001
,
2000
0000
0001
3001
0000
1000
0010
0100
,
0001
0000
0000
0001
0000
0000
0010
0000
0100
0000
0000
0100
0000
0000
1000
0000
,
0001
0000
0000
0100
0000
0000
1000
0000
0000
0000
0100
0000
0001
0000
1000
0000
,
0000
0001
0010
1000
0001
0100
1000
0001
,
1000
0010
0100
0010
0000
0100
0001
1000
,
0002
0000
0000
1000
0000
0000
0100
0000
0020
0003
0000
0100
0000
0000
0001
0000
,
0200
0030
0000
1000
0000
0000
1300
0000
0000
0000
0010
0000
1000
0000
0002
0000
,
0000
0023
0000
0130
1000
0100
0010
0001
,
0011
1100
1010
0101
,
1001
0001
0010
0100
1000
0001
0010
0100
,
1100
1000
0010
0100
0001
1000
0010
0100
,
0101
0001
0010
0100
1000
0001
0010
0100
,
1100
1000
0001
0001
0100
0001
0100
0010
,
1010
1000
0100
0010
0001
1000
0100
0010
,
0011
0001
0100
0010
1000
0001
0100
0010
,
1000
0100
0001
0100
1000
0010
0001
0010
,
1000
0000
0100
0000
0010
0000
0001
0000
1000
0000
0001
0100
0000
0001
0100
0000
,
0001
0000
1000
0000
0000
1100
0000
0000
0100
0000
1000
0000
0000
1010
0000
0000
,
1000
0000
0001
0000
0000
0011
0000
0000
0001
0000
0100
0000
0000
0101
0000
0000
,
0100
0000
0001
0000
0000
0011
0000
0000
0001
0000
1000
0000
0000
1010
0000
0000
,
1000
0000
0100
0000
0000
1100
0000
0000
1000
0000
0001
0000
0000
0101
0000
0000
,
0001
0010
1000
0001
0100
1000
0001
0010
,
0110
0100
1000
0010
0001
1000
0100
0001
,
0010
0010
0100
0100
1000
1000
0001
0001
,
1000
0100
0010
0001
0200
0000
0310
0000
,
1001
0000
0000
0100
0000
0000
0100
0000
1001
0000
0000
0010
0000
0000
0010
0000
,
1001
0000
0000
0100
0000
0000
0010
0000
0200
0000
0000
0000
0320
0000
0030
0000
,
0110
0000
0000
1000
0000
0000
1000
0000
0110
0000
0000
0001
0000
0000
0001
0000
,
0020
0230
2300
3001
,
0101
0000
0000
0101
0000
0000
0001
0000
1100
0000
0000
1100
0000
0000
1000
0000
,
0110
0000
0000
0110
0000
0000
0001
0000
2000
0000
0000
0000
3200
0000
0000
0000
,
0310
0000
0000
0010
0000
0000
0001
0000
1100
0000
0000
1010
0000
0000
0001
0000
,
0110
0000
1001
0000
0110
0000
0001
1000
,
0100
0000
0100
1000
0002
0000
0013
0100
,
0010
0000
0010
0001
2000
0000
3001
0100
,
0010
0000
0000
0010
1000
0000
0001
0000
0010
0000
0100
0000
1000
0000
0001
0000
,
1000
0010
0001
0010
1000
0000
0001
0010
,
0100
0000
0000
0100
1000
0000
0001
0000
1000
0000
0000
0000
1000
0000
0010
0000
,
0100
0000
0000
0100
0001
0000
1000
0000
0001
0000
0000
0000
1000
0000
0100
0000
,
0010
0000
0000
0010
0000
0000
0010
0000
0100
0000
1000
0000
0001
0000
0010
0000
,
1000
0010
0001
1000
0020
0000
0000
0000
,
0130
0100
0001
0001
1000
0100
0010
0100
,
1000
0010
0001
1000
0100
0001
0110
0000
,
1000
0000
0000
0100
0000
0000
1000
0000
0001
0000
0000
0100
0000
0000
0001
0000
,
1000
0000
0000
0100
0000
0000
1000
0000
0001
0000
0000
0010
0200
0000
0000
0000
,
1300
0000
0000
0010
0000
0000
1000
0000
0001
0000
0000
0010
0000
0000
0001
0000
,
0011
0000
1100
1000
0001
0100
0000
0010
,
1000
0000
0000
0100
0000
0000
0100
0000
0001
0000
0000
0100
0000
0000
0100
0000
,
1000
0000
0000
0100
0000
0000
0100
0000
0001
0000
0000
1000
0002
0000
0103
0000
,
0010
0010
0100
0100
0010
0010
0100
0100
,
0001
0010
0100
1000
0001
0110
0000
0000
,
0001
0000
0000
0100
0000
0000
0010
0000
1000
0000
0000
0100
0000
0000
0010
0000
,
0100
0000
0000
1000
0000
0000
0001
0000
0100
0000
0010
0000
2010
0000
0000
0000
,
3010
0000
0000
0010
1000
0000
0001
0000
0010
0000
0000
0010
0100
0000
1000
0000
,
0011
0000
1000
0100
0010
0001
1000
0000
,
0110
0000
0000
0101
0000
0000
0110
0000
1010
0000
0000
0011
0000
0000
0110
0000
,
1100
0000
0000
1001
0000
0000
0101
0000
0110
0000
0000
1010
0000
0000
1100
0000
,
1001
0000
0000
0011
0000
0000
0110
0000
1100
0000
0000
1001
0000
0000
0011
0000
,
0120
0000
0100
0000
0130
1000
0001
0010
,
0100
0000
0000
0100
0000
0000
1000
0000
0001
0000
0000
0001
0000
0000
0100
0000
,
0010
0000
0000
0010
0000
0000
2000
0000
0000
0000
3001
0000
0010
0000
1000
0000
,
0000
1000
0010
0001
1000
0001
0100
0001
,
0100
1000
0100
0001
0000
1000
0100
0010
,
0001
0000
0000
0001
0000
0000
0010
0000
0100
0000
0000
0100
0000
0000
1000
0000
,
0010
0000
0000
0010
0000
0000
0200
0000
0000
0000
0301
0000
1000
0000
0100
0000
,
0000
0100
0000
0100
1000
0001
0100
0010
,
2000
0000
3020
0000
0230
0000
0301
1000
,
1100
0000
0000
0000
;

//--------------- dance-single - ----------------
#NOTES:
     dance-single:
     :
     Hard:
     15:
     0,0,0,0,0:
0000
0000
0000
0000
,
0000
0000
0000
0000
,
0000
0000
0000
0000
,
0000
0000
0000
0000
,
0000
0000
0000
0000
,
0000
0000
0000
0000
,
0000
0000
0000
0000
0000
0001
1000
0020
,
0100
0000
0000
0130
0001
0000
0010
0000
0100
0000
0010
0000
0001
0000
1000
0001
,
0100
0000
0101
1100
0000
1000
0001
2000
,
0000
0000
3010
0100
0010
0000
1000
0000
0001
0000
0010
0000
0100
0000
1000
0000
,
1100
0000
0000
0000
1100
0000
0101
0000
0000
0000
1000
0001
1000
0000
0020
0000
,
0000
0230
0000
0302
0000
1003
0100
0110
,
0000
0000
0010
0001
1000
0000
0010
0000
1010
0000
0000
0000
1010
0000
0101
0000
,
0000
0000
0001
0010
0100
0000
0010
0000
0001
0000
0100
0000
0010
0000
1000
0000
,
0001
0010
0100
0000
0010
0100
1000
0000
0001
0010
0100
1000
0001
0000
0100
0010
,
0100
0000
0000
0001
0010
0000
0100
0000
1000
0000
0000
0010
0100
0000
0001
0000
,
1000
0000
0000
0001
0010
0000
0100
0000
0010
0000
0001
0000
1000
0010
0200
0000
,
0000
0000
0310
1000
0001
0000
0100
0000
0002
0000
0100
0000
1000
0000
0100
0000
,
1003
0100
0010
0110
0000
0001
1000
0100
,
1000
0000
0000
1000
0010
0000
0100
0000
0001
0000
0000
0001
0010
0000
0100
0000
,
1000
0000
0000
1000
0010
0000
0100
0000
0001
0000
0010
0000
0100
0000
1100
0000
,
0000
0101
0000
0011
0010
0100
0010
0001
,
1000
0100
1000
0000
0001
0100
0001
0000
1000
0100
0010
0001
1000
0000
0010
0000
,
0110
0000
0100
0001
2000
0000
0100
0000
3001
0010
0200
0000
0010
0000
1300
0001
,
0010
0000
0100
1000
0002
0000
0100
0000
1003
0010
0200
0000
0010
0000
0301
1000
,
0100
0000
1000
0010
0200
0000
0010
0000
0301
1000
0020
0000
0100
0000
1030
0001
,
0010
0100
0010
0000
0100
0010
0100
0000
1000
0001
1000
0001
0100
0000
0010
0000
,
0110
0000
0100
0001
2000
0000
0010
0000
3001
0010
0200
0000
0010
0000
1300
0001
,
0010
0000
0100
1000
0002
0000
0100
0000
1003
0010
0200
0000
0001
0000
0310
1000
,
0001
0010
0100
1000
0001
1000
0100
0010
,
0001
1000
0001
1000
0001
1000
0001
1000
0001
0000
0100
0010
0000
0100
0010
0000
,
1000
0000
0001
0100
0000
0001
0100
0000
0001
0000
1000
0100
0000
1000
0100
0000
,
1000
0000
0001
0010
0000
0001
0010
0000
0001
0000
1000
0010
0000
1000
0010
0000
,
1000
0000
0001
0100
0000
0001
1000
0000
0001
0000
1000
0100
0000
1000
0001
0000
,
1000
0000
0001
0010
0000
0001
1000
0000
0001
0000
1000
0010
0000
1000
0001
0000
,
1001
0000
1000
0010
0200
0000
1000
0000
0310
1000
0200
0000
0001
0000
0310
0001
,
1000
0000
0001
0100
0020
0000
0001
0000
0130
0001
0020
0000
1000
0000
0130
1000
,
0001
0000
0100
0010
0100
0000
0001
0010
0001
0000
1000
0100
1000
0000
0010
0100
,
0010
1000
0001
0000
1000
0100
0010
0000
0002
0000
0000
0000
1003
0000
0000
0000
,
0011
0000
0000
1100
0000
0000
1000
0000
1010
0000
0000
0101
0000
0000
0001
0000
,
0021
0000
0000
1000
0000
0000
0130
0000
1001
0000
0000
0000
0100
0000
0000
0000
,
0011
0000
0000
0011
0000
0000
1100
0000
1100
0000
1000
0001
0000
0100
0001
0000
,
0020
0230
2300
3001
,
0101
0000
0000
1010
0000
0000
1000
0000
1100
0000
0000
0011
0000
0000
0001
0000
,
0200
0000
0000
0320
0000
0000
0130
0000
1001
0000
0000
0000
0001
0000
1000
0010
,
0100
0000
0000
0001
0000
0000
1100
0000
1010
0000
0010
1000
0000
0001
0010
0000
,
0110
0000
1001
0000
0110
0000
0001
1000
,
0001
0100
1000
0100
0002
1000
0013
0100
,
1000
0001
0010
1000
0020
0001
0130
1000
,
0001
0000
1000
0010
0000
0010
0100
0000
0001
0000
0010
0000
0100
0000
1000
0000
,
0001
0000
0001
0000
1000
0000
1000
0000
0020
0000
0000
0000
0130
0000
0001
1000
,
0001
0000
0000
0001
0010
0000
0100
0000
1100
0000
0000
0000
0001
0000
1000
0001
,
1000
0000
0000
1000
0010
0000
0100
0000
0101
0000
0000
0000
0001
0000
1000
0100
,
0010
0000
0000
0010
0100
0000
1000
0000
0001
0000
0100
0000
1000
0000
0100
0000
,
0001
0000
1000
0100
0010
0000
0001
0010
0200
0000
0000
0000
0300
0000
0000
0000
,
1100
1000
0101
0001
1010
1000
0011
0001
,
0110
1000
0110
0001
0110
0100
1001
0000
,
1001
0000
0000
0001
1000
0000
0010
0000
0110
0000
0000
0100
0001
0000
1000
0000
,
1100
0000
0000
0100
0010
0000
0001
0000
0011
0000
0000
0010
0200
0000
1300
0000
,
1001
0000
0000
0001
0100
0000
1000
0000
1100
0000
0000
1000
0100
0000
0001
0000
,
1001
0000
0001
0010
0100
2000
3002
0013
,
0110
0000
0000
0100
1000
0000
0010
0000
1010
0000
0000
1000
0001
0000
0100
0000
,
0101
0000
0000
0001
0010
0000
0100
0000
0110
0000
0000
0010
0002
0000
1003
0000
,
1010
0100
1100
0001
0101
0010
0011
0100
,
0110
0000
0000
1000
0000
0000
1001
0000
0000
0100
0000
0000
0110
0000
0000
1001
0000
0000
0001
0000
1000
0000
0001
0000
,
2000
0000
0000
0010
0000
0000
0001
0000
3002
0000
0000
1000
0000
0000
0010
0000
,
0023
0000
0000
0001
0000
0000
0100
0000
0130
0000
1000
0000
2002
0000
3003
0000
,
1001
0000
0000
0011
0000
0000
0001
0010
0100
0000
0000
1100
0000
0000
1000
0010
,
0100
0000
0001
1000
0001
1001
0010
0000
,
1020
0000
1030
0001
0000
0100
0001
0000
0201
0000
0301
1000
0000
0100
1000
0000
,
1002
0000
0103
0010
0000
0100
0001
0000
2001
0000
3100
0010
0000
0100
1000
0000
,
0110
0000
0000
1010
0000
0000
0011
0000
1100
0000
0000
1001
0000
0000
0101
0000
,
2000
3000
0020
0230
0300
0002
2003
3000
0200
0300
0020
0030
0002
0003
2000
3000
,
1010
0000
0000
1000
0000
0000
1000
0000
0001
0000
0000
0001
0000
0000
0010
0000
,
0100
0000
0000
0100
0000
0000
1000
0000
0010
0000
0100
0000
0001
0000
2000
0000
,
0000
3001
0010
0100
0020
0001
0100
0001
,
0130
1000
0001
0101
0000
0001
1000
0010
,
0100
0000
0000
0100
0000
0000
0001
0000
1000
0000
0000
1000
0000
0000
0010
0000
,
0100
0000
0000
0100
0000
0000
0001
0000
0000
0000
0001
0000
0010
0000
0200
0000
,
0000
2300
0000
3001
0100
1000
0100
0001
,
2000
0000
3002
0000
0023
0000
0130
1000
,
1100
0000
0000
0000
;

//--------------- dance-single - ----------------
#NOTES:
     dance-single:
     :
     Challenge:
     17:
     0.924472,1.074908,0.663523,0.093674,0.983576,829,744,85,12,0,0,0.924472,1.074908,0.663523,0.093674,0.983576,829,744,85,12,0,0:
0000
0000
0000
0000
,
0000
0000
0000
0000
,
0000
0000
0000
0000
,
0000
0000
0000
0000
,
0000
0000
0000
0000
,
0000
0000
0000
0000
,
0000
0000
0000
0000
0000
0000
0000
0000
0000
0000
0000
0000
0000
0000
0000
0001
0100
0001
0100
0000
0000
0020
0000
0000
,
1000
0000
0000
0000
0000
0000
0000
0000
0000
0130
0000
0000
0001
0000
0000
0000
0000
0000
0010
0000
0000
0000
0000
0000
0100
0000
0000
0000
0000
0000
0010
0000
0000
0000
0000
0000
0001
0000
0000
0000
0000
0000
1000
0000
0100
0000
1000
0000
,
0100
0000
0000
0000
0000
0000
1100
0000
0000
0101
0000
0000
0000
0000
0000
0001
0000
0000
1000
0010
1000
0010
0000
0000
,
0100
0000
0000
0001
0010
0000
0100
0000
0010
0000
0001
0000
1000
0000
0010
0000
,
0101
0000
0000
0000
0101
0000
1100
0000
0001
0000
0100
0010
0100
0000
0001
0000
,
1000
0000
0000
0000
0000
0000
0000
0000
0000
0001
0000
0000
0010
0000
0000
0000
0000
0000
0100
0000
0000
0000
0000
0000
1000
0000
0000
0000
0000
0000
0001
0000
0000
0000
0000
0000
1000
0000
0000
0000
0000
0000
0010
0000
0100
0000
0010
0000
,
0100
0000
0000
0000
0000
0000
0000
0000
0000
0001
0000
0000
0010
0000
0000
0000
0000
0000
0100
0000
0000
0000
0000
0000
1000
0000
0000
0000
0000
0000
0001
0000
0000
0000
0000
0000
1000
0000
0010
0000
1000
0000
0001
0000
0000
0000
0000
0000
,
0100
0000
0000
0000
0000
0000
0000
0000
0000
0010
0000
0000
1000
0000
0000
0000
0000
0000
0001
0000
0000
0000
0000
0000
0010
0000
0000
0000
0000
0000
0100
0000
0000
0000
0000
0000
1000
0000
0000
0000
0000
0000
0001
0000
0100
0000
0001
0000
,
1000
0100
0010
0001
1000
0100
0010
0001
1000
0100
0010
0001
1000
0000
0010
1000
,
0001
0000
0000
0001
0100
0000
0010
0000
0100
0000
0001
1000
0001
0000
0010
0000
,
0100
0000
0000
0000
0000
0000
0000
0000
0000
0100
0000
0000
1000
0000
0000
0000
0000
0000
0001
0000
0000
0000
0000
0000
0200
0000
0000
0000
0000
0000
0010
0000
0000
0000
0000
0000
0310
0000
1000
0000
0001
0000
1000
0000
0000
0000
0000
0000
,
0010
0000
0000
0000
0000
0000
0000
0000
0000
0010
0000
0000
0100
0000
0000
0000
0000
0000
0001
0000
0000
0000
0000
0000
1000
0000
0000
0000
0000
0000
0100
0000
0000
0010
0000
0000
0100
0000
0000
0000
0000
0000
1000
0000
0100
0000
1000
0000
,
0001
0000
0000
0001
0100
0000
0010
0000
0100
0000
0001
0000
1000
0000
0100
0010
,
0002
0010
0013
0001
2000
0010
3010
0100
,
0002
0100
0103
0010
2000
0100
3100
0010
,
0110
0000
0000
0000
,
0001
0010
0001
0010
0100
1000
0100
1000
0001
0000
0000
0000
0110
0000
0000
0000
,
1001
0000
0001
0010
0100
0010
0001
1000
0100
0010
0100
1000
0001
0010
0100
1000
,
1100
0000
1000
0010
0100
0010
1000
0001
0100
0010
0100
0001
1000
0010
0100
0001
,
0101
0000
1000
0100
0010
0100
1000
0001
0010
0100
0010
0001
1000
0010
0100
0001
,
0010
0100
1000
0100
1000
0001
0100
0001
0100
0010
1000
0001
0010
0100
1000
0010
,
0110
0000
1000
0010
0100
0010
1000
0001
0100
0010
0100
0001
0010
0100
1000
0001
,
0011
0000
0001
0010
0100
0010
0001
1000
0100
0010
0100
1000
0001
0010
0100
1000
,
1100
1001
1100
1010
0101
1001
0101
0011
,
0001
0010
0100
1000
0001
0010
0100
1000
0001
0000
0100
0010
0000
0100
0010
0000
,
1001
0000
0001
0100
0000
0001
1000
0000
1001
0000
1000
0100
0000
1000
0001
0000
,
0110
0000
0100
0001
0000
1000
0100
0000
0110
0000
0010
0001
0000
1000
0010
0000
,
0110
0000
0100
0001
0010
0100
1000
0010
0100
0010
1000
0100
0010
0001
0100
0010
,
0100
0001
0010
0100
1000
0010
0100
0010
1000
0100
0010
0001
0100
0010
0100
0001
,
0011
0000
0010
0100
1000
0010
1000
0100
0010
0001
0100
0001
0010
0100
1000
0001
,
0101
0000
0001
0100
0010
1000
0100
1000
0010
0100
0001
0010
0001
0100
0010
1000
,
1010
0000
1000
0001
0100
0001
1000
0001
0010
0100
1000
0001
0010
0100
1000
0001
,
1000
0010
0001
0010
1000
0001
0010
1000
0020
0000
0000
0000
0130
0000
0000
0000
,
0011
0000
0000
1100
0000
0000
0001
1000
0010
0000
0000
0101
0000
0000
1000
0001
,
0010
0000
0000
1100
0000
0000
0011
0000
1100
0000
1000
0010
0100
0000
0010
1000
,
0001
0000
0000
0011
0000
0000
1100
0000
0101
0000
0001
1000
0000
0010
0100
0000
,
0002
0000
0000
0000
0023
0000
0000
0000
2030
0000
0010
0000
3010
0001
0100
0010
,
0100
0000
0000
0110
0000
0000
0010
1000
0001
0000
0000
0011
0000
0000
0001
0010
,
0100
0000
0000
0000
1000
0100
0010
0001
2000
0000
0000
0000
3010
0100
0010
0100
,
0001
0000
0000
0101
0000
0000
1100
0000
1010
0000
0010
1000
0000
0001
0010
0000
,
0110
0000
0000
0000
1001
0000
0000
0000
0110
0000
0000
0000
0001
0100
0001
0100
,
0010
1000
0001
0010
0200
0000
0310
0001
,
0100
0000
1000
0000
0100
0000
0001
0000
2000
0000
0000
0000
3001
0000
0100
0010
,
0100
0000
0001
0010
0000
0100
1000
0000
0010
0000
0100
0000
0001
0000
1000
0000
,
1100
0000
0001
0000
0101
0000
1000
0000
1100
0000
0000
0000
1000
0000
0010
0100
,
0001
0000
0000
0001
0010
0000
0100
0000
1100
0000
0000
0000
0001
0000
0010
0100
,
1000
0000
0000
1000
0010
0000
0100
0000
0101
0000
0000
0000
0001
0000
0010
0100
,
0010
0000
1000
0010
0000
0010
0001
0000
0100
0000
1000
0000
0100
0000
0001
0000
,
0010
0100
1000
0001
0100
0010
1000
0001
0020
0000
0000
0000
0000
0000
0000
0000
,
0130
0000
0000
0000
0000
0000
0000
0000
0000
1000
0000
0000
0001
0000
0000
0000
0000
0000
0100
0000
0000
0010
0000
0000
0100
0000
0000
0000
0000
0000
0001
0000
1000
0000
0100
0000
1000
0000
0100
0000
1000
0000
0001
0000
0000
0000
0000
0000
,
0010
0000
1000
0000
0001
0000
0100
0000
1100
0000
0101
0000
0001
0010
0100
1000
,
0001
0000
0000
0001
1000
0000
0010
0000
0101
0000
0000
1000
0001
0000
0010
0000
,
0100
1000
0100
0010
0100
1000
0100
0010
0001
1000
0000
0000
0001
0000
0000
0100
0000
0000
0210
0000
0000
0000
0000
0000
,
0310
0000
0000
1000
0001
0000
0010
0000
0110
0000
0000
0100
0010
0000
0001
0000
,
1001
0000
0000
0000
1000
0000
0010
0000
0100
0001
0010
0000
0100
1000
0010
0000
,
0110
0000
0000
0100
0001
0000
0010
0000
1010
0000
0000
1000
0010
0000
0001
0000
,
1000
0000
0010
0000
0100
0000
0010
0000
1000
0000
0010
0000
0100
0000
0001
0000
0100
0000
0010
0000
0000
1000
0000
0000
0100
0000
0000
0010
0000
0000
0001
0000
0000
1000
0000
0000
0200
0000
0000
0000
0000
0000
0010
0000
0000
0000
0000
0000
,
1300
0001
0100
1000
0001
1000
0100
0001
,
0010
0000
0000
1000
0000
0000
0010
0000
0000
0001
0000
0000
0100
0000
0000
1000
0000
0000
0100
0000
0000
0001
0000
0000
0010
0000
0000
1000
0000
0000
0010
0000
0000
0001
0000
0000
0100
0000
0000
0000
0010
0000
0000
0000
0100
0000
0000
0000
,
0110
0000
0000
1010
0000
0000
0101
0000
0011
0000
0000
1001
0000
0000
1100
0000
,
1010
0000
0000
1001
0000
0000
0101
0000
0001
0000
0010
0000
0220
0000
0330
0000
,
1100
0000
1000
0010
0000
1000
0010
0100
0001
0000
0001
0010
0000
0001
0010
0100
,
1100
0001
1010
0100
0011
1000
0101
0000
,
0110
0000
0000
0010
1000
0100
0010
0000
0110
0000
0000
0010
0001
0100
0010
0000
,
0110
0000
0000
0100
0001
0010
0100
0000
0110
0000
0000
0100
1000
0010
0100
0000
,
0110
0000
0000
1010
0000
0000
1100
0000
0101
0000
0000
0011
0000
0000
1010
0000
,
1000
0010
1000
0001
0010
1000
0001
0100
0001
1000
0010
0001
0100
0000
0010
0000
,
1010
0000
0000
1000
0010
0000
0001
0000
0010
0000
0000
1000
0100
0000
0001
0000
,
0100
0000
0000
1000
0010
0000
0100
0000
0001
0000
0000
1000
0001
0000
0100
0000
,
0001
0000
0000
0001
0010
0000
1000
0000
0010
0000
0011
0000
1000
0000
1100
0000
,
0100
0000
0000
1000
0010
0000
0100
0000
0001
0000
0010
0100
0010
0000
1000
0000
,
0001
0000
0000
0100
1000
0000
0010
0000
0001
0000
0000
1000
0100
0000
0001
0000
,
0010
0000
0000
0100
1000
0000
0001
0000
0100
0000
0010
1000
0001
0000
0010
0000
,
0100
0000
0000
0100
0000
0000
1000
0000
0010
0000
0000
0010
0000
0000
0100
0000
,
0002
0000
0023
0000
0230
0000
1300
0001
,
0101
0000
0000
0000
;
