#TITLE:至上主義アドトラック;
#SUBTITLE:;
#ARTIST:hololive IDOL PROJECT(夏色まつり, 大神ミオ, 不知火フレア);
#TITLETRANSLIT:Supreme Principle AD TRUCK;
#SUBTITLETRANSLIT:;
#ARTISTTRANSLIT:hololive IDOL PROJECT;
#GENRE:POP;
#CREDIT:;
#MUSIC:Supreme Principle AD TRUCK.ogg;
#BANNER:Supreme Principle AD TRUCK.png;
#BACKGROUND:Supreme Principle AD TRUCK-bg.png;
#CDTITLE:;
#SAMPLESTART:60.890;
#SAMPLELENGTH:12.750;
#SELECTABLE:YES;
#OFFSET:-0.158;
#BPMS:0.000=160.000;
#STOPS:;
#BGCHANGES:0.000=Supreme Principle AD TRUCK.avi=1.000=0=0=0=StretchNoLoop====,
99999.000=-nosongbg-=1.000=0=0=0=StretchNoLoop====
;
#FGCHANGES:;

//--------------- dance-single - ----------------
#NOTES:
     dance-single:
     :
     Medium:
     13:
     0,0,0,0,0:
0000
0000
0000
0000
,
1000
0000
0000
1000
0000
0000
0001
0000
0100
0000
0000
0100
0000
0000
0001
0000
,
0010
0000
0000
0010
0000
0000
0100
0000
1100
0000
0000
0000
1001
0000
0000
0000
,
0001
0000
0000
0001
0000
0000
0100
0000
0010
0000
0000
0010
0000
0000
1000
0000
,
0100
0000
0000
0100
0000
0000
0010
0000
0001
0000
1000
0000
0001
0000
0100
0000
,
0010
0000
0000
1010
0000
0000
1000
0000
0100
0000
0000
0110
0000
0000
0010
0000
,
0001
0000
0000
1001
0000
0000
1000
0000
0001
0000
0000
0000
0001
0000
0010
0000
,
0100
0010
0001
0100
0010
1000
0001
1000
,
0000
0000
0001
0000
0100
0000
0010
0000
1000
0000
0000
1010
0000
0000
1001
0000
,
1001
0000
0001
0100
0001
0000
1000
0100
1000
0000
0010
0000
0100
0000
0001
0000
,
0000
0101
0000
0000
0001
0000
1000
0000
0010
0000
0100
0000
0001
0000
0100
0000
,
0001
0000
1000
0100
1000
0000
0001
0100
0002
0000
0000
0023
0000
0000
0230
0000
,
1300
0000
0100
0010
0000
0100
1000
0000
0100
0000
0000
0000
0110
0000
0000
0000
,
1001
0000
0001
0010
0001
0000
1000
0010
1000
0000
0010
0000
0100
0000
0001
0000
,
0000
0101
0000
0000
0010
0000
1000
0000
0010
0000
0100
0000
0001
0000
0100
0000
,
0010
0000
1000
0010
1000
0000
0001
0010
0002
0000
0000
0023
0000
0000
0130
0000
,
0001
0000
0100
1000
0000
0100
0010
0000
0100
0000
0000
0000
1001
0000
0000
0000
,
1001
0000
1000
0000
0100
0000
0010
0000
0011
0000
0000
1100
0000
0000
0011
0000
,
0001
2000
0000
3020
0000
0100
0130
0002
,
0000
1003
0001
1000
0100
0010
0001
1010
,
0000
1000
0001
0100
0000
0010
1000
0001
,
0000
0000
0010
0000
0100
0000
1000
0000
0110
0000
0000
0011
0000
0000
0110
0000
,
1000
0002
0000
0203
0000
1300
0100
0001
,
0020
0000
0130
1000
0100
1000
0100
1000
,
0000
0000
1001
0000
1001
0000
1000
0000
0001
0100
0001
0100
0020
0000
0000
0000
,
0130
0000
0001
0000
0010
0000
0110
0000
0200
0000
0000
0010
0000
0000
1300
0000
,
0001
0200
0000
2300
0000
3100
0001
0010
,
0000
0000
0100
0010
0100
0000
1000
0000
0001
0000
1000
0000
0010
0000
1010
0000
,
0000
0101
0101
0020
0000
1030
0001
2000
,
0000
0000
3001
0010
0001
0000
0100
0000
1010
0000
0000
1001
0000
0000
0101
0000
,
0010
2000
0000
3020
0000
0130
0001
0100
,
0010
0000
0000
1010
0000
0000
0001
0000
0000
0101
0000
0000
0010
0000
0000
1100
,
0000
0000
1000
0000
0001
0010
0000
0200
0000
0000
1300
0000
1001
0000
0010
0000
,
0200
0000
0000
2300
0000
3010
0100
0002
,
0000
0103
0001
0020
0000
0130
1000
0010
,
2000
0000
0001
3002
0000
0013
0100
1000
,
0000
1000
0001
0011
0000
0010
0100
1000
,
1010
0100
0001
0011
0000
0100
1000
0200
,
0000
0310
0001
0020
0000
0130
1000
0001
,
2000
0000
0000
3002
0000
1003
0001
1001
,
0000
0010
0100
0010
0110
0100
0001
1000
,
1010
0000
0000
0000
0101
0000
0000
0000
1010
0000
0000
1100
0000
0000
0011
0000
,
0000
0000
0001
0000
0010
0000
0100
1000
0000
0000
1000
0000
0010
0000
1000
0000
,
0010
0010
0100
0100
0001
0001
1000
2000
,
0000
3200
0000
0301
0100
1000
0010
0100
,
0001
0000
0010
0000
1000
0000
0010
0000
0002
0000
0000
0100
0000
0000
2003
0000
,
0000
3001
0100
0010
1000
0001
1000
0100
,
0010
0001
0001
1000
0010
0010
0100
0001
,
0020
0000
0000
0100
0000
0000
0031
0000
0010
0000
0100
0000
1000
0000
0100
0000
,
0110
0000
0000
0000
1001
0000
0000
0000
1010
0000
0000
0101
0000
0000
0011
0000
,
0000
0000
0100
0000
1000
0000
0001
0010
0000
0000
0100
0000
1000
0000
0001
0000
,
0100
0000
0010
1000
0010
0000
0100
0000
0010
0000
1000
0000
0001
0000
0020
0000
,
0000
0100
0130
1000
0001
0100
0001
0100
,
0010
0000
0000
1010
0000
0000
0100
0000
0000
0011
0000
0000
0001
0000
0000
1100
,
0000
0000
0010
0000
0000
0101
0000
0000
0100
0000
0001
0000
1000
0000
0010
0000
,
1000
0100
0000
0100
0010
0000
0001
0100
0000
0100
0010
0000
1000
0010
0000
0010
,
0100
0000
0001
0010
0000
0010
0100
0000
0010
0000
0001
0000
0100
0000
0010
0000
,
1000
0000
0001
0100
0001
0000
0010
0100
0010
0000
0100
0000
1000
0000
0020
0000
,
0000
0130
0001
1000
0100
0010
0001
1000
,
0010
0000
0100
0001
0100
0000
0010
1000
0020
0000
0000
0230
0000
0000
0301
0000
,
1000
0100
0001
0100
1000
0000
1001
0000
,
0001
0000
1000
0100
1000
0000
0010
0100
0010
0000
0100
0000
0001
0000
0020
0000
,
0000
0130
1000
0001
0100
0010
1000
0001
,
0010
0000
0100
1000
0100
0000
0010
0001
0020
0000
0000
0230
0000
0000
1300
0000
,
0001
0100
1000
0100
0001
0000
1001
0000
;

//--------------- dance-single - ----------------
#NOTES:
     dance-single:
     :
     Hard:
     16:
     0,0,0,0,0:
0000
0000
0000
0000
,
0102
0000
0000
0203
0000
0000
0301
0000
2100
0000
0000
3200
0000
0000
1300
0000
,
0102
0000
0000
0023
0000
0000
0130
0000
1100
0000
0000
0000
1001
0000
0000
0000
,
2010
0000
0000
3020
0000
0000
0130
0000
0012
0000
0000
0023
0000
0000
0130
0000
,
2010
0000
0000
3020
0000
0000
0130
0000
0001
0100
0001
0000
1000
0001
1000
0001
,
1000
0000
0000
0011
0000
0000
0010
0100
1000
0000
0000
1010
0000
0000
0010
0100
,
0001
0000
0000
0011
0000
0000
0010
0100
0010
0000
0001
1000
0001
1000
0010
0100
,
0020
0000
2030
0000
3200
0000
0320
0000
0032
0000
1003
0001
1000
0001
0200
0000
,
0000
0000
0310
0000
1000
0000
0010
0000
0100
0000
0000
0101
0000
0000
1001
0000
,
1010
0000
0100
0001
0010
0000
0100
1000
0010
1000
0010
0000
0100
0001
1000
0000
,
0000
1001
0000
0000
0001
0100
0001
0100
0010
0100
0001
0010
0001
0010
0100
1000
,
0001
0000
0010
0001
0100
0000
0010
1000
0100
0000
0010
0001
0000
0001
0100
0000
,
0010
1000
0100
0010
0000
0100
1000
0010
0100
0001
0100
0002
2000
0000
3003
0000
,
0011
0000
0100
1000
0010
0000
0100
0001
0010
0001
0010
0000
0100
1000
0001
0000
,
0000
1001
0000
0000
1000
0100
1000
0100
0010
0100
1000
0010
1000
0010
0100
0001
,
1000
0000
0010
1000
0100
0000
0010
0001
0100
0000
0010
1000
0000
1000
0100
0000
,
0010
0001
0100
0010
0000
0100
0001
0010
0100
1000
0100
2000
0002
0000
3003
0000
,
1001
0000
0001
0000
0100
0000
0010
0000
1010
0000
0000
0101
0000
0000
1010
0000
,
1000
0000
0002
0000
1000
0000
1003
0000
0000
0000
0010
0100
0010
0000
0100
0000
,
0001
0010
0001
1000
0010
1000
0100
0110
,
0000
0001
0010
0000
0100
1000
0001
0100
0001
0100
0010
1000
0001
1000
0001
0000
,
0011
0000
0100
0000
1000
0000
0001
0000
0101
0000
0000
0011
0000
0000
0101
0000
,
0001
0000
1000
0000
0100
0000
0010
0000
0001
1000
0001
0010
0100
0010
0001
1000
,
0002
0000
2003
3002
2003
3002
2003
3002
,
0003
0000
1001
0000
1001
0000
0001
0000
1000
0100
0010
0100
2000
0000
0000
0000
,
3001
0000
0001
0100
0010
0000
0110
0000
0100
0001
0000
1000
0001
0000
0010
0000
,
0100
1000
0010
0000
0110
0000
0100
0001
0100
0010
0100
0001
1000
0100
0010
0100
,
1000
0000
0001
0100
0001
0000
0100
0000
0010
0000
0100
0001
1000
0000
1010
0000
,
0000
0000
0101
0000
0011
0000
1000
0000
0010
0100
0010
0000
1000
0001
1000
0100
,
0010
0000
0100
1000
0001
0000
1000
0000
0010
0000
0100
0001
0100
0000
0001
0000
,
0010
0100
1000
0000
1010
0000
0010
0100
0001
0100
0000
0001
0010
0000
0100
1000
,
0010
0000
0000
0101
0000
0000
0011
0000
0000
1100
0000
0000
1010
0000
0000
0101
,
0000
0000
1001
0000
0001
0010
0000
0100
0000
0010
0001
0000
0101
0000
1010
0000
,
0200
0000
0000
0000
0301
0000
0001
0000
0010
0100
0010
0000
0100
1000
0100
0000
,
0010
0000
0100
1000
0100
0010
0100
0000
0010
0001
0010
0100
0010
0000
0001
0000
,
2000
0000
0000
0010
0000
0000
3001
0000
0100
0000
0010
0000
1000
0000
0001
0000
,
0101
0001
1000
1010
0000
1000
0100
0010
,
0011
0000
0001
0010
0100
0000
0110
0000
0000
0100
1000
0000
1000
0001
0200
0000
,
0000
0000
0310
1000
0001
0000
0011
0000
0000
0000
0010
0100
1000
0000
0100
0000
,
0010
0001
1000
0001
1000
0100
1000
0010
0200
0000
0010
0000
0310
0000
0110
0000
,
0000
0002
2003
3001
2001
0010
0010
3010
,
1001
0000
0000
0000
0110
0000
0000
0000
0011
0000
0000
1100
0000
0000
0011
0000
,
0000
0000
1000
0100
0010
0000
0100
0010
0001
0000
1000
0100
0010
0100
1000
0100
,
0010
0000
0010
0001
0100
0000
0100
0001
1000
0000
1000
0001
0100
0000
0100
0010
,
1000
0000
1000
0100
1000
0100
0010
0100
1000
0010
1000
0010
0100
0010
0100
0001
,
0010
0000
0100
1000
0001
0000
0100
0001
0020
0000
0000
0100
0000
0000
0001
0000
,
0000
0000
0031
0100
0010
0000
1000
0000
0010
0000
0100
0000
0010
0000
1000
0000
,
0100
0000
0010
0000
0001
0000
1000
0100
1000
0001
0100
0001
1000
0100
1000
0001
,
0020
0000
0000
0100
0000
0000
0031
0000
1000
0010
0100
0010
1000
0001
0100
0010
,
0100
0000
0000
0000
0110
0000
0000
0000
1001
0000
0000
1001
0000
0000
1010
0000
,
0000
0000
0100
0001
0010
0000
0100
1000
0000
0000
0001
0000
0100
0000
0001
0010
,
0001
0000
1000
0100
1000
0000
0001
0000
0010
0000
0001
0000
0100
0000
0020
0000
,
0000
0000
1000
0000
1030
0000
0010
0100
0001
0100
0010
1000
0010
0100
0010
0000
,
1010
0000
0000
0101
0000
0000
0011
0000
0000
1010
0000
0000
1100
0000
0000
1010
,
0000
0000
0011
0000
0000
0101
0000
0000
1100
0000
0001
0000
1000
0000
0010
0000
,
1000
0100
0000
0110
0000
0000
0001
0100
0000
0110
0000
0000
1000
0010
0000
0110
,
0000
0000
0001
0010
0000
0110
0000
0000
0010
0000
0001
0000
0100
0000
0010
0000
,
1000
0000
0001
0100
0001
0100
0010
1000
0100
1000
0001
0000
0100
0001
0010
0000
,
0000
0000
0110
0000
1000
0100
0010
0001
0100
0001
0010
0100
1000
0010
1000
0100
,
0010
0000
0001
0100
0010
0000
0010
0100
0002
0000
0000
0023
0000
0000
0230
0000
,
1300
0100
0010
0001
0000
1000
0100
0010
0001
0000
1000
0010
0100
0000
0110
0000
,
0001
0000
1000
0100
1000
0100
0010
0001
0100
0001
1000
0000
0100
1000
0010
0000
,
0000
0000
0110
0000
0001
0100
0010
1000
0100
1000
0010
0100
0001
0010
0001
0100
,
0010
0000
1000
0100
0010
0000
0010
0100
2000
0000
0000
3020
0000
0000
0230
0000
,
0301
0100
0010
1000
0000
0001
0100
0010
1000
0000
0000
0000
1001
0000
0000
0000
;

//--------------- dance-single - ----------------
#NOTES:
     dance-single:
     :
     Challenge:
     18:
     0.358364,0.285519,0,0,0,256,256,0,0,0,0,0.358364,0.285519,0,0,0,256,256,0,0,0,0:
0000
0000
0000
0000
,
0201
0000
0000
0010
0000
0000
0301
0000
1020
0000
0000
0100
0000
0000
1030
0000
,
0021
0000
0000
0100
0000
0000
0031
0000
1100
0000
0000
0000
1010
0000
1000
0010
,
0200
0000
0000
0010
0000
0000
0001
0000
0320
0000
0000
1000
0000
0000
0100
0000
,
2030
0000
0000
0001
0000
0000
0100
0000
3001
0100
0001
0100
0001
1000
0001
1000
,
0010
0000
0100
0001
0000
0001
1000
0010
0100
0010
1000
0001
0010
0100
1000
0000
,
1001
0000
0001
0010
0000
0010
0100
0000
1000
0100
0010
0100
1000
0010
0100
0010
,
1000
0000
1010
0000
0101
0000
0011
0000
1010
0000
0100
0001
0100
0001
0020
0000
,
0000
0000
0130
0000
1100
0000
0010
0000
1001
0000
0000
0101
0000
0000
1010
0000
,
0100
0000
0000
0000
0000
0000
0001
0000
0000
0100
0000
0000
0001
0000
0000
1000
0000
0000
0001
0000
0000
0010
0000
0000
0001
0000
0010
0000
0100
0000
1000
0000
0200
0000
0000
0000
1300
0000
0010
0000
0100
0000
0001
0000
0200
0000
0000
0000
,
0000
0301
1000
0000
1000
0001
0100
0010
0100
0010
1000
0100
0010
0100
1000
0001
,
1000
0010
0100
0010
0100
0001
1000
0001
0010
0000
0010
2000
0000
3001
0100
0000
,
0100
1000
0001
0100
0000
0100
0001
0010
0100
0000
0100
1000
0001
0000
1001
0000
,
0100
0000
0000
0000
0000
0000
1000
0000
0000
0100
0000
0000
1000
0000
0000
0001
0000
0000
1000
0000
0000
0010
0000
0000
1000
0000
0010
0000
0100
0000
0001
0000
0200
0000
0000
0000
0301
0000
0010
0000
0100
0000
1000
0000
0200
0000
0000
0000
,
0000
1300
0001
0000
0001
1000
0100
0010
0100
0010
0001
0100
0010
0100
0001
1000
,
0001
0010
0100
0010
0100
1000
0001
1000
0010
0000
0010
0002
0000
1003
0100
0000
,
0100
0000
0000
0001
0000
0000
0010
0000
0000
0100
0000
0000
0000
0000
0000
0100
0000
0000
1000
0000
0000
0010
0000
0000
0100
0000
0010
0000
1000
0000
0010
0000
0200
0000
0000
0000
0301
0000
0100
0000
0010
0000
0100
0000
0002
0000
0000
0000
,
1003
0000
1000
0000
0100
0000
0010
0000
0011
0000
0000
1100
0000
0000
0011
0000
,
0001
0000
0200
0000
0000
0000
0310
0000
1000
0001
1000
0000
0001
0100
0001
0000
,
0100
0000
0010
0000
1000
0100
0000
1000
0001
0000
0010
0000
0100
0000
0110
0000
,
0000
0000
0000
1000
0000
0000
0001
0000
0000
0000
0000
0000
1000
0000
0100
0000
0010
0000
0100
0000
1000
0000
0100
0000
0010
0000
0000
0001
0000
0000
1000
0000
0000
0010
0000
0000
0100
0000
0000
0010
0000
0000
1000
0000
0000
0000
0000
0000
,
1010
0000
0001
0000
0100
0000
0001
0000
1010
0000
0000
0101
0000
0000
1010
0000
,
0100
0000
0001
0000
1000
0100
1000
0001
0100
0001
1000
0010
1000
0001
0010
0001
,
1100
0000
0101
1100
0101
1100
0101
1010
,
0000
0000
0110
0000
0110
0000
0001
0000
1000
0001
0100
0010
0002
0000
0000
0000
,
1003
0000
0100
0001
0010
0000
0110
0000
0100
1000
0010
0100
0001
0000
0001
0010
,
0000
0100
1000
0000
1001
0000
0001
0010
0100
1000
0100
1000
0001
0100
0001
0100
,
0010
0000
0010
1000
0100
0000
0001
0000
0100
1000
0001
0100
0010
0000
1010
0000
,
0000
0000
0110
0000
0101
0000
0100
0001
0000
0001
0010
0000
0100
1000
0010
0100
,
0001
0000
0001
0010
2000
0000
3001
0000
0100
1000
0000
1000
0020
0000
0031
0000
,
0010
1000
0001
0000
0011
0000
0010
0100
0010
0100
0000
1000
0001
0000
0100
0010
,
1000
0010
0000
1010
0000
0000
0101
0000
0001
0010
0000
0000
0011
0000
0100
1000
,
0000
1000
0010
0000
0101
0010
1000
0001
0000
0001
0010
0000
1100
0000
0011
0000
,
0001
0000
0010
0000
0100
1000
0100
0000
0010
0100
0010
0000
0001
1000
0001
0000
,
0100
0000
0001
0100
0010
0100
1000
0000
1000
0100
0010
0100
0001
0000
0001
0010
,
0200
0000
0000
0001
0000
0000
1300
0000
0010
0000
0100
0000
0001
0000
0010
0000
,
0011
0000
0000
0001
0100
0000
1010
0000
0000
0000
1000
0000
0010
0000
0100
0000
,
1001
0000
0001
0100
0001
0100
0010
0000
1000
0100
0000
0010
0001
0010
0200
0000
,
0000
0000
0000
0000
0000
0000
1300
0000
0000
0001
0000
0000
1000
0000
0000
0000
0000
0000
0011
0000
0000
0000
0000
0000
0000
0000
0000
0000
0000
0000
0001
0000
0000
0100
0000
0000
0010
0000
0000
0000
0000
0000
0100
0000
0001
0000
1000
0000
,
0010
0100
0001
1000
0010
1000
0001
0010
0200
0000
0010
0000
0310
0000
0110
0000
,
0000
0000
0000
1001
0000
0000
1001
0000
0000
1001
0000
0000
0001
0010
0100
1000
0001
1000
0100
0010
0001
1000
0001
0010
,
0100
0000
0000
0000
0110
0000
0000
0100
2000
0000
0000
0010
0000
0000
3001
0100
,
0010
0000
1000
0000
0001
0000
1000
0001
0100
0010
0100
0010
1000
0001
1000
0100
,
0010
0000
0010
0001
0100
0000
0010
1000
0100
0000
0001
0100
1000
0000
0001
0100
,
0010
0000
1000
0100
1000
0010
0100
0010
0100
0001
0010
0100
0010
0100
1000
0001
,
1000
0000
0001
0100
0010
0000
1000
0100
0020
0000
0000
0001
0000
0000
1000
0000
,
0000
0000
0031
0100
1000
0000
0001
0000
0010
0000
1000
0100
0010
0000
1000
0010
,
0100
0000
1100
0000
0011
0000
0001
0010
0001
0010
0100
1000
0001
0010
0001
0010
,
0100
1000
0010
0100
0001
1000
0001
1000
0001
0100
0010
1000
0010
0001
0010
1000
,
0001
0000
0000
0000
0011
0000
0000
0010
0100
0000
0000
1001
0000
0000
0011
0000
,
0000
0000
0010
0100
1000
0000
0001
0100
0000
0001
1000
0001
0100
0010
1000
0010
,
0001
0000
0010
1000
0100
0000
0010
0000
0001
0000
0010
0000
0100
0000
1000
0000
,
0001
0000
0000
0000
0000
0000
0100
0000
0000
0001
0000
0000
1000
0000
0000
0000
0000
0000
0100
0000
0000
1000
0000
0000
0100
0000
0000
0010
0000
0000
0001
0000
0000
1000
0000
0000
0001
0000
0100
0000
0001
0000
0100
0000
0010
0000
1000
0000
,
0001
0000
0000
0001
0010
0000
0110
0000
0000
0100
1000
0000
1010
0000
0000
0010
,
0100
0000
0101
0000
0000
0001
1000
0000
1010
0000
0100
0000
0001
0000
0010
0000
,
0100
1000
0100
0020
0000
0000
0031
0100
1000
0200
0000
0000
0301
0010
0100
0002
,
0000
0000
0103
1000
0010
0002
0000
0000
0013
0000
1000
0000
0100
0000
0010
0000
,
0001
0000
0000
0000
0000
0000
1000
0000
0000
0100
0000
0000
1000
0000
0000
0001
0000
0000
1000
0000
0000
0100
0000
0000
0010
0000
0001
0000
0010
0000
0100
0000
2000
0000
0000
0000
3001
0000
0100
0000
0010
0000
1000
0000
0020
0000
0000
0000
,
0030
0000
0110
0000
1000
0010
0100
0001
0100
0010
0100
1000
0100
0001
0010
0100
,
0001
0000
0001
0100
1000
0000
1000
0010
0100
0000
0100
0002
0000
0000
0013
0000
,
0100
1000
0100
0010
0000
0100
1000
0100
0001
0000
0001
0100
0010
0000
0110
0000
,
1000
0000
0000
0000
0000
0000
0001
0000
0000
0100
0000
0000
0001
0000
0000
1000
0000
0000
0001
0000
0000
0100
0000
0000
0010
0000
1000
0000
0010
0000
0100
0000
0002
0000
0000
0000
1003
0000
0100
0000
0010
0000
0001
0000
0020
0000
0000
0000
,
0030
0000
0110
0000
0001
0010
0100
1000
0100
0010
0100
0001
0100
1000
0010
0100
,
1000
0000
1000
0100
0001
0000
0001
0010
0100
0000
0100
2000
0000
0000
3010
0000
,
0100
0000
0000
0001
0000
0000
0100
0000
0000
0010
0000
0000
0000
0000
0000
0010
0000
0000
1000
0000
0000
0001
0000
0000
0010
0000
0100
0000
0010
0000
0001
0000
2000
0000
0000
0000
3001
0000
0010
0000
0100
0000
1000
0000
0020
0000
0000
0000
,
0030
0000
0000
0000
;
