#TITLE:すーぱーぬこになりたい;
#SUBTITLE:;
#ARTIST:まふまふ;
#TITLETRANSLIT:Super Nuko ni Naritai;
#SUBTITLETRANSLIT:;
#ARTISTTRANSLIT:mafumafu;
#GENRE:POP;
#CREDIT:;
#MUSIC:Super Nuko ni Naritai.ogg;
#BANNER:Super Nuko ni Naritai.png;
#BACKGROUND:Super Nuko ni Naritai-bg.png;
#CDTITLE:;
#SAMPLESTART:54.453;
#SAMPLELENGTH:9.897;
#SELECTABLE:YES;
#OFFSET:-0.024;
#BPMS:0.000=194.000;
#STOPS:;
#BGCHANGES:1.500=Super Nuko ni Naritai.avi=1.000=0=0=0=StretchNoLoop====,
99999.000=-nosongbg-=1.000=0=0=0=StretchNoLoop====
;
#FGCHANGES:;

//--------------- dance-single - ----------------
#NOTES:
     dance-single:
     :
     Hard:
     16:
     1.016492,1.020151,0.772534,0.325277,0.589565,875,780,95,40,0,0,1.016492,1.020151,0.772534,0.325277,0.589565,875,780,95,40,0,0:
0000
0000
0000
0000
,
1001
0000
0011
1100
0000
0012
0000
1000
,
0000
1003
0000
0110
1001
0000
1001
0000
,
0001
0100
0001
0100
1000
0100
1000
0100
,
0001
0100
1000
0100
0001
1000
0010
0100
,
0001
0010
0001
0010
1000
0010
1000
0010
,
0001
0010
1000
0010
0001
1000
0100
0010
,
0001
0100
1000
0100
0001
0010
1000
0010
,
0001
0100
1000
0001
0010
1000
0001
0010
,
1000
0001
0100
1000
0001
1000
0001
0100
,
0020
0000
0000
0000
0000
0000
0000
0000
0130
0000
0000
0000
1001
0000
0001
0010
,
0001
0000
0010
0001
0010
0000
0100
1000
0100
0000
1000
0100
1000
0000
0010
0000
,
1000
0000
0001
0100
0001
0000
0100
0001
0100
0000
0010
1000
0010
0000
0100
0000
,
0001
0000
1000
0100
1000
0000
0100
1000
0100
0000
0010
0001
0010
0000
0100
0000
,
1000
0100
0010
0100
1001
0000
0001
0100
,
0010
0000
1000
0010
1000
0000
0010
0100
0010
0000
0100
0001
0100
0000
0010
0000
,
1000
0000
0001
0010
0001
0000
0010
0100
0010
0000
0100
1000
0100
0000
0010
0000
,
0001
0000
0100
0001
0100
0000
0010
0100
0010
0000
1000
0001
1000
0000
0001
0000
,
0010
0100
0010
0001
1001
0000
0000
0000
,
0001
0010
0001
0010
0100
1000
0100
1000
0001
0000
0010
0100
1000
0000
0000
0000
,
1001
0000
0000
0001
0020
0000
0100
0000
1030
0000
0000
1000
0020
0000
0100
0000
,
0031
0000
1000
0001
1000
0000
0010
0000
0110
0000
0000
0000
0000
0000
0000
0000
,
1001
0000
0000
1000
0200
0000
0010
0000
0301
0000
0000
0001
0200
0000
0010
0000
,
1300
0000
0001
1000
0001
0000
0010
0000
1100
0000
0000
0000
1100
0000
0000
0000
,
0110
0000
0000
0010
0001
0000
0100
0000
0110
0000
0000
0010
1000
0000
0100
0000
,
0110
0000
0000
0010
0001
0000
1000
0000
0110
0000
0000
0010
1000
0000
0001
0000
,
0110
0000
0000
0010
0001
0000
1000
0000
0010
0100
0000
0100
0010
0000
1000
0000
,
0001
1000
0100
0100
0100
1000
0001
0000
,
1000
0000
0000
1000
0002
0000
0100
0000
0013
0000
0000
0010
2000
0000
0100
0000
,
3010
0000
0001
0010
0100
0000
1000
0000
0001
0000
0000
0000
0110
0000
0000
0000
,
1001
0000
0000
0001
2000
0000
0001
0000
3100
0000
0000
1000
0200
0000
0001
0000
,
1300
0000
0010
1000
0001
0000
0100
0000
0110
0000
0000
0000
0010
0000
1000
0000
,
0001
0000
0000
0001
0010
0000
0100
0000
1100
0000
0000
0000
1000
0000
0001
0000
,
1000
0000
0000
1000
0100
0000
0010
0000
0011
0000
0000
0000
0001
0000
0100
0000
,
1000
0000
0000
1000
0100
0000
0001
0000
0100
0000
0001
0000
1000
0000
0000
0000
,
1000
0000
0010
0000
1000
0000
0010
0000
0100
0000
0001
0000
1000
0100
1000
0100
,
2000
0000
0001
3002
0000
0100
0100
0100
,
0203
0000
0010
0310
1001
0000
1001
0000
,
0002
0000
1000
2003
0000
0010
0010
3010
,
0100
0001
1010
0000
0100
1000
0011
0000
,
1020
0000
0100
0032
0000
0023
0001
0230
,
2000
0300
3100
0001
0011
0000
0011
0000
,
0002
0203
0320
0230
0302
2003
3200
0320
,
0230
2300
3020
0032
0023
0030
1001
0000
,
1001
0000
0000
0001
0100
0000
0010
0000
1000
0000
0110
0000
0001
0000
0110
0000
,
1000
0000
0000
1000
0100
0000
0010
0000
0001
0000
0110
0000
1000
0000
0110
0000
,
0001
0000
0000
0001
0010
0000
0100
0000
0010
0000
1001
0000
0100
0000
1001
0000
,
0010
1001
0000
1000
0001
1001
0000
0001
,
0010
0000
0100
1000
0001
0000
0100
0000
0010
0000
0100
0001
1000
0000
0100
0000
,
0010
0000
0001
0100
1000
0000
0100
0000
0010
0000
1000
0100
0010
0000
1000
0010
,
0001
0000
0010
0001
1000
0000
0001
0100
0010
0000
0001
0010
1000
0000
0100
0000
,
0010
0000
1001
0000
1001
0000
1001
0000
1001
0000
0001
0100
0010
0000
0010
1000
,
0100
0000
0000
0001
0100
0000
1000
0000
0010
0000
0100
0000
1000
0000
0100
0000
,
0001
0000
0010
0100
0010
0000
0001
0000
1000
0000
0001
0000
1000
0000
0001
0100
,
0001
0000
1000
0100
1000
0000
0001
0100
0001
0000
1000
0100
1000
0000
0001
0010
,
0001
0000
1000
0010
1000
0000
0001
0010
0100
0000
0000
0000
0110
0000
0000
0000
,
1002
0000
0023
0000
0230
0000
1300
0010
,
0200
0000
0302
0000
0103
0010
1000
0001
,
1001
0000
1000
1010
0000
1010
0000
1001
,
0000
0000
0101
0000
1100
0000
0101
0000
1100
0000
0000
0000
1001
0000
1000
0100
,
1000
0000
0100
1000
0001
0000
0100
0001
0100
0000
0010
1000
0001
0000
0010
0000
,
0100
0000
1000
0010
1000
0000
0010
1000
0001
0000
0010
0001
0010
0000
0100
0000
,
1000
0000
0001
0100
0001
0000
0100
0001
1000
0000
0100
0010
0100
0000
1000
0000
,
0001
0100
0010
1000
1001
0000
1000
0010
,
0100
0000
0001
0100
0010
0000
0100
0001
0010
0000
0001
0100
0010
0000
1000
0000
,
0010
0000
1000
0100
0010
0000
0100
1000
0010
0000
1000
0100
0010
0000
0001
0000
,
1000
0000
0010
0100
0001
0000
0010
0001
0100
0000
0010
0100
0001
0000
0100
0000
,
0010
0000
1000
0000
0010
0000
0100
0000
0010
1000
0100
0010
0100
1000
0010
0100
,
1000
0000
0000
1000
0100
0000
0001
0000
0010
0000
1100
0000
0010
0000
1100
0000
,
0010
0000
0000
0001
0100
0000
0010
0000
1000
0000
0101
0000
1000
0000
0101
0000
,
1000
0000
0000
1000
0100
0000
0010
0000
0001
0000
1001
0000
1000
0000
1001
0000
,
0001
0110
0000
0100
0010
1001
0000
0001
,
0010
0000
0100
1000
0010
0000
0100
0000
0010
0000
0100
0001
0010
0000
0001
0000
,
1000
0000
0010
1000
0100
0000
0010
0000
0100
0000
0010
0001
0100
0000
0001
0100
,
0010
0000
0010
0100
0001
0000
1000
0100
0010
0000
0010
0100
1000
0000
0001
0000
,
1000
0000
1001
0000
1001
0000
1001
0000
1001
0000
0001
0100
0001
0000
1000
0100
,
1000
0000
0000
1000
0100
0000
0001
0000
0100
0000
1000
0100
0001
0000
0100
0000
,
1000
0000
0001
0010
0100
0000
1000
0000
0010
0000
0100
0000
0010
0000
0100
0000
,
0010
0100
0001
0100
0010
0000
1000
0000
0001
0010
0100
0010
0001
0000
0100
0000
,
0010
1000
0001
0010
0100
0010
0001
1000
0010
0000
0000
0000
1010
0000
0000
0000
,
1001
0101
1100
1001
,
1010
0000
0011
0000
1001
0000
1000
0010
,
0101
0000
0010
1100
0000
1001
0000
1100
,
0000
1010
0011
1010
0011
0000
0010
0100
,
1100
0000
0100
0101
0000
1001
0000
0110
,
0000
0000
1001
0000
0000
0000
0110
0000
1001
0000
0000
0000
1001
0000
1000
0100
,
0010
0000
0100
0010
0001
0000
0001
0010
0100
0000
0010
0100
1000
0000
0001
0000
,
1000
0000
0001
0100
0010
0000
0100
0010
1000
0000
1000
0010
0100
0000
0001
0000
,
1000
0000
0001
0010
0100
0000
0010
0100
1000
0000
1000
0100
0010
0000
0001
0000
,
1000
0100
0010
0100
0001
0100
0010
0100
1000
0000
0000
0000
0001
0000
1000
0010
,
0100
0000
0010
0100
0001
0000
0100
0001
1000
0000
0001
1000
0100
0000
0010
0000
,
0100
0000
0010
0001
1000
0000
0001
1000
0100
0000
1000
0100
0010
0000
0001
0000
,
0100
0000
0010
1000
0100
0000
1000
0100
0001
0000
0100
1000
0010
0000
1000
0000
,
0001
0010
0100
0010
1000
0010
0100
0010
0001
0000
0000
0000
2002
0000
0000
0000
,
0000
0000
0000
0000
,
0000
0000
0000
0000
,
0000
0000
3003
0000
;

//--------------- dance-single - ----------------
#NOTES:
     dance-single:
     :
     Challenge:
     18:
     1.16519,1.25557,1.065283,0.056924,0.870117,1003,872,131,7,0,0,1.16519,1.25557,1.065283,0.056924,0.870117,1003,872,131,7,0,0:
0000
0000
0000
0000
,
1001
0000
0011
1001
0000
1100
0000
0101
,
0000
0101
0000
1100
1001
0000
0011
0000
,
0001
0000
1000
0100
1000
0000
0010
0000
0100
0000
0001
0100
0001
0000
1000
0000
,
0010
0000
0100
0001
0100
0000
0010
0100
0010
0000
0100
0001
1000
0000
0100
0000
,
0010
0000
0001
0010
0001
0000
0010
0000
0100
0000
1000
0100
1000
0000
0010
0000
,
0100
0000
0001
0100
0001
0000
1000
0100
1000
0000
0100
0000
0010
0001
0010
0001
,
0010
0000
0100
1000
0001
0000
0100
0000
0010
0000
1000
0001
0100
0000
0010
0000
,
1000
0000
0100
0010
0001
0000
1000
0100
0010
0000
0100
1000
0001
0000
0100
0000
,
1000
0000
0001
0000
0010
0000
0100
0000
0001
0000
0010
0000
0001
0010
0100
1000
,
0100
0000
0010
0001
0010
0000
0100
0000
0010
0001
0100
0010
1000
0000
0001
0100
,
0001
0000
1000
0100
1000
0000
0001
0010
0001
0000
1000
0010
1000
0000
0100
0000
,
0010
0000
0001
0010
0001
0000
1000
0010
1000
0000
0001
0100
0001
0000
1000
0000
,
0010
0000
0100
0001
0100
0000
0010
1000
0010
0000
0100
0001
0100
0000
0001
0000
,
0011
0000
1000
0000
1100
0000
0001
0000
1001
0000
0000
0000
0001
0010
0100
1000
,
0100
0000
0010
0001
0010
0000
0001
0100
0001
0000
1000
0010
1000
0000
0010
0000
,
0100
0000
0001
0010
0001
0000
1000
0100
1000
0000
0010
1000
0010
0000
0100
0000
,
0001
0000
0100
0001
0100
0000
0001
0010
0001
0000
1000
0100
1000
0000
0010
0000
,
1010
0100
0101
0001
1001
0000
0000
0000
,
0001
0010
0100
1000
0001
0010
0100
1000
0001
0000
0100
0010
0100
0000
0000
0000
,
1001
0000
0000
0001
0010
0000
0100
0000
1100
0000
1000
0010
0100
0000
0001
0000
,
0101
0000
0010
1000
0010
0000
0100
0000
0101
0000
0000
0000
0000
0000
0000
0000
,
1001
0000
0000
1000
0010
0000
0100
0000
0101
0000
0001
0010
0100
0000
1000
0000
,
1100
0000
0010
0001
0010
0000
0100
0000
1100
0000
0000
0000
0011
0000
0000
0000
,
1100
0000
0000
0001
0010
0000
0100
0000
0110
0000
0000
0010
0001
0000
0100
0000
,
0101
0000
0000
0001
1000
0000
0010
0000
1010
0000
0000
0100
0001
0000
1000
0000
,
1001
0000
0000
0001
0100
0000
1000
0000
0100
0001
0000
0001
0010
0000
0100
0000
,
0010
0000
0001
0000
1000
0000
0100
1000
0001
0000
0100
0000
0001
0010
0001
0100
,
0010
0000
0000
0010
1000
0000
0100
0000
1100
0000
0010
0001
0100
0000
0010
0000
,
0110
0000
0100
0001
0010
0000
0100
0000
1000
0100
0010
0100
0010
0100
0010
0100
,
1000
0000
0010
0100
0010
0000
0001
0000
0010
0000
1000
0100
1000
0000
0100
0000
,
0001
0000
0100
1000
0001
0000
0100
0000
0110
0000
0000
0000
0010
0000
1000
0000
,
0101
0000
0000
0001
0010
0000
0100
0000
0011
0000
0100
0000
1000
0000
0001
0100
,
0010
0000
0000
1000
0001
0000
0010
0000
1100
0000
1000
0000
0010
0000
0100
0000
,
1010
0000
0000
0100
0001
0000
0010
0000
0100
0000
0001
0000
0100
0000
1000
0000
,
1010
0000
0010
0000
0110
0000
0100
0001
1000
0000
0100
0000
0010
0100
1000
0010
,
0001
0000
0010
1000
0000
1000
0100
0010
,
0001
0000
0001
1000
1001
0000
1001
0000
,
0001
0000
0100
1000
0000
0100
0001
0010
,
0011
0011
0110
0000
1010
1010
0110
0000
,
1001
0000
0001
0010
0000
1000
0010
0001
,
0100
0000
0010
0100
0110
0000
0110
0000
,
0001
0000
0100
0000
0010
0000
0100
0001
0010
0000
0100
0000
1000
0000
0001
0100
,
1000
0000
0100
0001
1000
0000
0001
0010
0100
0000
1100
0000
1000
0100
0010
0001
,
1000
0000
0000
0001
0100
0000
0010
0000
1000
0000
1100
0000
1000
0000
1100
0000
,
1000
0000
0001
0100
0010
0000
0100
0000
0001
0000
0101
0000
0001
0000
0101
0000
,
0001
0000
0000
0001
0010
0000
0100
0000
1000
0000
1010
0000
1000
0000
1010
0000
,
1000
0010
0100
0000
0000
0000
1010
0000
0011
0000
1001
0000
0001
0100
0010
0000
,
1000
0000
0100
0010
0100
0000
0001
0000
0100
0000
1000
0010
0100
0000
1000
0000
,
0100
0000
0001
0010
0100
0000
0001
0000
0100
0000
1000
0001
0100
0000
0010
1000
,
0010
0000
0010
0001
0010
0000
0100
1000
0100
0000
0100
0001
0100
0000
0001
1000
,
0100
0000
0011
0000
1100
0000
1010
0000
0101
0000
0001
0100
0010
1000
0010
0100
,
0001
0000
0000
0001
0010
0000
0100
0000
1000
0000
0010
0100
0010
0000
1000
0000
,
0001
0000
0010
0100
0010
0000
0001
0000
1000
0000
0001
0100
0001
0000
0100
0010
,
0100
0000
0010
1000
0010
0000
1000
0001
1000
0000
0001
0010
0001
0000
0010
0100
,
0010
0000
0100
1000
0100
1000
0100
0010
0001
0000
0000
0000
0011
0000
0000
0000
,
1002
0000
0000
0000
2003
0000
0000
0000
3002
0000
0000
0000
1003
0000
0010
0100
,
0020
0000
0000
0000
2030
0000
0000
0000
3100
0000
0010
0001
0010
0100
1000
0000
,
1100
0000
0011
0011
0000
1001
0000
1010
,
0000
0000
0011
0000
1100
0000
0011
0000
1100
0000
0000
0000
1001
0000
1000
0100
,
0010
0000
0100
0010
0001
0000
1000
0010
0100
0000
0010
0100
0001
0000
1000
0000
,
1000
0000
0001
0100
0010
0000
0100
0010
1000
0000
0010
1000
0001
0000
1000
0000
,
0100
0000
1000
0010
0100
0000
0010
0100
0001
0000
0100
0001
1000
0000
0001
0000
,
0101
0000
0100
0000
0110
0000
0010
0000
1001
0000
0000
0000
0001
0100
0001
0100
,
0010
0000
0010
1000
0001
0000
0001
0010
0100
0000
0100
1000
0001
0000
1001
0000
,
1010
0000
1000
0010
0100
0000
0100
0001
0010
0000
0010
0100
1000
0000
1100
0000
,
1001
0000
0001
1000
0100
0000
0100
1000
0001
0000
0001
0100
0010
0000
0100
0000
,
0110
0000
0010
0000
1010
0000
1000
0000
0001
0100
0010
0100
0001
0010
0100
0010
,
0001
0000
0000
0001
0010
0000
0100
0000
1000
0000
1100
0000
1000
0000
1010
0000
,
1000
0000
0010
0100
0010
0000
1000
0000
0001
0000
0101
0000
0001
0000
0011
0000
,
0001
0000
0000
0001
0010
0000
0100
0000
0010
0000
0011
0000
0010
0000
1010
0000
,
0010
0001
0100
0000
0000
0000
0110
0000
1001
0000
1001
0000
0001
0100
0010
0000
,
0100
0000
1000
0100
0010
0000
1000
0000
0100
0000
0001
0100
0010
0000
0001
0000
,
1000
0000
0001
0100
0010
0000
0001
0000
0010
0000
0100
0001
0010
0000
0001
0010
,
0001
0010
0100
1000
0100
1000
0001
0100
0001
0100
0010
1000
0010
1000
0001
0010
,
0001
0000
0011
0000
1100
0000
1010
0000
0101
0000
0001
0010
0100
1000
0100
0010
,
0001
0000
0000
0001
0010
0000
0100
0000
1000
0000
0001
0100
0010
0000
1000
0000
,
0100
0000
0010
0001
0100
0000
1000
0000
0100
0000
0001
0010
0001
0000
1000
0100
,
0010
0100
1000
0001
0010
0100
0010
0001
1000
0010
0100
0010
1000
0001
0100
0010
,
0100
0001
1000
0100
0010
0001
0010
0100
1000
0000
0000
0000
1001
0000
0000
0000
,
1100
0000
0000
0000
1001
0000
0000
0000
0101
0000
0000
0000
1001
0000
0001
0010
,
0100
0000
0110
0000
1001
0000
0001
0010
,
1100
0000
0011
0101
0000
1001
0000
1100
,
0000
0000
1010
0000
0101
0000
1010
0000
0101
0000
0100
0001
0010
0000
0100
0000
,
1100
0000
0101
1100
0000
1001
0000
0110
,
0000
0000
1001
0000
0000
0000
0110
0000
0110
0000
0000
0000
1001
0000
0001
0010
,
0100
0000
1000
0010
0100
0000
0010
1000
0001
0010
0100
1000
0010
0000
0100
0001
,
1000
0000
0100
1000
0010
0000
0100
0001
0010
0100
1000
0001
0100
0000
0010
1000
,
0100
0000
0010
0001
1000
0000
0100
0010
0001
1000
0100
1000
0010
0000
0100
0000
,
0101
0000
0010
0000
1010
0000
0100
0000
1001
0000
0000
0000
1000
0100
0010
0100
,
1000
0000
0001
0010
0100
0000
0010
0001
0100
0010
1000
0001
0100
0000
0010
1000
,
0100
0000
0010
0001
1000
0000
0100
0010
0001
1000
0001
0010
0100
0000
0010
0001
,
1000
0000
0010
1000
0100
0000
0010
0100
1000
0010
0001
0010
1000
0000
0001
0000
,
0011
1001
1100
1001
0110
0000
2002
0000
,
0000
0000
0000
0000
,
0000
0000
0000
0000
,
0000
0000
3003
0000
;
