#TITLE:すーぱー☆あふぇくしょん;
#SUBTITLE:;
#ARTIST:栗林みな実,橋本みゆき,飛欄,美郷あき,yozuca*,rino;
#TITLETRANSLIT:Super Affection;
#SUBTITLETRANSLIT:;
#ARTISTTRANSLIT:Kuribayashi Minami;
#GENRE:ANIME;
#CREDIT:;
#BANNER:Super Affection.png;
#BACKGROUND:Super Affection-bg.png;
#LYRICSPATH:;
#CDTITLE:;
#MUSIC:Super Affection.ogg;
#OFFSET:0.841000;
#SAMPLESTART:2.250000;
#SAMPLELENGTH:13.845000;
#SELECTABLE:YES;
#BPMS:0.000000=184.000000
;
#STOPS:
;
#BGCHANGES:2.000=Super Affection.avi=1.000=0=0=0=====,
99999=-nosongbg-=1.000=0=0=0 // don't automatically add -songbackground-
;
#KEYSOUNDS:;
#ATTACKS:;

//---------------dance-single - ----------------
#NOTES:
     dance-single:
     :
     Hard:
     12:
     0.698045,0.834441,0.596403,0.167411,0.031390,467.000000,410.000000,57.000000,16.000000,0.000000,0.000000,0.698045,0.834441,0.596403,0.167411,0.031390,467.000000,410.000000,57.000000,16.000000,0.000000,0.000000:
0000
0000
0000
0000
,
0000
0000
0000
0000
,
0000
0000
0001
1000
,
0100
0000
1001
0000
0001
0000
1000
0100
,
0000
0100
1000
0100
1000
0000
0001
0010
,
0100
1100
1001
0110
,
0102
0000
0000
1000
1003
0000
1000
0100
,
0010
0000
1001
0000
0001
0010
0001
0010
,
0000
0010
0100
1000
0001
0000
1001
0000
,
1010
0101
1010
0101
,
0001
0100
0001
0100
0001
0010
0100
1000
,
0000
0001
0100
0001
0000
1000
0100
1000
,
0000
0001
0100
0001
0101
0000
1100
0000
,
0000
1000
0100
1000
0000
0001
0100
0001
,
0000
1000
0100
1000
1100
0000
0101
0000
,
0000
0001
0010
0001
0000
1000
0010
1000
,
0000
0001
0010
0001
0011
0000
1010
0000
,
0000
1000
0010
1000
0000
0001
0010
0001
,
0000
1000
0010
1000
0010
0100
0001
0100
,
0010
0000
1001
0000
0001
0010
0100
1000
,
0000
0001
0100
0000
0010
1000
0100
1000
,
0010
0000
0110
0000
0000
0010
1000
0002
,
0000
0023
0000
0230
0000
0310
0100
1000
,
0001
0000
0001
0010
0001
0010
0100
1000
,
0001
1000
0000
0001
0000
0100
0010
1001
,
0000
0000
1001
0000
0000
1000
0100
1000
,
0000
0001
0100
0001
0000
0010
0001
0100
,
1000
0000
0110
0000
0010
1000
0100
1000
,
0010
1000
0100
1000
0010
1000
0100
1000
,
0001
0010
0002
0003
0010
0001
0010
0100
,
1000
0001
0100
0020
0000
0000
1030
0000
,
1000
0010
0001
0010
1000
0010
0001
0010
,
1000
0100
0001
0100
0000
1000
0100
0010
,
0000
0000
0001
0000
0001
0000
0000
0000
1000
0000
0100
1000
0100
0000
1000
0100
,
1000
0001
0100
0010
1000
0100
1000
0100
,
0020
0000
0000
0001
0031
0000
0011
0000
,
1200
0000
0000
1000
1300
0000
0011
0000
,
1000
0010
0100
0001
0000
0000
0101
0000
,
0001
0010
0100
1000
0100
0010
0001
0000
,
2010
0000
0000
0100
3100
0000
1001
0000
,
0012
0000
0000
0100
0103
0000
1001
0000
,
0001
0100
0010
1000
0000
0000
1010
0000
,
0001
0100
0010
1000
0001
0010
0100
0000
,
1000
0010
1000
1000
0001
0010
0001
0001
,
0010
0100
0010
1000
0010
0100
0010
0001
,
0020
0000
1000
1000
0000
0100
0100
0000
,
0001
0001
0000
0130
0110
0000
0110
0000
,
1001
0000
0110
0000
1000
0010
0100
0001
,
0000
0001
0100
0010
1000
0010
0100
0001
,
1000
0000
0001
0100
0001
0000
1000
0100
1000
0000
0001
0100
0001
0000
1000
0100
,
1000
0001
0100
0101
0000
1000
0100
1100
,
0000
0001
0010
0100
1000
0010
0100
0010
,
0100
0000
1001
0000
0001
0010
0100
1000
,
0000
1000
0100
0010
0001
0000
0010
0001
,
0100
0000
1001
0000
0001
0100
0010
0000
,
2010
0000
0000
0100
3100
0000
0010
0100
,
0010
0000
1001
0000
0001
0100
0010
1000
,
0000
1000
0010
0100
0001
0000
0011
0000
,
1100
0101
1100
0101
,
1000
0100
1000
1000
0001
0100
0001
0010
,
0100
0000
0110
0000
1000
0100
1000
0100
,
0000
0010
0001
0100
0010
0000
0100
0010
,
1000
1010
0001
0011
,
0200
0000
0000
0010
0020
0330
1000
0010
,
0100
0000
1001
0000
0001
0010
0100
1000
,
0000
1000
0100
0010
0001
0000
0101
0000
,
0011
0101
1100
1010
,
0001
0100
0001
0100
0010
1000
0010
1000
,
0000
1000
0100
1000
0000
0001
0100
0001
,
0000
1000
0100
1000
0101
0000
1100
0000
,
0000
0001
0100
0001
0000
1000
0100
1000
,
0000
0001
0100
0001
1000
0000
0002
2000
,
0000
0000
3003
0000
;

//---------------dance-single - ----------------
#NOTES:
     dance-single:
     :
     Challenge:
     15:
     0.832572,0.910299,0.554550,0.251117,0.324359,557.000000,504.000000,53.000000,24.000000,0.000000,0.000000,0.832572,0.910299,0.554550,0.251117,0.324359,557.000000,504.000000,53.000000,24.000000,0.000000,0.000000:
// measure 0
0000
0000
0000
0000
,  // measure 1
0000
0000
0000
0000
,  // measure 2
0000
0000
0001
1000
,  // measure 3
0100
0000
1001
0000
0010
0000
1000
0010
,  // measure 4
0000
0100
0001
0100
0001
0000
0001
1000
,  // measure 5
0100
0011
0110
0110
,  // measure 6
1002
0000
0000
0100
0103
0000
1000
0001
,  // measure 7
0100
0000
0110
0000
1000
0010
1000
0010
,  // measure 8
0000
0100
0001
0100
0001
0000
1001
0000
,  // measure 9
0011
1100
0011
1100
,  // measure 10
0001
0100
1000
0100
0001
0010
1000
0010
,  // measure 11
0001
0000
1000
0100
1000
0000
0010
0000
1000
0000
0001
0100
0001
0000
0010
0000
,  // measure 12
0001
0000
1000
0100
1000
0000
0001
0000
0101
0000
0000
0000
1100
0000
0000
0000
,  // measure 13
1000
0000
0001
0010
0001
0000
0100
0000
0001
0000
1000
0010
1000
0000
0100
0000
,  // measure 14
1000
0000
0001
0010
0001
0000
1000
0000
0011
0000
0000
0000
1010
0000
0000
0000
,  // measure 15
1000
0000
1000
0100
0010
0000
0010
0000
0001
0000
0001
0100
0010
0000
0010
0000
,  // measure 16
1000
0000
1000
0100
0010
0000
0010
0000
1001
0000
0000
0000
1001
0000
0000
0000
,  // measure 17
0001
0000
0001
0010
0100
0000
0100
0000
1000
0000
1000
0010
0100
0000
0100
0000
,  // measure 18
0001
0000
0001
0010
0100
0000
0100
0000
1000
0000
0010
0000
0100
0000
0001
0000
,  // measure 19
0100
0000
1001
0000
1000
0100
0010
0001
,  // measure 20
0000
0001
0100
0000
0010
1000
0100
0010
,  // measure 21
0100
0000
0110
0000
0000
0010
0001
2000
,  // measure 22
0000
3200
0000
2300
0000
3010
0100
0001
,  // measure 23
1000
0000
0001
0010
1000
0010
0100
1000
,  // measure 24
0010
0100
0001
0100
0000
0100
0010
1001
,  // measure 25
0000
0000
1001
0000
0001
0010
0100
1000
,  // measure 26
0000
0000
1000
0000
0100
0000
0001
0000
0000
0000
0001
0000
0100
0000
1000
0100
,  // measure 27
0010
0000
0000
0000
0011
0000
0000
0000
0001
0000
0100
0000
0010
0000
1000
0001
,  // measure 28
1000
0010
0100
0001
0010
0100
1000
0100
,  // measure 29
0010
0000
0001
0100
0002
0000
0000
0000
1000
0000
1003
0000
0010
0000
0100
0000
,  // measure 30
1000
0100
0001
2000
0000
0000
3100
0000
,  // measure 31
1100
0000
1000
0100
1000
0000
0100
0010
0100
0000
0010
0001
0010
0000
0001
0000
,  // measure 32
0100
0010
0100
0001
0000
0001
0100
0110
,  // measure 33
0000
0000
1000
0000
1010
0000
0000
0000
1000
0000
0001
0010
0100
0000
1000
0010
,  // measure 34
0100
0000
0001
0000
0100
0000
1000
0000
0100
0000
0001
0100
0010
0000
1000
0100
,  // measure 35
0020
0000
0000
0001
0031
0000
1100
0000
,  // measure 36
0102
0000
0000
0000
0000
0000
1000
0000
1003
0000
0000
0000
0011
0000
0001
0010
,  // measure 37
1000
0010
0100
1000
0010
0000
1010
0000
,  // measure 38
0100
0000
0010
1000
0010
0000
0100
0010
0100
0000
0001
0100
0001
0000
1000
0100
,  // measure 39
2000
0000
0000
0010
3010
0000
1100
0000
,  // measure 40
0012
0000
0000
0000
0000
0000
0100
0000
0103
0000
0000
0000
1010
0000
1000
0010
,  // measure 41
0001
0010
0100
0001
0010
0000
0011
0000
,  // measure 42
0001
0000
0010
0000
0100
0000
1000
0010
1000
0000
0001
0010
0100
0010
0001
1000
,  // measure 43
0100
0000
1000
0000
0001
0000
1000
0010
0100
0000
0010
0000
0100
0000
0001
0010
,  // measure 44
0100
0000
0010
0000
0100
0000
1000
0010
0100
0000
0010
0000
0100
0000
0001
0010
,  // measure 45
0200
0000
1000
1000
0000
0010
0010
0000
,  // measure 46
0001
0001
0000
0310
0110
0000
1001
0100
,  // measure 47
1001
0000
0110
0000
0001
0010
0100
1000
,  // measure 48
0000
1000
0100
0010
0001
0010
0100
1000
,  // measure 49
0001
0000
0100
0001
0010
0000
0010
0001
0100
0000
0010
1000
0100
0000
0100
1000
,  // measure 50
0010
1000
0001
0101
0000
0001
1000
1100
,  // measure 51
0000
0000
0100
0000
0010
0000
0100
0000
1000
0100
0010
0001
1000
0100
0010
0001
,  // measure 52
1000
0000
0000
0000
1001
0000
0000
0001
0100
0000
0010
0000
1000
0000
0010
0000
,  // measure 53
0000
0100
0001
0010
1000
0000
0010
0001
,  // measure 54
0100
0000
1001
0000
0001
0100
0001
0100
,  // measure 55
2010
0000
0000
0100
3100
0000
0010
0001
,  // measure 56
1000
0000
0000
0000
1001
0000
0000
1000
0100
0000
0010
0000
0001
0000
1000
0000
,  // measure 57
0000
1000
0010
0100
0001
0000
0011
0000
,  // measure 58
2000
3100
2000
3001
2000
3010
2000
3001
,  // measure 59
1100
0000
0010
0001
0010
0000
0100
1000
0010
0100
0001
0010
0100
1000
0001
0100
,  // measure 60
1000
0000
0000
0000
0110
0000
0000
0010
1000
0000
0100
0000
0010
0000
0001
0000
,  // measure 61
0000
0000
0001
0000
0010
0000
0100
1000
0100
0000
0000
0000
0100
0000
0010
0000
,  // measure 62
0002
0103
0002
1003
0002
0013
0002
1003
,  // measure 63
0010
0020
0000
0130
0200
0000
0301
0010
,  // measure 64
0100
0000
0000
0000
1001
0000
0000
0001
0100
0000
1000
0000
0001
0000
0010
0000
,  // measure 65
0000
0000
0010
0000
1000
0000
0100
0001
0100
0000
0000
0000
1100
0000
0000
0000
,  // measure 66
0010
0001
0100
0000
0101
0000
1100
0000
,  // measure 67
0001
0100
0001
0100
0010
1000
0010
1000
,  // measure 68
0100
0000
1000
0100
0001
0000
0100
0000
0010
0000
0001
0100
1000
0000
0100
0000
,  // measure 69
0010
0000
1000
0100
0001
0000
0100
0000
1100
0000
0000
0000
0101
0000
0000
0000
,  // measure 70
0010
0000
0001
0010
1000
0000
0010
0000
0100
0000
1000
0010
0001
0000
0010
0000
,  // measure 71
0100
0000
0001
0010
1000
0000
0010
0000
0110
0000
0000
0000
2000
0000
0002
0000
,  // measure 72
0000
0000
3003
0000
;
