#TITLE:スゴすぎ前橋ウィッチーズ!;
#SUBTITLE:;
#ARTIST:前橋ウィッチーズ;
#TITLETRANSLIT:Sugosugi Maebashi Witches!;
#SUBTITLETRANSLIT:;
#ARTISTTRANSLIT:Maebashi Witches!;
#GENRE:ANIME;
#CREDIT:;
#MUSIC:Sugosugi Maebashi Witches!.ogg;
#BANNER:Sugosugi Maebashi Witches!.png;
#BACKGROUND:Sugosugi Maebashi Witches!-bg.png;
#CDTITLE:;
#SAMPLESTART:52.259;
#SAMPLELENGTH:11.636;
#SELECTABLE:YES;
#OFFSET:1.559;
#BPMS:0.000=165.000;
#STOPS:;
#LASTBEATHINT:1.480471;
#BGCHANGES:4.000=Sugosugi Maebashi Witches!.avi=1.000=0=0=0=StretchNoLoop====,
99999.000=-nosongbg-=1.000=0=0=0=StretchNoLoop====
;
#FGCHANGES:;

//--------------- dance-single - ----------------
#NOTES:
     dance-single:
     :
     Medium:
     12:
     0.6843,0.639928,0.521145,0.421351,0.060985,432,385,47,38,0,0,0.6843,0.639928,0.521145,0.421351,0.060985,432,385,47,38,0,0:
0000
0000
0000
0000
,
0000
0000
0000
0000
,
0000
0000
0000
0000
,
0010
0000
0000
0101
0000
0000
0010
0000
0000
1100
0000
0000
0001
0000
0010
0000
,
0100
0000
0000
0000
0100
0000
1000
0000
0001
0000
0100
0010
0100
0000
0000
0000
,
1010
0000
0101
0000
0001
0010
0100
1000
,
0001
0100
1000
0100
0001
0010
1000
0010
,
0001
0100
0010
0100
2000
0000
3200
0000
,
0301
0010
0100
1000
1100
0000
1001
0000
,
0011
0000
1100
0000
1000
0010
0100
0001
,
0010
1000
0010
0001
0100
1000
0100
0001
,
1000
0100
0010
0100
0002
0000
0203
0000
,
1300
0010
0100
0001
1001
0000
0110
0000
,
1000
0010
0100
0010
1000
0001
0000
0001
,
0010
0000
0010
0100
0000
1000
0001
1000
,
0010
0100
0001
0010
0000
1001
0000
0002
,
0000
0010
1000
0103
,
0100
0001
1000
0100
1000
0001
0000
0001
,
0010
0100
1000
0010
0000
0100
0010
0100
,
0001
0010
0100
1000
0000
0001
1000
0001
,
1000
0010
0100
0010
0110
0000
1001
0000
,
0001
0000
1000
0100
0000
0000
0100
0000
1000
0000
0001
0100
0000
0000
0100
0000
,
0001
1000
0001
0010
0200
0000
2300
0000
,
3002
0203
0320
0230
0302
0023
0230
0320
,
0032
2003
3020
0230
0301
0000
1001
0000
,
0001
0000
0010
0100
0000
0000
0100
0000
1000
0000
0010
0100
0000
0000
0100
0000
,
0001
1000
0001
0010
0200
0000
0320
0000
,
0031
1000
0010
0100
0001
1000
0100
0010
,
0011
1100
1001
0110
,
1000
0100
0001
0200
0000
1300
0010
0100
,
0001
0100
1000
0200
0000
0301
2000
0000
,
3001
0100
0001
0010
0100
1000
0010
0100
,
0101
1010
1100
0011
,
0001
0010
1000
0020
0000
0031
1000
0010
,
0001
0020
0000
1030
0000
0001
0010
0000
,
0100
1000
0010
1000
0100
0010
0001
0100
,
0001
0010
0100
1000
0001
0000
0102
0000
,
0010
1003
0100
0010
0001
0100
0010
2000
,
0010
3001
0100
0020
1000
2030
0001
3001
,
0100
1000
0100
0010
0001
1000
0100
0001
,
0101
1010
0011
2100
,
0010
3001
0100
0010
1000
0001
0010
0200
,
0010
1300
0001
0200
0010
0320
1000
1030
,
0100
0001
0100
0010
1000
0001
0100
1000
,
0010
0100
0001
1000
0010
0100
1001
0000
,
0001
0000
1000
0000
0001
0100
0000
0001
0100
0000
0010
0000
1000
0000
0001
0000
,
0010
0100
1000
0001
0101
0000
1010
1000
,
0010
0100
0001
1000
0001
0010
0100
1000
,
1100
1100
0101
0101
,
1000
0000
0001
0000
1000
0100
0000
1000
0100
0000
0010
0000
0001
0000
1000
0000
,
0010
0100
0001
0010
0011
0000
1100
0000
,
1000
0010
0001
1000
0001
0010
1000
0100
,
0110
1001
0110
0100
,
0101
0000
1010
0000
1000
0100
0010
0001
,
1000
0010
0001
0010
1000
0100
0001
0100
,
1000
0010
0100
0010
0002
0000
0023
0000
,
1030
0100
0010
0001
0011
0000
1001
0000
,
1100
0000
0011
0000
0001
0100
0010
1000
,
0100
0001
0100
1000
0010
0001
0010
1000
,
0001
0010
0100
0010
2000
0000
3020
0000
,
0031
0100
0010
1000
1001
0000
0110
0000
;

//--------------- dance-single - ----------------
#NOTES:
     dance-single:
     :
     Hard:
     15:
     0.893392,0.909371,0.742909,0.232852,0.487881,564,497,67,21,0,0,0.893392,0.909371,0.742909,0.232852,0.487881,564,497,67,21,0,0:
0000
0000
0000
0000
,
0000
0000
0000
0000
,
0000
0000
0000
0000
,
0011
0000
0000
1100
0000
0000
1010
0000
0000
0101
0000
0000
0001
0000
0010
0000
,
0100
0000
0000
0000
1000
0000
0001
0000
1000
0000
0010
0100
0010
0000
0000
0000
,
0110
0000
0000
0000
1001
0000
0000
0000
0001
0000
0010
0100
0010
0000
1000
0000
,
0001
0000
0100
1000
0001
0000
0100
0000
1000
0000
0100
0001
1000
0000
0010
0000
,
0100
0001
0010
0100
1100
0000
0011
0000
,
1000
0001
0100
0010
0110
0000
1001
0000
,
0110
0000
0000
0000
1001
0000
0000
0000
1000
0000
0010
0100
0010
0000
0001
0000
,
1000
0000
0100
0001
1000
0000
0100
0000
0001
0000
0100
1000
0001
0000
0010
0000
,
0100
1000
0010
0100
0101
0000
1010
0000
,
0001
1000
0100
0010
0110
0000
1001
0000
,
0001
0100
0001
0100
0001
1000
0110
0001
,
1000
0100
1000
0001
1000
0110
0001
1000
,
0001
0010
0100
1000
0010
1001
1000
0020
,
0000
0000
0130
0001
0100
0000
0010
1000
0010
0000
1000
0001
0020
0000
0000
0000
,
0130
0000
1000
0000
0001
0000
0100
0000
0001
0010
0100
1000
0001
0000
1000
0000
,
0010
0000
0100
0000
0001
0010
0100
0000
0010
0000
0001
1000
0001
0000
0100
0000
,
0010
0000
1000
0000
0001
0000
0100
0000
0001
0000
1000
0010
1000
0000
0001
0100
,
0001
0000
0010
0100
1000
0000
0001
0010
0100
0000
1000
0000
1001
0000
0000
0000
,
0101
0000
0100
0001
0000
0100
0001
0010
0100
0000
1000
0001
0000
0000
1000
0010
,
1000
0010
0100
0001
1000
0000
0001
0000
0010
0000
0000
0000
0110
0000
0000
0000
,
0200
2300
3020
0230
0302
0023
0230
2300
,
3002
0000
2003
0000
3020
0000
0230
0000
0302
0000
0013
0100
0010
0000
0000
0000
,
0110
0000
0010
0001
0000
0010
0001
1000
0010
0000
1000
0010
0000
0100
0001
1000
,
0100
0000
0010
0001
1000
0000
0010
0000
0110
0000
0000
0000
1001
0000
0000
0000
,
0001
0010
1000
0010
0001
1000
0100
0001
,
0100
0000
1000
0001
1000
0000
0010
0100
0010
0000
1000
0000
1001
0000
0000
0000
,
0001
0001
1000
0010
0100
0001
0010
0100
,
1000
1000
0010
0100
0101
0000
1100
0000
,
1000
0000
0001
1000
0001
1000
0010
0100
0001
0000
0010
0000
0100
0000
0000
0000
,
1100
1010
0011
0101
,
1000
1010
0010
0100
0001
1000
0100
0010
,
0001
0011
0100
1000
0010
0100
0001
0000
,
1000
0100
1000
1000
0001
0100
0001
0001
,
1000
0100
0010
0001
1000
0000
0010
0000
0110
0000
0100
0001
1000
0000
0000
0000
,
0101
0000
0101
0000
1000
0000
0001
0100
0001
0000
0001
0010
0001
0000
1000
0000
,
1100
1100
0001
1000
0011
0001
0101
0001
,
0010
0000
0100
1000
0100
1000
0001
0100
1000
0000
0100
0000
0001
0000
0010
0000
,
0110
1000
0110
0001
0110
1000
0110
0000
,
1100
0000
1100
0000
0001
0000
1000
0010
1000
0000
1000
0001
1000
0000
0001
0000
,
0101
0101
1000
0001
1100
1000
1010
1000
,
0100
0000
0010
0001
1000
0000
0010
0100
0001
0000
0010
0100
1000
0000
0001
0100
,
0010
1000
0010
1000
0001
0010
0001
0010
0100
0000
1000
0000
1001
0000
0000
0000
,
0001
0000
1000
0000
0001
0010
0000
0010
0100
0000
1000
0000
0001
0000
0100
0000
,
1000
0100
0001
1000
0110
0001
0110
1000
,
0001
0000
1000
0100
1000
0000
0001
0000
1000
0000
0001
0100
0001
0000
1000
0000
,
0102
1003
0102
1003
2100
3001
2100
3001
,
0010
0000
0001
0000
1000
0010
0000
0010
0100
0000
0001
0000
1000
0000
0001
0010
,
0100
0000
0010
0100
1000
0001
1000
0001
0100
0000
0010
0000
0110
0000
0000
0000
,
0100
0001
0100
0002
0010
0000
0013
0000
0100
1000
0100
2000
0010
0000
3010
0000
,
0100
0001
0100
0001
1000
0100
1000
0100
0010
0000
0000
0000
1001
0000
0000
0000
,
0011
0000
1100
0000
1000
0010
0100
0001
,
1000
0010
0001
0010
1000
0100
0001
0100
,
1000
0010
0100
0001
0101
0000
1010
0000
,
1000
0010
0100
0001
1001
0000
0110
0000
,
0001
0000
1000
0100
1000
0000
0001
0000
1000
0000
0001
0100
0001
0000
1000
0000
,
0001
0000
0100
1000
0100
0000
0001
0000
1000
0000
0100
0001
0100
0000
1000
0000
,
0001
0010
0001
0010
0100
0000
1000
0000
0001
0100
0001
0100
0010
0000
1000
0000
,
0001
0010
0100
1000
0001
0010
0100
1000
0001
0000
0000
0000
0110
0000
0000
0000
;

//--------------- dance-single - ----------------
#NOTES:
     dance-single:
     :
     Challenge:
     17:
     1.069219,1.145133,0.698556,0.221764,1.092187,675,612,63,20,0,0,1.069219,1.145133,0.698556,0.221764,1.092187,675,612,63,20,0,0:
0000
0000
0000
0000
,
0000
0000
0000
0000
,
0000
0000
0000
0000
,
0011
0000
0000
1100
0000
0000
1010
0000
0000
0101
0000
0000
0001
0000
1000
0000
,
0001
0000
0000
0000
1000
0001
0100
0001
1000
0000
0010
0100
0010
0000
0000
0000
,
0100
0000
0001
0000
1000
0100
0000
1000
0010
0000
0100
0001
0000
1000
0001
0010
,
0100
0000
0010
0000
0001
1000
0000
0010
0000
1000
0001
0010
0100
1000
0001
0010
,
0100
0000
1000
0000
0001
0100
0000
0001
0010
0000
0100
1000
0010
1000
0001
0010
,
1000
0000
0010
0001
1000
0001
0010
0100
0000
1000
0100
0010
0001
1000
0100
0010
,
0001
0000
1000
0000
0001
0100
0000
0001
0010
0000
0100
1000
0000
0001
1000
0010
,
0100
0000
0010
0000
1000
0001
0000
0010
0000
0001
1000
0010
0100
0001
1000
0010
,
0100
0001
0010
0100
0010
0001
0010
1000
0010
0100
1000
0100
0001
0100
1000
0100
,
0010
0001
0010
1000
0010
0001
1000
0010
0100
0000
0000
0000
0110
0000
0000
0000
,
0001
0000
1000
0000
0001
0000
1000
0001
0100
0000
0010
0000
0101
0000
1000
0000
,
0010
0000
1000
0001
0010
0000
0100
0000
1000
0000
0011
0000
0100
0000
1000
0100
,
0010
0000
0100
0000
1000
0000
0001
0100
0010
0000
1002
0000
0103
0000
0010
0000
,
1000
0000
0001
0010
0100
0000
1000
0010
0100
0000
0001
0010
0100
0000
1000
0001
,
1000
0000
0010
0000
0100
0000
0001
1000
0001
0100
0010
1000
0010
0100
1000
0100
,
0001
0000
0010
0100
1000
0020
0000
0000
0130
0001
1000
0001
1000
0000
0001
0010
,
0100
0000
1000
0000
0001
0000
1000
0000
0010
0000
1000
0001
0100
0000
0010
1000
,
0001
0010
0100
1000
0000
0000
0001
0010
0100
1000
0000
0000
0001
0010
0100
1000
0000
0000
0001
0000
0000
1000
0000
0000
,
0110
0000
0000
0000
0110
0000
0000
0000
0101
0000
0000
0101
0000
0000
0101
0000
,
1010
0000
0000
0000
1010
0000
0000
0000
1100
0000
0000
1100
0000
0000
1100
0000
,
2000
3020
0032
2003
3002
0023
2030
3200
,
0302
0000
2003
0000
3002
0000
0203
0000
2300
0000
3001
0100
0010
0000
0000
0000
,
0110
0000
1000
0010
0000
0100
0001
0010
0100
0000
0010
0001
0000
1000
0010
0100
,
1000
0000
0100
0001
1000
0000
0001
0010
0100
0000
1000
0001
0100
0000
0010
0100
,
1001
0010
0101
1000
0011
0100
0110
1000
,
1001
0000
0001
0010
0100
0000
1000
0010
0100
0000
0010
0000
1001
0000
0000
0000
,
1010
0000
0101
0000
0001
0000
0100
0010
0000
1000
0001
0000
1000
0000
0100
0000
,
0011
0000
1100
0000
1000
0000
0001
0010
0100
0000
1000
0100
0010
0000
0001
1000
,
0010
0000
0010
0100
0001
0100
0001
1000
0100
0000
0010
0001
0100
0000
0010
0000
,
1001
0000
0001
0010
0100
0000
1000
0010
0100
0000
0001
0010
0100
0000
1000
0000
,
1100
0000
0011
0000
0010
0001
0100
0010
0000
0001
0010
0000
1000
0001
0010
0000
,
0011
0000
1100
0000
0100
1000
0010
0100
0000
1000
0100
0010
1000
0100
0010
0001
,
1000
1000
0010
0010
0100
0100
0001
0001
,
1000
0100
0010
0001
0100
0000
0010
0000
0110
0000
0100
0001
0010
0000
0100
2000
,
0010
0000
3010
0000
0100
0001
0010
0100
0010
0001
1000
0001
0100
0010
0100
0002
,
0010
0000
0013
0000
0100
1000
0001
0100
0010
0000
0100
0001
0010
0000
0100
1000
,
0010
0000
0100
0001
0010
1000
0010
0001
0100
0000
0010
0100
0010
0000
1000
0100
,
0010
0000
0010
0001
1000
0000
0001
0100
0010
0000
0010
1000
0001
0000
1000
0200
,
0010
0000
0310
0000
0001
0100
1000
0100
0001
0010
0100
1000
0010
0001
0010
2000
,
0001
0000
3001
0000
1000
0100
0010
0001
1000
0000
0001
0100
1000
0000
0001
0010
,
0100
0001
0101
1000
1100
0001
0101
1000
,
0001
1000
0100
0010
0001
0100
1000
0001
0010
1000
0100
0010
1001
0000
0000
0000
,
0001
0000
0100
0000
1000
0100
0000
0100
0001
0000
1000
0000
0001
0010
0100
1000
,
0001
0010
0100
1000
2100
3010
0102
0013
,
0100
1000
0001
0000
0100
0001
1000
0100
0010
1000
0010
0100
0001
0100
1000
0001
,
0201
0310
0201
0310
2100
3010
2100
3010
,
1000
0000
0100
0000
0001
0100
0000
0100
1000
0000
0001
0100
0010
1000
0001
0010
,
0100
1000
0001
0000
1000
0100
0010
0000
0100
1000
0001
0000
1100
0000
0001
0000
,
1001
0100
0010
0000
1001
0010
0100
0000
0110
1000
0001
0000
0110
0001
1000
0000
,
0001
0010
1000
0010
0001
1000
0100
0010
0002
0000
0000
0000
1003
0000
0000
0000
,
0011
0000
1100
0000
2000
0010
0001
0100
,
3002
1000
0100
0010
2003
0001
0010
0100
,
3001
0010
0100
1000
0110
0000
1001
0000
,
1000
0000
0001
0000
0100
0000
0010
0000
0110
0000
0100
0010
1001
0000
1000
0000
,
0001
0000
1000
0010
0001
0000
0010
0000
1000
0000
0001
0010
1000
0000
0010
0000
,
0001
0000
1000
0100
0001
0000
0100
0000
1000
0000
0001
0100
1000
0000
0100
0000
,
0010
0100
1000
0100
0010
0001
0010
0100
0001
0010
0100
1000
0100
0001
0100
0010
,
1000
0001
0100
1000
0010
0001
1000
0100
0001
0000
0000
1000
0001
0000
0000
0000
;
