#TITLE:ストレンジわ~るど;
#SUBTITLE:;
#ARTIST:へんないきものチャンネル;
#TITLETRANSLIT:Strange World;
#SUBTITLETRANSLIT:;
#ARTISTTRANSLIT:henna ikimono channel;
#GENRE:POP;
#CREDIT:;
#MUSIC:Strange World.ogg;
#BANNER:Strange World.png;
#BACKGROUND:Strange World-bg.png;
#CDTITLE:;
#SAMPLESTART:58.694;
#SAMPLELENGTH:10.667;
#SELECTABLE:YES;
#OFFSET:-0.027;
#BPMS:0.000=180.000;
#STOPS:;
#BGCHANGES:2.000=Strange World.avi=1.000=0=0=0=StretchNoLoop====,
99999.000=-nosongbg-=1.000=0=0=0=StretchNoLoop====
;
#FGCHANGES:;

//--------------- dance-single - ----------------
#NOTES:
     dance-single:
     :
     Hard:
     13:
     0,0,0,0,0:
0000
0000
0000
0000
,
0000
0000
0000
0000
,
0001
0000
1000
0100
0000
1000
0010
0100
,
0001
0100
0010
1000
0000
0000
1001
0000
,
1000
0000
0001
0100
0000
0001
0010
0100
,
1000
0100
0010
0001
0000
0001
0100
0010
,
1000
0000
0010
1000
0001
0000
0100
0000
,
0010
0010
0100
0100
0000
0001
1000
0000
,
0010
0000
1000
0100
1000
0000
0001
0100
0001
0000
1000
0100
1000
0000
0001
0100
,
0001
1000
0100
1000
0001
0100
0010
1000
,
0000
0001
0100
1000
0100
0001
0010
0100
,
0000
1000
0010
0100
0101
0000
1010
0000
,
0010
0000
0010
1000
0100
0000
1000
0000
,
1000
0100
0010
0001
0000
1000
0100
1000
,
0100
0000
0010
0001
0100
0000
0010
0000
,
1000
0100
0010
0001
0000
1000
0100
0010
,
0000
0001
0100
0010
0100
0001
0010
0100
,
0010
0001
0010
1000
0000
1000
0010
0001
,
0000
0010
0001
0100
0010
1000
0010
0100
,
0001
0100
0010
1000
0010
1000
0100
0010
,
0001
0000
1000
0000
0010
0100
0010
0000
,
0100
0001
1000
0000
0100
0010
0001
0000
,
1000
0100
0001
0100
1000
0100
0001
0100
,
1000
0000
0001
0100
0010
0000
0010
0000
,
1001
0000
0001
0000
0010
0100
0010
0000
,
0100
1000
0001
0000
0100
0010
1000
0000
,
0001
0100
1000
0100
0001
0100
1000
0100
,
0001
0000
1000
0100
0010
0000
0001
0010
,
0100
1000
0100
0010
0100
1000
0001
0100
,
0000
0001
0100
0010
0100
0001
1000
0010
,
0200
0302
0023
0230
,
2300
0000
3001
0100
1000
0000
0100
0000
,
0001
1000
0100
0010
0100
0001
0100
1000
,
0000
0001
0100
0010
0100
1000
0100
0001
,
0020
0230
2300
3002
,
0203
0000
1300
0100
0001
0000
1000
0001
,
0000
1000
0100
0001
0100
0001
1000
0000
,
1000
0010
0001
1000
0000
0000
0001
1000
,
0000
0001
0100
1000
0100
1000
0001
0000
,
0001
0010
1000
0100
0010
0000
0110
0000
,
0010
0001
0100
0000
0100
0001
0010
0000
,
0100
1000
0010
0000
0010
1000
0100
0000
,
1000
0100
1000
0100
0000
0010
0000
0001
,
1000
0000
0000
0000
1000
0100
1000
0000
0100
0010
0100
0000
0010
0001
0010
0000
,
0100
1000
0010
1000
0100
1000
0010
1000
,
0001
0100
1000
0100
0001
0000
1001
0000
,
0100
0001
0010
0001
0100
0001
0010
0001
,
1000
0100
0001
0100
0000
0010
0001
0100
,
0010
1000
0001
0000
1000
0001
0010
0000
,
0100
1000
0100
2000
0000
0000
3001
0000
,
0100
0100
0100
0001
0000
0010
0100
1000
,
0000
0001
0100
0010
0000
1001
0000
0000
,
0001
0010
0100
0010
0001
0010
0100
0010
,
0001
0100
1000
0100
0001
0000
1001
0000
,
1000
0010
0100
0010
1000
0010
0100
0010
,
1000
0100
0001
0100
0000
0010
0001
1000
,
0001
1000
0010
1000
,
0001
0100
0001
0100
0000
0001
1000
0001
,
0100
0000
0001
0100
0001
0000
1000
0100
1000
0000
0001
0100
0001
0000
1000
0100
,
1000
0001
0010
0100
1000
0100
0010
0001
,
0000
1000
0010
0100
0001
1000
0100
0010
,
0002
1000
0000
0100
0000
1000
0000
0100
,
0000
1000
1003
0000
0010
0000
1001
0000
,
2000
0001
0000
0100
0000
0001
0000
0100
,
0000
0001
3001
0000
0100
0010
0100
0000
,
0010
1010
0000
1100
0000
0101
0000
0011
,
0000
0010
0100
0000
1000
0001
1000
0001
,
0000
0000
1001
1001
,
0010
0000
0010
0001
0100
0000
0001
0000
,
0001
0100
0010
1000
0000
0001
0100
0001
,
0100
0000
0010
1000
0100
0000
0010
0000
,
0001
0100
0010
1000
0000
0001
0100
0010
,
0000
1000
0100
0010
0100
1000
0010
0100
,
0010
1000
0010
0001
0000
0001
0010
1000
,
0000
0010
1000
0100
0010
0001
0010
0100
,
1000
0100
0010
0001
0010
0001
0100
0010
,
0000
0010
1000
0010
0100
0001
0100
0010
,
1000
0010
0100
0001
0100
0001
0010
0200
,
0000
0301
0100
1000
0010
0001
0010
1000
,
0001
0100
0010
0110
0000
0000
0000
0000
;

//--------------- dance-single - ----------------
#NOTES:
     dance-single:
     :
     Challenge:
     16:
     0.819438,0.624202,0,0,0,620,620,0,0,0,0,0.819438,0.624202,0,0,0,620,620,0,0,0,0:
0000
0000
0000
0000
,
0000
0000
0000
0000
,
2001
0001
0100
3100
,
1002
1000
0100
0103
,
1020
1000
0100
0130
,
0101
0000
0000
0000
1000
0000
1001
0000
0000
0000
0001
0000
0100
0000
0001
0100
,
0010
1000
0100
0010
0001
0010
1000
0010
,
0001
0001
1000
1010
0000
0001
1000
0001
,
0010
0100
0010
0001
0010
0100
0010
0001
0100
0010
0100
0001
0100
0010
0100
0001
,
1000
0010
1000
0010
1000
0010
1000
0010
0100
0000
0001
0000
0010
0000
1001
0000
,
0000
0000
1000
0100
0010
0000
0001
0010
0100
0000
1000
0100
0010
0000
0002
0000
,
0000
1003
0010
0100
0101
0000
1010
0000
,
0010
0000
0100
0000
0010
0000
1000
0100
0010
0000
0100
0000
1000
0000
0001
0100
,
0010
0000
1000
0000
0001
0000
0020
0000
0000
0000
0130
0000
1000
0100
0010
0001
,
1000
0000
0010
0000
0100
0000
0001
0100
0010
0000
1000
0000
0001
0000
0010
0100
,
1000
0000
0001
0000
1000
0000
0020
0000
0000
0000
0130
0001
0020
0000
0230
0000
,
0000
0000
2300
0000
3200
0000
0320
0000
0230
0000
2300
0000
3002
0000
0103
0010
,
0100
1000
0100
0001
0000
0010
0001
0200
,
0310
0000
1000
0100
0010
0000
0001
0010
0100
0000
1000
0100
0010
0000
0001
0100
,
0010
0000
1000
0010
0100
0000
0001
0100
0010
0000
1000
0000
1010
0000
0010
0000
,
1001
0001
2000
0010
3200
0010
2300
0100
,
3020
0100
2030
0001
3200
0010
0302
0010
,
2003
0100
3002
0100
2003
0100
3002
0100
,
2003
0000
0000
0000
3002
0000
0100
0000
0023
0000
0000
0000
0130
0000
0001
1000
,
0001
0010
0200
1000
0302
0100
0023
1000
,
0032
0100
0023
0100
2030
0100
3020
1000
,
0032
0010
2003
0010
3002
0010
2003
0010
,
3002
0000
0000
0000
0103
0000
0010
0000
0200
0000
0000
0000
0310
1000
0100
0010
,
0001
1000
0100
0001
1000
0010
0001
2000
,
0000
3001
0100
1000
0001
0010
1000
0001
,
0002
0000
0023
0100
0230
0000
2300
0010
,
3020
0000
0000
0000
0130
0000
0001
0000
2000
0000
0000
0000
3100
0010
0001
1000
,
0100
0010
0001
0100
1000
0001
0010
2000
,
0000
3010
1000
0100
0001
1000
0010
0001
,
0002
0000
0023
0100
0230
0000
2300
0001
,
3002
0000
0013
0001
1000
0000
1010
1001
,
0000
0001
0100
0001
0010
0001
1000
0000
,
0100
1000
0100
0010
0110
0000
0110
1001
,
0000
1000
0100
1000
0010
1000
0001
0000
,
0100
0001
0100
0010
0110
0000
1001
0000
,
0001
0000
1000
0000
1010
0000
0100
0000
0001
0000
0010
0000
0011
0000
0100
1000
,
0001
0100
0110
1000
0001
0100
0110
0000
,
1001
1001
1001
1001
0000
0010
0000
1000
,
0001
0000
0000
0000
1000
0100
0010
0001
1000
0100
0010
0001
1000
0100
0010
0001
,
1000
0010
1001
0010
0100
0010
1001
0010
,
0100
0001
1000
0000
0100
1000
0001
0000
0100
0001
0010
0000
0100
1000
0010
0000
,
0100
0010
1001
0010
0100
0010
1001
0100
,
2010
0000
0010
0000
3010
0000
0102
0000
0000
0000
1003
0100
0010
0001
1000
0010
,
0100
0000
0010
1000
0100
0000
0010
0001
1000
0000
0001
0100
0010
0000
1000
0000
,
0102
0100
0103
2010
0000
0010
3100
0001
,
0100
0100
0100
0002
0000
0010
0103
1100
,
0000
0000
2000
0000
3200
0000
0320
0000
0031
1000
0100
1000
0001
0000
0100
0001
,
0010
0100
1001
0100
0010
0100
1001
0100
,
0010
1000
0100
0000
0010
0001
0100
0000
0010
1000
0001
0000
1000
0100
0010
0000
,
0001
0100
1001
0100
0010
0100
1001
0010
,
0102
0100
0103
1020
0000
0100
0130
0101
,
0002
0000
2003
0100
3020
0001
2030
3001
,
0101
0010
0101
1001
0000
0100
0001
1000
,
0010
0100
0010
1000
0010
0100
0010
1000
0100
0010
0100
1000
0100
0010
0100
1000
,
0001
0010
0001
0010
0001
0010
0001
0010
0100
1000
0100
1000
0100
1000
0001
0000
,
1001
0000
1000
0100
0010
0001
1000
0001
0010
0100
1000
0001
1000
0100
0010
0001
,
1000
1020
0000
0100
0000
0001
0000
1000
,
0000
0000
0100
0000
0230
0000
0000
0000
0310
0100
1000
0100
0001
0010
0100
0010
,
0001
0021
0000
0100
0000
1000
0000
0001
,
0000
0000
0100
0000
0230
0000
0000
0000
0310
0001
0010
0100
1000
0001
0100
0010
,
0001
0011
0000
1010
0000
1100
0000
0101
,
0000
1010
1001
0000
0101
1100
0101
1100
,
0000
0000
0000
0000
0000
0000
0000
0000
0110
0000
0100
0001
1000
0000
0000
0000
,
1000
0000
0100
0000
0010
0000
0100
1000
0001
0000
0100
0000
0010
0000
1000
0001
,
0100
0000
0101
0000
0001
0000
1010
0000
0000
0000
0001
0000
1000
0100
0010
0001
,
1000
0000
0100
0000
0010
0000
0001
1000
0010
0000
0100
0000
0001
0000
1000
0001
,
0010
0100
1000
0002
0000
0103
0010
0200
,
0000
0000
0320
0000
2030
0000
3200
0000
0302
0000
0203
0000
2300
0000
3010
0100
,
0010
1010
1000
0102
0000
0013
0100
2000
,
0000
0000
3001
0010
0100
0000
1000
0010
0100
0000
0001
0010
0100
0000
1000
0100
,
0010
0000
0001
0100
0010
0000
1000
0100
0010
0001
1000
0001
1000
0010
0100
0010
,
0100
0000
0001
0100
0010
0000
1000
0100
0010
0000
0001
0100
0010
0000
1000
0010
,
0100
0000
0001
0010
0100
0000
1000
0001
0100
0010
0100
0010
1000
0001
1000
0001
,
0010
0000
0200
0000
2300
0000
3200
0000
0320
0000
0032
0000
0023
0000
0130
1000
,
0001
0101
0100
1001
0000
0000
0000
0000
;
