#TITLE:Sleep Walking Orchestra;
#SUBTITLE:;
#ARTIST:BUMP OF CHICKEN;
#TITLETRANSLIT:Sleep Walking Orchestra;
#SUBTITLETRANSLIT:;
#ARTISTTRANSLIT:BUMP OF CHICKEN;
#GENRE:ANIME;
#CREDIT:;
#MUSIC:Sleep Walking Orchestra.ogg;
#BANNER:Sleep Walking Orchestra.png;
#BACKGROUND:Sleep Walking Orchestra-bg.png;
#CDTITLE:;
#SAMPLESTART:45.757;
#SAMPLELENGTH:15.118;
#SELECTABLE:YES;
#OFFSET:1.251;
#BPMS:0.000=127.000;
#STOPS:;
#LASTBEATHINT:0.493141;
#BGCHANGES:3.000=Sleep Walking Orchestra.avi=1.000=0=0=0=StretchNoLoop====,
99999.000=-nosongbg-=1.000=0=0=0=StretchNoLoop====
;
#FGCHANGES:;

//--------------- dance-single - ----------------
#NOTES:
     dance-single:
     :
     Hard:
     12:
     0,0,0,0,0:
0000
0000
0000
0000
,
0001
1000
0000
0100
0000
1000
0010
1000
0010
0100
0010
1000
0001
0000
0010
0100
,
0010
0000
0100
1000
0100
1000
0001
1000
0001
0010
0001
0010
0100
1000
0000
0000
,
0001
0100
0001
1000
0001
0010
0001
0010
,
0100
0000
0000
0000
1000
0000
0000
0001
0000
0000
1000
0000
0010
0000
0100
0000
,
0010
0000
0010
1000
0001
0000
0001
0010
,
0000
0000
0010
0000
1000
0000
0010
0000
0002
0000
0000
1000
0000
0000
0103
0000
,
0000
0010
0000
1000
0100
0010
0001
1000
,
0010
0000
0000
0000
0100
0001
0000
1000
0000
0000
0001
0000
0010
0000
0100
0000
,
0010
0000
0010
0100
0001
0100
1000
0010
,
0100
0010
1000
0010
0100
0001
1000
0000
,
0001
0000
0010
0000
0100
0000
1000
0000
0001
0000
0010
0000
0100
0000
0000
0100
,
0000
1000
0010
0100
0001
1000
0010
0100
,
0000
0000
0100
0001
0000
0100
0000
0001
0010
0000
0100
0000
1000
0000
0001
0000
,
2000
0000
0000
0010
0000
0000
3100
0000
0002
0000
0000
0010
0000
0000
0103
0000
,
1000
0010
0000
0010
0100
0001
1000
0001
,
0010
0000
0000
0100
1000
0001
1000
0001
,
0100
0000
0100
1000
0100
0001
0100
0010
,
1000
0000
0010
0000
0001
0000
0010
0000
0200
0000
0000
1000
0000
0000
0301
0000
,
1000
0000
0000
0001
0000
0010
0100
0000
1000
0010
0000
0100
,
0010
0000
0000
0000
1000
0000
0001
0000
0000
0000
0010
0000
0100
0000
0000
1000
0000
0000
0010
0000
0000
0100
0000
0000
,
0001
0000
0000
1000
0000
0001
0100
0000
0010
0100
0000
0010
,
1000
0000
0001
0010
0000
0100
0010
0000
0001
0010
0000
0100
,
1000
0000
0001
1000
0100
0000
0010
0001
,
1000
0000
0010
0000
0110
0000
0000
0001
,
0100
0000
1000
0100
0000
0010
1000
0001
,
1000
0000
0001
0100
0001
0010
0000
0010
,
0100
1000
0001
1000
0010
0100
0001
1000
,
0000
0001
0010
1000
0010
0001
0000
1000
,
0010
1000
0100
1000
0010
0000
0010
0100
,
0000
0100
0001
0010
0001
0100
0000
0010
,
1000
0010
0100
0001
0010
0000
0010
0100
,
1000
0000
0110
0000
0001
1000
0000
0001
,
0010
0100
0000
0001
0100
0010
0000
0001
,
1000
0000
0000
0010
0100
0000
0000
0010
0100
0000
0001
0000
0100
0000
0010
0000
,
0100
1000
0000
0100
0010
1000
0000
1000
,
0001
0000
0000
0010
0100
0000
0010
0000
0000
0000
0010
0000
0001
0000
1000
0000
,
1100
0000
0100
0010
0000
0010
0001
1000
,
0000
1000
0010
0100
0010
1000
0000
0001
,
0100
0010
0100
0010
0000
0010
1000
0001
,
0000
0001
0010
1000
0000
1000
0010
0001
,
1000
0010
0000
0100
0000
0001
1000
0001
1000
0100
0010
0001
1000
0000
0010
0100
,
0010
0000
0000
0100
0001
0100
0001
0010
0001
0010
0100
1000
0001
0000
0000
0000
,
0001
0100
0000
0010
0000
1000
0001
1000
0001
0100
0010
1000
0001
0000
0010
0100
,
0010
0000
0000
0100
1000
0100
1000
0010
1000
0010
0100
0001
1000
0000
0000
0000
,
0001
0010
0000
0100
0000
1000
0010
1000
0010
0100
0001
0010
0100
0000
1000
0001
,
1000
0000
0010
0100
0001
0100
0010
0100
0001
1000
0001
0010
0100
1000
0000
0000
;

//--------------- dance-single - ----------------
#NOTES:
     dance-single:
     :
     Challenge:
     16:
     0.838388,0.882873,0.443759,0.232974,1.004005,529,489,40,21,0,0,0.838388,0.882873,0.443759,0.232974,1.004005,529,489,40,21,0,0:
0000
0000
0000
0000
,
0001
0000
0100
0000
0000
0000
0100
0000
0000
0000
0001
0000
1000
0000
0100
0000
1000
0010
1000
0000
0001
0100
0001
0000
0020
0000
0000
0000
0130
1000
0100
0000
,
0020
0000
0000
0000
0031
0000
1000
0000
0010
0100
0010
0000
1000
0000
0001
0000
1000
0100
1000
0000
0100
0010
0100
0000
1000
0000
0001
0000
0000
0000
0000
0000
,
0101
2000
0100
3020
0230
0302
0023
0130
,
2100
0000
0000
0000
3001
0200
0000
0010
0000
0301
2000
0000
3020
0000
0130
0000
,
0102
0000
1003
0100
0110
0000
1001
0200
,
0010
0000
0320
0000
2030
0000
3002
0000
2003
0000
0000
0100
0000
0000
3010
0000
,
1010
0102
0000
0023
0230
2300
3002
1003
,
1200
0000
0000
0000
1300
0020
0000
0100
0000
1030
0002
0000
0023
0000
0130
0000
,
0110
0000
1000
0001
1000
0100
0001
1000
,
0001
0000
0100
0000
1000
0001
0100
0000
0010
0000
1000
0000
1001
0000
0000
0000
,
0100
0000
0101
0000
0001
0000
0001
0000
1000
0000
1000
0010
0200
0000
0000
0301
,
0000
1100
1000
1000
0001
0100
0010
0110
,
0000
0000
1000
0010
0000
0100
0000
0010
1000
0000
0001
0000
0010
0000
0100
0000
,
0020
0000
0000
1000
0000
0000
0001
0000
0230
0000
0000
0001
0000
0000
1000
0000
,
0310
0000
0011
0000
0000
0000
1001
0000
0001
0000
0100
0010
0100
0000
0001
0000
,
0101
0000
0001
1000
0100
0001
0100
1000
,
1100
0000
0100
1000
0010
0100
0010
1000
,
0001
0000
0010
0000
0100
0000
1000
0000
0101
0000
0000
1001
0000
0000
0110
0000
,
0001
0000
0000
1000
0000
0010
0100
0000
0001
1000
0000
0001
,
0010
0000
0000
0000
0100
0000
0010
0000
0000
0000
0001
0000
0100
0000
0000
1000
0000
0000
0001
0000
0000
0010
0000
0000
,
1000
0000
0000
0001
0000
0010
0100
0000
0010
0001
0000
1000
,
0010
0000
0100
1000
0000
0100
0001
0000
0010
0100
0000
1000
,
0001
0000
0001
1000
0100
0000
0100
0010
,
0100
0000
0100
0000
0010
0000
0000
1000
,
0110
0000
0001
0010
0100
1000
0001
0000
0100
0010
0001
1000
0100
0010
1000
0000
,
0001
0010
0100
0001
0100
1000
0010
0000
0100
0001
1000
0100
0100
0001
1000
0000
,
0001
0010
0100
0000
0001
0100
1000
0000
0010
1000
0001
0100
0100
1000
0001
0000
,
1000
0000
0000
0010
0000
0000
0100
0000
0000
0000
0000
0000
0001
0000
0010
0000
0100
0000
1000
0000
0000
0000
0000
0000
0001
0000
0010
0000
0100
0000
1000
0000
0000
0000
0000
0000
0001
0000
0000
1000
0000
0000
0010
0000
0000
0000
0000
0000
,
0110
0000
0100
0000
0001
0010
0100
1000
0001
0100
0010
0000
1010
0000
0101
0000
,
0001
0000
0000
0100
0000
0000
1000
0000
0000
0000
0000
0000
1000
0000
0000
0100
0000
0000
0001
0000
0000
0000
0000
0000
1001
0000
0000
0000
0000
0000
1000
0000
0010
0000
0100
0000
0010
0000
0000
0000
0000
0000
0100
0000
0000
0001
0000
0000
,
0010
0001
0100
0000
0010
1000
0100
1000
0010
0000
1000
0000
1001
0000
0001
0100
,
1000
0100
0001
0000
1000
0100
0001
0000
0001
0100
0110
0000
1001
0000
0001
0010
,
0100
0000
1000
0000
0101
0001
1000
0100
0010
0001
1000
0000
1100
1000
0010
0100
,
0101
0000
0001
1000
1100
0000
0010
0000
0110
0100
0001
1000
0001
0010
0100
0000
,
1100
1000
0001
0000
0101
0001
0010
0000
0110
0100
1000
0001
0100
0001
1000
0010
,
0110
0100
0001
1000
0100
1000
0001
0010
0001
1000
0100
0000
0110
0010
0001
1000
,
0001
0000
0000
1000
0100
1000
0010
0000
0000
0100
0000
0000
0110
0000
0000
0001
0100
0001
0010
0000
0000
0011
0000
0000
,
1100
0000
0000
0000
0000
0000
1000
0000
0000
0001
0000
0000
0100
0000
0000
1000
0000
0000
0100
0000
0010
0000
1000
0000
0001
0000
0000
0000
0000
0000
1000
0000
0001
0000
0010
0000
0100
0000
0000
1000
0000
0000
0001
0000
0000
1000
0000
0000
,
0001
0100
0010
1000
0010
1000
0001
0010
0100
0010
0001
1000
0110
0001
1000
0000
,
0001
0010
0100
0000
0010
0100
1000
0000
1001
0000
0001
0101
0000
1000
1100
0000
,
0001
0000
1000
0000
0000
0000
1000
0000
0010
0000
0010
0000
0001
0000
1000
0000
0001
0100
0001
0000
1000
0100
1000
0000
0010
0000
0000
0000
0100
0000
0001
0000
,
0010
0000
0000
0000
0100
0000
0000
0000
1000
0000
0000
0000
0001
0000
0000
0000
0000
0000
1000
0000
0000
0000
0000
0000
0100
0000
0000
0000
0000
0000
0100
0000
0000
0000
0000
0000
0001
0000
0000
0000
0000
0000
1000
0000
0000
0000
0000
0000
0010
0000
0000
0100
0000
0000
0010
0000
0000
0000
0000
0000
1000
0000
0000
0000
0000
0000
0001
0000
0000
0000
0000
0000
2000
0000
0000
0000
0000
0000
0100
0000
0000
0000
0000
0000
0000
0000
0000
0000
0000
0000
3100
0000
0000
0000
0000
0000
,
0010
0000
0001
0000
0000
0000
0001
0000
1000
0000
0010
0000
0010
0000
0001
0000
1000
0100
1000
0000
0001
0000
0100
0000
1001
0000
0000
0000
0001
0000
0100
0000
,
0010
0000
0000
0000
1000
0000
0000
0000
0001
0000
0000
0000
1000
0000
0000
0000
0000
0000
0001
0000
0000
0000
0000
0000
0100
0000
0000
0000
0000
0000
0100
0000
0000
0000
0000
0000
1000
0000
0000
0000
0000
0000
0001
0000
0000
0000
0000
0000
1000
0000
0000
0000
0000
0000
0010
0000
0000
0100
0000
0000
0010
0000
0000
0000
0000
0000
1000
0000
0000
0000
0000
0000
0002
0000
0000
0000
0000
0000
0100
0000
0000
0000
0000
0000
0000
0000
0000
0000
0000
0000
0100
0000
0000
0000
0000
0000
,
0013
0000
1000
0000
0000
0000
1000
0000
0010
0000
0010
0000
0001
0000
1000
0000
0010
0100
0010
0000
1000
0000
0001
0000
0110
0000
0000
0000
1000
0000
0001
0000
,
0100
0000
0000
0000
0001
0000
1000
0000
0100
1000
0001
0000
0010
0000
0100
0000
1000
0001
1000
0000
0010
0100
0010
0000
1000
0000
1001
0000
0000
0000
0000
0000
;
