#TITLE:瞬間ハートビート;
#SUBTITLE:;
#ARTIST:ReGLOSS;
#TITLETRANSLIT:Shunkan Heartbeat;
#SUBTITLETRANSLIT:;
#ARTISTTRANSLIT:ReGLOSS;
#GENRE:POP;
#CREDIT:;
#MUSIC:Shunkan Heartbeat.ogg;
#BANNER:Shunkan Heartbeat.png;
#BACKGROUND:Shunkan Heartbeat-bg.png;
#CDTITLE:;
#SAMPLESTART:60.708;
#SAMPLELENGTH:14.769;
#SELECTABLE:YES;
#OFFSET:1.830;
#BPMS:0.000=130.000;
#STOPS:;
#LASTBEATHINT:1.737650;
#BGCHANGES:6.000=Shunkan Heartbeat.avi=1.000=0=0=0=StretchNoLoop====,
99999.000=-nosongbg-=1.000=0=0=0=StretchNoLoop====
;
#FGCHANGES:;

//--------------- dance-single - ----------------
#NOTES:
     dance-single:
     :
     Medium:
     9:
     0,0,0,0,0:
0000
0000
0000
0000
,
0000
0000
0000
0000
,
0000
0000
0000
0000
,
0000
0000
0000
0000
,
0000
0000
0000
0000
,
0000
0000
0000
0000
,
0000
0000
0000
0000
,
0000
0000
0000
0000
,
0000
0000
0000
0000
,
0000
0000
0000
0000
,
1000
0000
0001
0100
0001
0000
1000
0000
,
0001
0000
1000
0100
1000
0000
0001
0000
,
1000
0000
0010
0100
0010
0000
1000
0000
,
0001
0000
0010
0100
0010
0000
0001
1000
,
0100
1000
1000
0010
,
0100
0000
0001
0010
1000
0000
0010
0000
,
0001
0100
0000
1000
0100
0000
0010
1000
,
0001
0000
0010
0000
0100
1000
0001
0000
,
0100
0000
1000
0100
0001
0000
1000
0000
,
0001
0000
1000
0100
0001
0000
0100
0000
,
1000
0000
0001
0100
1000
0000
0100
0000
,
0001
0000
1000
0100
0001
0000
0100
0000
,
1000
0010
0100
0000
1000
0000
0100
0001
,
0010
1000
0010
0001
,
1000
0100
0010
0000
0100
0010
0001
0000
,
1000
0010
0100
0000
0001
0000
1001
0000
,
1000
0000
1000
0010
0100
0000
0100
0001
,
0010
0000
0010
0100
1000
0000
1000
0000
,
0001
0000
0001
0100
0010
0000
0010
1000
,
0001
0000
0001
0010
0100
0000
1000
0001
,
2000
3020
0230
0302
,
2003
0000
3001
0010
1000
0000
0010
0000
,
0002
0000
0000
1003
0010
0000
0000
0010
,
0100
0010
0100
1001
,
0001
0100
0001
0000
1000
0001
1000
0000
,
0001
0010
0100
1000
0001
0000
0001
0000
,
1000
0100
1000
0000
0001
1000
0001
0000
,
0011
0110
1100
1001
,
0001
0100
0010
0000
0010
0100
0001
0000
,
1001
0000
1000
0100
0010
0000
0100
0000
,
1000
0001
1000
0000
0001
1000
0001
0010
,
0100
0000
0100
1000
0001
0000
1000
0000
,
0020
0000
0230
0000
0302
0000
0013
1000
,
0001
0000
0001
0100
1000
0010
0000
0010
,
0200
0000
2300
0000
3002
0000
0013
1000
,
0001
0000
0001
0010
0100
1000
0001
0000
,
0200
0000
0320
0000
2030
0000
3100
0001
,
1000
0000
1000
0010
0001
0000
1000
0000
,
0010
0000
0000
0100
0000
0000
0100
0000
0000
0000
0000
0000
0100
0000
0001
0000
,
0010
0100
1000
0000
1000
0000
0010
0100
,
0010
0000
0010
1000
0001
0000
0001
0010
,
0100
0000
0100
0010
0100
0000
1000
0000
,
0100
1000
0001
0000
0001
0100
0001
0000
,
0001
0010
0100
0000
1000
0000
0001
0000
,
1000
0010
1000
0000
1000
0010
0100
0000
,
0100
0001
1000
0000
1000
0001
0010
0000
,
0100
1000
0001
0000
0001
0010
0100
0000
,
1100
0101
0110
1001
,
0001
1000
0001
1000
0200
0000
0001
0000
,
0010
1300
1001
0110
,
1000
0001
1000
0001
0200
0000
1000
0000
,
0010
0301
1001
0110
,
0001
0100
1000
0100
0002
0000
1000
0000
,
1003
0100
0001
0000
0001
0100
1000
0000
,
1100
0000
0011
0000
0001
0010
0100
1000
,
0001
0000
1000
0010
0200
0000
0010
0000
,
0320
0000
0030
0000
;

//--------------- dance-single - ----------------
#NOTES:
     dance-single:
     :
     Hard:
     12:
     0,0,0,0,0:
0000
0000
0000
0000
,
0000
0000
0000
0000
,
0000
0000
0000
0000
,
0000
0000
0000
0000
,
0000
0000
0000
0000
,
0000
0000
0000
0000
,
0000
0000
0000
0000
,
0000
0000
0000
0000
,
0000
0000
0000
0000
,
0000
0000
0000
0000
,
0001
0000
1000
0000
0100
0000
1000
0000
0001
0100
0000
0000
0101
0000
0000
0000
,
1000
0000
0001
0000
0100
0000
0001
0000
1000
0100
0000
0000
1100
0000
0000
0000
,
0100
0000
1000
0000
0010
0000
1000
0000
0100
0010
0000
0000
1001
0000
0000
0000
,
0001
0000
0100
0000
0010
0000
0100
0000
0001
0010
0000
0000
0100
0000
1000
0000
,
0002
0203
2300
3200
,
0301
0010
1000
0010
0001
0000
1000
0010
,
0100
0000
0001
0100
0000
0001
0010
0000
0100
0000
1000
0000
0010
0000
1000
0000
,
0100
0000
0010
0001
1000
0010
0100
0000
,
0001
0100
0010
1000
0100
1000
0001
0100
,
0001
0010
1000
0010
0001
0000
1001
0000
,
1000
0010
0100
0001
0010
0100
1000
0001
,
1000
0010
0001
0010
1000
0000
1010
0000
,
1000
0010
0100
0010
0001
1000
0100
0010
,
1000
0100
0010
0100
0001
0000
0001
0100
,
1000
0010
0100
0001
1000
0100
0010
0001
,
1000
0010
0100
0000
0101
0000
0001
1000
,
0100
0000
0100
0010
0001
0000
0001
1000
,
0010
0000
0010
0100
0001
0000
0001
0010
,
1000
0000
1000
0010
0001
0000
0001
0100
,
0020
0000
1000
0000
0100
0000
1030
0001
,
0020
0032
0203
0320
,
2030
0000
3001
0010
0200
0000
2300
0000
,
3020
0000
0100
0130
0002
0000
1000
1003
,
0101
0000
1100
0000
1001
0000
0001
0010
,
0100
1000
0001
1000
0010
0100
0010
1000
,
0001
0010
0100
1000
0001
0000
1000
0010
,
1000
0010
0100
1000
0100
0001
0010
0100
,
1100
0000
0011
0000
1001
0000
0001
1000
,
0010
0100
1000
0100
0001
1000
0100
0001
,
0100
1000
0010
0100
0001
0000
0001
1000
,
0100
0010
0100
0010
0001
0000
1000
0010
,
0100
0000
0100
0001
1000
0000
0010
1000
,
0001
0010
0100
1000
0001
0100
0001
1000
,
0010
0100
0001
0010
0100
1000
0000
1000
,
0010
0100
0001
1000
0100
1000
0001
0010
,
0001
0001
1000
1000
0010
0100
0010
1000
,
0001
0010
0100
1000
0010
1000
0100
1000
,
0001
0100
0010
1000
0001
0010
0100
0000
,
1000
0000
0001
0100
0000
0001
0100
0000
0010
0000
1000
0000
0001
0000
0010
0000
,
0100
1000
0100
0010
0100
1000
0001
0100
,
0010
0100
1000
0100
0010
0100
0001
0010
,
1000
0010
0100
0010
0001
0010
0100
1000
,
0001
0000
1000
0100
1000
0000
0001
0000
0100
0010
0000
0010
1000
0000
0100
0000
,
0010
0001
0100
0001
1000
0100
0010
0001
,
1000
0010
0001
0010
0100
0010
1000
0100
,
0010
0100
0001
0100
0010
0100
1000
0010
,
0100
0100
0001
0001
0010
0010
0100
0100
,
1100
1010
0101
1001
,
1000
0000
0001
0100
0001
0000
0010
0000
0100
1000
0100
0000
1000
0000
0001
0000
,
0100
0010
0100
0000
0001
1000
0001
0000
0010
0000
0100
0000
1000
0000
0000
0000
,
1000
0000
0001
0100
0001
0000
0010
0000
0100
0000
1000
0001
1000
0000
0010
0000
,
0100
0001
0100
0000
0001
0000
1000
0000
0010
0000
0100
0000
0001
0000
0000
0000
,
0001
0000
1000
0001
0100
0000
0010
0000
0100
0000
0010
1000
0001
0000
0010
0000
,
0100
1000
0100
0000
1000
0001
1000
0000
0010
0000
0100
0000
0001
0000
1000
0000
,
0100
0000
0110
0000
0001
0010
0100
1000
,
0020
0000
0130
0001
2000
0000
3002
0000
,
0023
0000
0030
0000
;

//--------------- dance-single - ----------------
#NOTES:
     dance-single:
     :
     Challenge:
     16:
     0.462871,0.404832,0,0,0,449,449,0,0,0,0,0.462871,0.404832,0,0,0,449,449,0,0,0,0:
0000
0000
0000
0000
,
0000
0000
0000
0000
,
0000
0000
0000
0000
,
0000
0000
0000
0000
,
0000
0000
0000
0000
,
0000
0000
0000
0000
,
0000
0000
0000
0000
,
0000
0000
0000
0000
,
0000
0000
0000
0000
,
0000
0000
0000
0000
,
0101
0000
0001
0010
0100
0000
1000
0000
0010
0100
0000
0000
0101
0000
0000
0000
,
1010
0000
1000
0000
0001
0000
0010
0000
0100
1000
0000
0000
1100
0000
0100
1000
,
0001
0000
0100
0010
0100
0000
0010
0000
1000
0001
0000
0000
0011
0000
0000
0000
,
1100
0000
1000
0010
0100
0000
1000
0000
0100
0001
0000
0000
0101
0000
0100
0001
,
0020
0100
0032
1000
0203
0010
0320
1000
,
0130
0001
1000
0000
0001
0000
0010
0000
1100
0000
0000
0000
1100
0000
1000
0000
,
0001
0000
0100
0010
0000
0100
0001
0010
1000
0000
0010
0000
0001
0000
0100
0000
,
1010
1000
0010
0100
0001
1000
0110
0000
,
0110
0000
0001
0000
1000
0010
0100
0000
0100
0010
1000
0000
0001
0000
0010
0000
,
0100
1000
0100
0010
0011
0000
0011
0010
,
1001
1000
0010
0100
1000
0100
0001
0010
,
0001
1000
0100
0010
0011
0000
1001
1000
,
0010
0000
0100
0001
0100
0000
0010
0000
1000
0100
1000
0000
0001
0000
0010
0000
,
1000
0001
0100
1000
0010
0000
1010
0010
,
0101
0000
0001
0000
0010
0000
0100
0000
1000
0000
0001
0000
0100
1000
0100
0010
,
1000
0000
0001
0010
0100
0000
0000
0000
0110
0000
0000
0000
1000
0000
0100
0000
,
1000
0000
1000
0010
0100
0000
0100
0001
,
0010
0000
0010
0100
1000
0000
0001
0100
,
0001
0000
0001
0010
0100
0000
0100
1000
,
0002
0000
1000
0000
0100
0000
1003
0010
,
0200
2300
3200
0302
,
2003
0000
3001
0010
2000
0000
3002
0000
,
0203
0000
1300
0001
1000
0000
0010
0100
,
1001
0010
0100
0000
1100
0000
0101
1000
,
0001
0000
0000
0010
0000
0100
1000
0000
0000
0001
0000
0100
0010
0000
0100
0001
0000
0001
1000
0000
0000
0100
0000
1000
,
0010
0000
0100
0001
0000
0001
1000
0000
0000
0100
0000
0010
0001
0000
1000
0010
0000
0000
1010
0000
0000
0100
0000
0000
,
0001
0000
0010
1000
0000
0010
0100
0000
0000
1000
0000
0010
0001
0000
0010
0100
0000
0001
1000
0000
0000
0100
0000
0000
,
0011
0000
0000
0100
0000
0000
1010
0000
0000
1000
0010
0100
0001
0010
0100
1000
0001
0010
1000
0000
0000
0010
0000
0000
,
0011
0000
0000
0001
0000
0100
0010
0000
0000
0100
0000
0001
0010
0000
0010
0100
0000
0000
1100
0000
0000
1000
0000
0000
,
0002
0000
0000
0100
0000
0000
0023
0000
0000
0130
0000
1000
0010
0000
0010
0100
0000
0000
0101
0000
0000
0001
0000
0010
,
1000
0000
0000
0010
0000
0000
0011
0000
0000
0001
0000
1000
0010
0000
0010
0100
0000
0000
0101
0000
0000
0001
0000
0010
,
0100
0000
0100
0010
0000
0000
0011
0000
0000
0001
0000
0000
1000
0100
0010
0001
1000
0100
0010
0000
0000
0001
0000
0100
,
0010
0000
0100
0001
0000
0000
0011
0000
0000
1000
0000
0100
0010
0000
0100
1000
0000
0000
1010
0000
0000
0010
0000
0100
,
0001
0000
0001
1000
0000
0000
1100
0000
0000
0100
0000
1000
0001
0000
0001
0100
0000
0100
0010
0000
0000
0100
0000
0000
,
0110
0000
0000
0010
0000
1000
0001
0000
0000
0010
0000
0100
1000
0000
1000
0001
0000
0000
0101
0000
0000
0100
0000
0001
,
0010
0000
0000
0100
0000
1000
0010
0000
0000
0010
0000
0100
0001
0000
0001
0010
0000
0000
0110
0000
0000
1000
0000
0000
,
0011
0000
0000
0001
0000
0010
1000
0000
0000
0010
0000
0001
0100
0000
0010
1000
0000
0000
1001
0000
0000
0001
0000
0010
,
0100
0000
0000
1000
0000
0010
0100
0000
0000
0001
0000
0100
0010
0000
0010
1000
0000
1000
0001
0000
0000
1000
0000
0001
,
0020
0000
0000
0000
0000
0000
0001
0000
0000
0001
0000
0000
0000
0000
0000
0100
0000
0000
0130
0000
0000
0000
0000
0000
0100
0000
0000
0000
1000
0000
0010
0000
0000
0000
0100
0000
0001
0000
0000
0000
0000
0000
1000
0000
0000
0000
0001
0000
,
0010
0000
0000
0100
0000
0000
1100
0000
0000
1000
0000
0010
0100
0000
0001
1000
0000
0000
0110
0000
0000
1000
0000
0000
,
0001
0000
0000
0100
0000
0000
1000
0000
0000
0100
0000
0001
0010
0000
0001
1000
0000
0000
1100
0000
0000
0100
0000
0000
,
1000
0000
0000
0001
0010
0100
1000
0000
0000
0010
0000
0100
0001
0000
0010
0100
0000
1000
0001
0000
0000
0100
0000
0000
,
0010
0000
0000
1000
0100
0010
0001
0000
0000
1000
0010
0100
0001
0000
0001
0010
0100
1000
0010
0000
0000
0100
0000
0000
,
0011
0000
0010
0100
0000
1000
0001
0000
0100
0010
0000
0000
0100
0001
0010
0100
1000
0010
0100
0000
0000
0010
0000
0100
,
0001
0000
0000
0001
0000
0010
0100
0000
1000
0001
0000
0000
1000
0000
0010
0100
0000
0000
0010
0000
0000
0100
0000
0001
,
0010
0000
0100
1000
0000
0001
0010
0100
1000
0001
1000
0100
0010
0001
1000
0010
0100
0010
0001
0000
0000
0010
0000
0000
,
1000
0000
0010
0100
0000
0100
0001
0000
0000
0010
0000
0000
0100
0000
1000
0010
0000
0010
0100
0000
0000
0010
0000
0000
,
1001
0000
0000
0001
0010
0100
1000
0000
1000
0010
0000
0010
0100
0000
0100
0010
0000
1000
0001
0000
0000
0010
0000
0000
,
0100
0000
0000
1000
0000
0000
0001
0000
0100
1000
0000
0100
0010
0000
0000
0001
0000
0000
1000
0000
0000
0010
0000
0100
,
0001
0000
0100
0010
0000
0000
0100
0000
0001
1000
0000
0000
1100
0000
0000
0100
0000
1000
0001
0000
0000
0100
0000
0000
,
0001
0000
0000
0100
0001
0010
0100
0000
0000
0100
1000
0010
0100
0000
0100
0001
0000
0001
1000
0000
0000
0100
0000
0000
,
1100
0000
1000
0010
0000
0100
0001
0000
0000
0001
0000
0010
0100
0000
1000
0001
0000
0000
0110
0000
0000
0010
0000
1000
,
0010
0000
0000
0100
0010
1000
0001
0000
0000
1000
0000
0100
0010
0000
1000
0010
0000
0100
0010
0000
0000
0001
0000
1000
,
0100
0010
0100
1000
0000
0000
0001
0010
0100
1000
0000
0000
0001
0000
0100
0010
0000
0000
0110
0000
0000
0100
0000
0001
,
1000
0000
0000
0100
0000
0000
0011
0000
0000
0001
0000
1000
0010
0000
0000
0100
0000
0000
0001
0000
0000
1000
0000
0100
,
0001
0000
0000
1000
0000
0010
0001
0000
0000
0100
0000
0010
1000
0000
0001
0010
0000
0000
0100
0000
0000
1000
0000
0000
,
0002
0000
0000
0000
,
0003
0000
0000
0000
;
