#TITLE:祝福;
#SUBTITLE:;
#ARTIST:YOASOBI;
#TITLETRANSLIT:Shukufuku (The Blessing);
#SUBTITLETRANSLIT:;
#ARTISTTRANSLIT:YOASOBI;
#GENRE:Anime;
#CREDIT:;
#MUSIC:Shukufuku (The Blessing).ogg;
#BANNER:Shukufuku (The Blessing).png;
#BACKGROUND:Shukufuku (The Blessing)-bg.png;
#CDTITLE:;
#SAMPLESTART:50.633;
#SAMPLELENGTH:11.294;
#SELECTABLE:YES;
#OFFSET:2.131;
#BPMS:0.000=85.000
,11.750=170.000
,23.250=85.000
,25.500=170.000
,39.500=340.000
,40.500=170.000
,129.000=85.000
,131.750=42.500
,132.500=170.000
,203.500=85.000
,204.000=170.000
;
#STOPS:7.500=0.176
,39.500=0.022
,39.625=0.022
,39.750=0.022
,39.875=0.022
,40.000=0.022
,40.125=0.022
,40.250=0.022
,40.375=0.022
;
#DISPLAYBPM:85.000:170.000;
#LASTBEATHINT:1.602250;
#BGCHANGES:3.000=Shukufuku (The Blessing).avi=1.000=0=0=0=StretchNoLoop====,
99999.000=-nosongbg-=1.000=0=0=0=StretchNoLoop====
;
#FGCHANGES:;

//--------------- dance-single - ----------------
#NOTES:
     dance-single:
     :
     Hard:
     12:
     0.691964,0.821359,0.46875,0.546875,0.290179,434,392,42,49,0,0,0.691964,0.821359,0.46875,0.546875,0.290179,434,392,42,49,0,0:
0000
0000
0000
0000
,
0110
0000
0000
0000
0000
0000
0000
0000
0000
0000
0000
0000
0000
0000
0000
0000
0000
0000
0000
0000
0000
0000
0000
0000
0001
0000
0000
0000
0000
0000
0000
0000
0000
0000
0000
0000
0000
0000
0000
0000
0000
0000
0000
0000
0000
0000
0000
0000
1000
0000
0000
0000
0000
0000
0000
0000
0000
0000
0000
0000
0010
0000
0000
0000
0000
0000
0000
0000
0000
0000
0000
0000
1000
0000
0000
0000
0000
0000
0000
0000
0000
0000
0000
0000
0001
0000
0000
0000
0000
0000
0000
0000
0000
0000
0000
0000
0000
0000
0000
0000
0000
0000
0000
0000
0000
0000
0000
0000
0010
0000
0000
0000
0000
0000
0000
0000
0000
0000
0000
0000
0100
0000
0000
0000
0000
0000
0000
0000
0000
0000
0000
0000
0010
0000
0000
0000
0000
0000
0000
0000
0000
0000
0000
0000
0000
0000
0000
0000
0000
0000
0000
0000
0000
0000
0000
0000
0001
0000
0000
0000
0000
0000
0000
0000
0000
0000
0000
0000
2000
3000
0000
0000
0000
0000
0000
0000
0000
0000
0000
0000
0010
0000
0000
0000
0000
0000
0000
0000
0000
0000
0000
0000
,
0000
0100
0000
0001
0100
0001
1000
0000
0010
0100
0010
0000
0100
0001
1000
0100
,
0000
0010
0000
0100
0000
0010
0000
0000
0000
0001
0000
0100
0000
1000
0000
0000
,
0000
1000
0000
0100
0000
0001
0000
0000
0000
1000
0000
0100
0000
0010
0000
0001
,
0000
0010
0000
0100
0000
1000
0000
0001
0000
0100
0000
0001
0000
2000
0000
0000
,
0000
0000
0000
0000
3100
0000
0010
0000
0001
0000
1000
0000
0001
0010
0001
0000
,
1000
0100
1000
0000
0020
0000
0000
0000
0130
0000
0001
0000
2000
0000
0000
0000
,
0001
0000
3001
0000
0010
0000
0100
0000
1000
0000
0001
0000
1000
0010
1000
0000
,
0001
0100
0001
0000
0020
0000
0000
0000
0000
0000
0230
0000
0000
0000
2300
0000
,
0000
3001
0000
0100
0000
0010
0100
0001
,
0000
1000
0100
0020
0000
0032
0000
2003
,
0000
3001
0100
0010
0000
0010
0100
0001
,
0000
0001
1000
1100
0000
0011
0001
1000
,
0000
0010
0000
0000
0100
0000
0001
0000
0000
0000
1000
0000
0100
0000
1000
0000
,
0000
0001
0100
0010
0000
0100
0001
1000
,
0000
0100
0010
0100
0000
0010
0001
1000
,
0000
0010
0100
0001
0100
0001
0020
0000
,
0130
1001
0000
0101
0000
0001
0100
1000
,
0000
0001
0010
1010
0000
0101
0000
0011
,
0000
1100
0000
1000
0100
0001
0000
1000
,
0010
0001
0000
0011
0000
1100
0000
1010
,
0000
0101
0000
0002
0103
2000
3100
0002
,
1003
0200
0000
0302
0103
2000
3010
0200
,
1300
0001
0020
0230
0000
0000
0001
0302
,
0000
1003
0100
0000
0100
1000
0100
1000
,
0001
0100
1000
0100
0001
1000
1010
0000
,
1000
0001
0101
0000
0001
1000
1100
0000
,
1000
0010
0110
0000
0100
0001
0011
0000
,
0001
1000
1001
0000
0100
0010
0110
0000
,
0001
0010
0100
0001
1000
0010
0002
0000
,
1003
0010
0200
0000
1300
0100
0002
0000
,
1003
0000
0000
0000
0000
0000
0000
0000
0000
0000
0000
0000
0000
0000
0000
0000
0000
0000
0000
0000
0000
0000
0000
0000
0100
0000
0000
0000
0000
0000
0000
0000
0000
0000
0000
0000
0000
0000
0000
0000
0000
0000
0000
0000
0000
0000
0000
0000
0020
0030
0000
0000
0000
0000
0000
0000
0000
0000
0000
0000
0000
0000
0000
0000
0000
0000
0000
0000
0000
0000
0000
0000
0001
0000
0000
0000
0000
0000
0000
0000
0000
0000
0000
0000
1000
0000
0000
0000
0000
0000
0000
0000
0000
0000
0000
0000
0001
0000
0000
0000
0000
0000
0000
0000
0000
0000
0000
0000
1000
0000
0000
0000
0000
0000
0000
0000
0000
0000
0000
0000
0001
0000
0000
0000
0000
0000
0000
0000
0000
0000
0000
0000
0100
0000
0000
0000
0000
0000
0000
0000
0000
0000
0000
0000
0020
0000
0000
0000
0000
0000
0000
0000
0000
0000
0000
0000
0000
0000
0000
0000
0000
0000
0000
0000
0000
0000
0000
0000
1030
0000
0000
0000
0000
0000
0000
0000
0000
0000
0000
0000
0001
0000
0000
0000
0000
0000
0000
0000
0000
0000
0000
0000
,
0000
1001
0000
1000
0010
0000
0010
0100
,
0001
0100
2000
0000
3100
0010
1000
0100
,
0010
0002
0000
1003
0010
0000
0010
0100
,
0001
0000
0001
0020
0000
0130
1000
0100
,
0001
0000
0200
0000
0000
0000
0310
0000
0002
0000
0000
0000
1003
0000
0010
0100
,
0020
0000
0130
0000
0100
0001
0010
1000
,
0001
0100
1000
0001
0101
0000
0001
1000
,
1010
0000
0100
0110
0010
1000
0001
0010
,
0001
0101
0000
1010
1000
0000
1000
0001
,
0200
0000
1300
0100
0010
1000
0100
0010
,
0001
0100
0010
0100
1000
0100
0010
2000
,
0000
3100
0001
0100
0010
0100
1000
0020
,
0000
1030
0001
0100
0000
0010
1000
0001
,
0000
0110
0000
1000
0010
0100
0001
0020
,
0000
0130
0000
0011
0000
0100
0000
1010
,
0000
0101
0000
0011
0000
1001
0000
1010
,
0000
0201
0000
1000
0000
0302
0000
1000
,
1003
0000
0000
0000
0000
0000
0000
0000
0000
0000
0000
0000
0000
0000
0000
0000
0000
0000
0000
0000
0000
0000
0000
0000
0100
0000
0000
0000
0000
0000
0000
0000
0000
0000
0000
0000
0000
0000
0000
0000
0000
0000
0000
0000
0000
0000
0000
0000
0001
0000
0000
0000
0000
0000
0000
0000
0000
0000
0000
0000
0000
0000
0000
0000
0000
0000
0000
0000
0000
0000
0000
0000
1000
0000
0000
0000
0000
0000
0000
0000
0000
0000
0000
0000
0000
0000
0000
0000
0000
0000
0000
0000
0000
0000
0000
0000
0001
0000
0000
0000
0000
0000
0000
0000
0000
0000
0000
0000
0000
0000
0000
0000
0000
0000
0000
0000
0000
0000
0000
0000
0100
0000
0000
0000
0000
0000
0000
0000
0000
0000
0000
0000
0000
0000
0000
0000
0000
0000
0000
0000
0000
0000
0000
0000
1000
0000
0000
0000
0000
0000
0000
0000
0000
0000
0000
0000
0000
0000
0000
0000
0000
0000
0000
0000
0000
0000
0000
0000
0002
0003
0000
0000
0000
0000
0000
0000
0000
0000
0000
0000
2000
3000
0000
0000
0000
0000
0000
0000
0000
0000
0000
0000
,
0002
0003
0000
0000
0000
0000
0000
0000
0000
0000
0000
0000
0000
0000
0000
0000
0000
0000
0000
0000
0000
0000
0000
0000
0100
0000
0000
0000
0000
0000
0000
0000
0000
0000
0000
0000
0000
0000
0000
0000
0000
0000
0000
0000
0000
0000
0000
0000
0001
0000
0000
0000
0000
0000
0000
0000
0000
0000
0000
0000
0000
0000
0000
0000
0000
0000
0000
0000
0000
0000
0000
0000
1000
0000
0000
0000
0000
0000
0000
0000
0000
0000
0000
0000
0100
0000
0000
0000
0000
0000
0000
0000
0000
0000
0000
0000
1000
0000
0000
0000
0000
0000
0000
0000
0000
0000
0000
0000
0000
0000
0000
0000
0000
0000
0000
0000
0000
0000
0000
0000
0001
0000
0000
0000
0000
0000
0000
0000
0000
0000
0000
0000
0010
0000
0000
0000
0000
0000
0000
0000
0000
0000
0000
0000
0001
0000
0000
0000
0000
0000
0000
0000
0000
0000
0000
0000
0000
0000
0000
0000
0000
0000
0000
0000
0000
0000
0000
0000
0200
0000
0000
0000
0000
0000
0000
0000
0000
0000
0000
0000
0000
0000
0000
0000
0000
0000
0000
0000
0000
0000
0000
0000
,
0000
0010
0310
2000
0000
0100
3100
0010
,
0001
0000
0100
0000
0001
0000
1000
0010
1000
0000
0001
0100
0001
0000
0020
0000
,
0000
0100
0130
1000
0001
0100
1000
0100
,
0001
0000
0010
0000
0100
0000
1000
0001
1000
0000
0010
0100
0010
0000
2000
0000
,
0000
0100
3100
0020
0000
0001
0031
1000
,
0010
0000
0100
0000
0010
0000
1000
0100
1000
0000
0001
0010
0100
1000
0002
0000
,
0000
1003
0010
0100
0000
0010
1000
0001
;

//--------------- dance-single - ----------------
#NOTES:
     dance-single:
     :
     Challenge:
     16:
     0.919962,1.314174,0.569196,0.859375,0.725446,577,526,51,77,0,0,0.919962,1.314174,0.569196,0.859375,0.725446,577,526,51,77,0,0:
0000
0000
0000
0000
,
0101
0000
0000
0000
0000
0000
0000
0000
0000
0000
0000
0000
0001
0000
0000
0000
0000
0000
0000
0000
0000
0000
0000
0000
1000
0000
0000
0000
0000
0000
0000
0000
0000
0000
0000
0000
0100
0000
0000
0000
0000
0000
0000
0000
0000
0000
0000
0000
1100
0000
0000
0000
0000
0000
0000
0000
0000
0000
0000
0000
1000
0000
0000
0000
0000
0000
0000
0000
0000
0000
0000
0000
0001
0000
0000
0000
0000
0000
0000
0000
0000
0000
0000
0000
0100
0000
0000
0000
0000
0000
0000
0000
0000
0000
0000
0000
0010
0000
0000
0000
0000
0000
0000
0000
0000
0000
0000
0000
1000
0000
0000
0000
0000
0000
0000
0000
0000
0000
0000
0000
1001
0000
0000
0000
0000
0000
0000
0000
0000
0000
0000
0000
0001
0000
0000
0000
0000
0000
0000
0000
0000
0000
0000
0000
1000
0000
0000
0000
0000
0000
0100
0000
0000
0000
0000
0000
0010
0000
0000
0000
0000
0000
0001
0000
0000
0000
0000
0000
2000
3000
0000
0000
0000
0000
0000
0000
0000
0000
0000
0000
0020
0000
0000
0000
0000
0000
0000
0000
0000
0000
0000
0000
,
0000
0000
0230
0000
0000
0000
0301
0000
0010
0000
0100
0000
1000
0000
0010
0000
0100
0000
0101
0000
0001
0000
1000
0100
0010
0001
1000
0100
0010
0001
1000
0000
,
0000
0010
0000
1000
0000
0110
0000
0000
0000
0001
0000
0100
0000
0101
0000
0000
,
0000
0001
0000
1000
0000
1100
0000
0000
0000
1000
0000
0001
0000
1000
0000
0001
,
0010
0100
0010
0001
1000
0100
0010
0100
1000
0001
0010
0100
2000
0002
0000
0000
,
0000
3003
0000
0000
0110
0000
0101
0000
0001
0000
1100
0000
1000
0010
0100
0000
,
1000
0100
0010
1000
0002
0000
0000
0000
1003
0100
0010
0000
0200
0000
0000
0000
,
1000
0000
1300
0000
0010
0000
1100
0000
1000
0000
0101
0000
0001
0010
0100
0000
,
0001
0100
0010
0001
0200
0000
0000
0000
0000
0000
0302
0000
0000
0000
2003
0000
,
0000
0000
3001
0000
0010
0100
0010
0000
0001
0000
1000
0000
0001
0100
0010
0000
,
1000
0000
0100
0000
0010
0001
1000
0000
0010
0000
0010
0000
0100
0001
0010
0100
,
1000
0000
0001
0000
1000
0000
0010
0000
0000
0000
0010
0000
0100
0001
1000
0000
,
0100
0000
0010
0000
0100
1000
0002
0000
0103
0000
2000
0000
3001
0010
0100
0000
,
0001
0000
1000
0000
1000
0100
0020
0000
0000
0000
0130
0000
0100
1000
0002
0000
,
0000
0000
1003
0000
1000
0010
0200
0000
0000
0000
0310
0000
0010
1000
0100
0010
,
0001
1000
0100
0000
0100
0010
0002
0000
0000
0000
1003
0000
1000
0010
0200
0000
,
0000
0000
0302
0000
0023
0000
0230
0000
2300
0000
3002
0000
0023
0000
0130
1000
,
0100
1000
0001
0100
0001
0100
1000
0000
0100
0000
0101
0000
0000
0000
1001
0000
,
0001
0000
1000
0000
0010
0100
0010
0000
1000
0000
0001
0000
0010
0100
0010
0000
,
0001
1000
0010
0110
0100
1001
0000
1001
,
0100
0000
0110
0000
1000
0001
0010
0000
0100
0000
0010
0000
0001
1000
0020
0000
,
0130
0002
0013
0200
1300
0002
0103
2000
,
3100
0000
0002
0000
0013
0100
0020
0000
1030
0000
0001
0000
0100
0010
0200
0000
,
1300
0000
0002
0000
1003
0010
0200
0000
0310
0000
1000
0001
1000
0001
0010
0000
,
0100
0010
0120
0000
0130
1000
0100
1000
,
0001
0000
0100
0000
1000
0100
0010
0000
1000
0000
0001
0000
0011
0000
0000
0000
,
0001
1000
1100
0000
1000
0001
0101
0000
,
0100
0001
0011
0000
0010
0100
1100
0000
,
1000
0001
1001
0000
0100
0010
1001
0000
,
1000
0000
0010
0000
0100
0001
2000
0000
3100
0000
0010
0001
0200
0000
0000
0000
,
0310
0000
0010
0100
0020
0000
0000
0000
0130
0000
0001
1000
0200
0000
0000
0000
,
0310
0000
0000
0000
0000
0000
0000
0000
0000
0000
0000
0000
0000
0000
0000
0000
0000
0000
0000
0000
0000
0000
0000
0000
0001
0000
0000
0000
0000
0000
0000
0000
0000
0000
0000
0000
0000
0000
0000
0000
0000
0000
0000
0000
0000
0000
0000
0000
2000
3000
0000
0000
0000
0000
0000
0000
0000
0000
0000
0000
0000
0000
0000
0000
0000
0000
0000
0000
0000
0000
0000
0000
0001
0000
0000
0000
0000
0000
0000
0000
0000
0000
0000
0000
0010
0000
0000
0000
0000
0000
0000
0000
0000
0000
0000
0000
0100
0000
0000
0000
0000
0000
0000
0000
0000
0000
0000
0000
1000
0000
0000
0000
0000
0000
0000
0000
0000
0000
0000
0000
0001
0000
0000
0000
0000
0000
0000
0000
0000
0000
0000
0000
0010
0000
0000
0000
0000
0000
0000
0000
0000
0000
0000
0000
0200
0000
0000
0000
0000
0000
0000
0000
0000
0000
0000
0000
0000
0000
0000
0000
0000
0000
0000
0000
0000
0000
0000
0000
0310
0000
0000
0000
0000
0000
0000
0000
0000
0000
0000
0000
0110
0000
0000
0000
0000
0000
0000
0000
0000
0000
0000
0000
,
0000
0000
1001
0000
0001
0000
0100
0000
0010
1000
0001
0000
0010
0000
1000
0000
,
0002
0000
0000
0000
0103
0000
1000
0000
0010
0000
1000
0001
0010
0001
0010
0100
,
1000
0010
0001
0000
1000
0000
0100
0001
1000
0000
0100
0000
0010
0000
0100
0000
,
1000
2000
0010
3020
0000
0230
0001
0302
,
0013
0000
1100
0000
1000
0000
0001
0000
1000
0010
0100
0000
1000
0000
0001
0000
,
0010
0000
0100
0000
0001
0010
2000
0000
3010
0001
2000
0000
3001
0100
2000
0000
,
3100
0001
0010
0100
1100
0000
1000
0001
,
0102
0000
0000
0000
0013
0000
0110
0000
0100
1000
0010
0000
0100
0001
0010
0000
,
0100
1001
0000
0110
1000
0001
0100
1000
,
0100
0010
0100
0000
0001
0010
1000
0000
0010
0100
0010
0000
0001
0100
1000
0000
,
0100
0000
0002
0000
0013
0100
2000
0000
3001
0100
0002
0000
1003
0010
0200
0000
,
2300
0000
3002
0000
0013
0100
0002
0000
1003
0100
2000
0000
3001
0010
0200
0000
,
0302
1003
0010
0011
0000
0001
1000
1010
,
0000
0000
0110
0000
0000
0000
1000
0000
0001
0010
0100
0000
1000
0000
0020
0000
,
0000
0000
0130
0000
0001
1000
0100
0000
0010
0000
0120
0000
0000
0000
0130
0000
,
1000
0000
0001
0000
1000
0000
1010
0000
0010
0100
0001
0000
1000
0000
1100
0000
,
0001
0101
0000
0100
0000
0001
0000
1000
,
0010
0000
0000
0000
0000
0000
0000
0000
0000
0000
0000
0000
0000
0000
0000
0000
0000
0000
0000
0000
0000
0000
0000
0000
0110
0000
0000
0000
0000
0000
0000
0000
0000
0000
0000
0000
0000
0000
0000
0000
0000
0000
0000
0000
0000
0000
0000
0000
0000
0000
0000
0000
0000
0000
0000
0000
0000
0000
0000
0000
0000
0000
0000
0000
0000
0000
0000
0000
0000
0000
0000
0000
1001
0000
0000
0000
0000
0000
0000
0000
0000
0000
0000
0000
0000
0000
0000
0000
0000
0000
0000
0000
0000
0000
0000
0000
0000
0000
0000
0000
0000
0000
0000
0000
0000
0000
0000
0000
0000
0000
0000
0000
0000
0000
0000
0000
0000
0000
0000
0000
1000
0000
0000
0000
0000
0000
0000
0000
0000
0000
0000
0000
0000
0000
0000
0000
0000
0000
0000
0000
0000
0000
0000
0000
0010
0000
0000
0000
0000
0000
0000
0000
0000
0000
0000
0000
0000
0000
0000
0000
0000
0000
0000
0000
0000
0000
0000
0000
0200
0300
0000
0000
0000
0000
0000
0000
0000
0000
0000
0000
0002
0003
0000
0000
0000
0000
0000
0000
0000
0000
0000
0000
,
0020
0030
0000
0000
0000
0000
0000
0000
0000
0000
0000
0000
0000
0000
0000
0000
0000
0000
0000
0000
0000
0000
0000
0000
0100
0000
0000
0000
0000
0000
0000
0000
0000
0000
0000
0000
0000
0000
0000
0000
0000
0000
0000
0000
0000
0000
0000
0000
1100
0000
0000
0000
0000
0000
0000
0000
0000
0000
0000
0000
0000
0000
0000
0000
0000
0000
0000
0000
0000
0000
0000
0000
1000
0000
0000
0000
0000
0000
0000
0000
0000
0000
0000
0000
0010
0000
0000
0000
0000
0000
0000
0000
0000
0000
0000
0000
0100
0000
0000
0000
0000
0000
0000
0000
0000
0000
0000
0000
0000
0000
0000
0000
0000
0000
0000
0000
0000
0000
0000
0000
1000
0000
0000
0000
0000
0000
0000
0000
0000
0000
0000
0000
0100
0000
0000
0000
0000
0000
0000
0000
0000
0000
0000
0000
0010
0000
0000
0000
0000
0000
0000
0000
0000
0000
0000
0000
1000
0000
0000
0000
0000
0000
0000
0000
0000
0000
0000
0000
0002
0000
0000
0000
0000
0000
0000
0000
0000
0000
0000
0000
0000
0000
0000
0000
0000
0000
0000
0000
0000
0000
0000
0000
,
0000
0000
0013
0100
1000
0000
0002
0000
0000
0000
0100
0000
0103
0000
0010
0000
,
1000
0000
0100
0000
0011
0000
0001
0010
0100
0000
0001
0100
0010
0001
2000
0000
,
0000
0000
3010
0100
0001
0000
0010
0000
0100
0000
1100
0000
1000
0000
0001
0100
,
0010
0000
0100
0000
0110
0000
0010
1000
0100
0000
0001
0100
1000
0001
0200
0000
,
0000
0000
0310
1000
0001
0000
0020
0000
0000
0000
0100
0000
0130
0000
1000
0000
,
0001
0000
0100
0000
1010
0000
1000
0010
0100
0000
1000
0100
0001
0010
0200
0000
,
0000
1300
0010
0101
0000
0001
1000
1001
;
