#TITLE:知らなきゃ;
#SUBTITLE:;
#ARTIST:安月名莉子;
#TITLETRANSLIT:Shiranakya;
#SUBTITLETRANSLIT:;
#ARTISTTRANSLIT:Azuna Riko;
#GENRE:ANIME;
#CREDIT:;
#MUSIC:Shiranakya.ogg;
#BANNER:Shiranakya.png;
#BACKGROUND:Shiranakya-bg.png;
#CDTITLE:;
#SAMPLESTART:55.853;
#SAMPLELENGTH:15.227;
#SELECTABLE:YES;
#OFFSET:1.192;
#BPMS:0.000=132.000;
#STOPS:;
#LASTBEATHINT:0.422400;
#BGCHANGES:2.250=Shiranakya.avi=1.000=0=0=0=StretchNoLoop====,
99999.000=-nosongbg-=1.000=0=0=0=StretchNoLoop====
;
#FGCHANGES:;

//--------------- dance-single - ----------------
#NOTES:
     dance-single:
     :
     Hard:
     11:
     0,0,0,0,0:
0000
0000
0000
0000
,
0000
0000
0000
0000
,
1000
0100
1000
0100
0000
0010
0001
0200
,
0000
0000
1000
0000
0010
0000
1300
0100
,
0001
1000
0001
0010
0000
0100
1000
0010
,
0000
0100
0100
0001
0001
1000
1000
0100
,
0010
0000
0001
0000
1000
0000
0000
1010
0000
0000
0010
0000
0100
0000
0001
0000
,
0000
1000
0100
0010
0200
0000
0010
1300
,
0000
0001
0100
1000
0200
0000
0001
0301
,
0000
0000
1000
0000
0100
0000
0010
0000
0100
0000
0000
1100
0000
0000
1000
0000
,
0010
0000
0100
0000
0001
0000
0100
0000
0001
0000
0000
0110
0000
0000
1000
0000
,
0100
0000
0001
0000
0100
0000
0010
0000
0100
0000
0000
1100
0000
0000
1000
0000
,
0010
0100
0010
0001
0010
0100
1000
0100
,
0001
0000
0001
0020
0230
2300
3002
0203
,
0000
0320
2030
3002
0000
1003
0100
1000
,
0100
0000
0001
0000
0100
0000
1000
0000
0001
0000
0000
1001
0000
0000
0001
0000
,
0100
0000
0001
0000
0100
0000
1000
0000
0100
0000
0000
0110
0000
0000
0010
0000
,
1000
0010
0001
0010
1000
0100
0000
0010
,
0001
1000
0001
1000
0000
0010
0100
0010
,
1000
0000
0100
0000
0001
0000
0100
0000
1000
0000
0000
1001
0000
0000
0010
0000
,
0100
0000
0010
0000
1000
0000
0010
0000
0001
0000
0000
0011
0000
0000
0010
0000
,
1000
0000
1000
0001
0010
0000
0100
1000
,
0001
0000
0100
0010
0100
0000
0110
0000
,
0000
1000
0001
0010
0100
1000
0001
0000
,
0000
0001
1000
0010
0100
0001
1000
0000
,
0000
0001
0010
0100
1000
0001
0010
1000
,
1010
0000
0011
0000
0002
0203
0320
2030
,
3002
0000
1003
0000
0001
1000
0010
0110
,
0000
0100
0001
0010
0100
0000
1100
0000
,
1000
0100
0010
0000
0100
1000
0010
0000
,
0100
0001
1000
0010
0100
0001
1000
0100
,
0110
0000
1001
0000
0001
0010
0100
1000
,
0002
0000
0100
0000
0013
0100
1000
0010
,
0200
0000
1000
0000
0301
0010
0100
1000
,
0010
0000
0100
0001
0010
0000
0100
1000
,
0020
0000
0001
0000
0100
0000
1030
0100
,
0001
0000
0001
0100
0000
1000
0010
0001
,
0010
0000
0010
1000
0000
0001
0010
0001
,
0000
1000
0010
1000
0000
0001
0010
0100
,
0110
1100
0011
1001
,
0001
0010
0001
0010
0100
1000
0010
0100
,
0002
0000
1000
0000
0013
0100
1000
0010
,
0100
0001
1000
0100
0000
0010
0001
1000
,
0000
0010
0100
0000
0001
1000
0100
1000
,
0001
0000
0001
0010
0000
0100
0010
0100
,
0000
0100
1000
0001
1000
0001
0100
1000
,
0001
0000
1000
0100
0001
0000
1000
0100
,
0001
0000
0000
0001
0000
0000
0100
0000
1000
0000
0000
1000
0000
0000
0010
0000
,
0110
0000
0000
0000
;

//--------------- dance-single - ----------------
#NOTES:
     dance-single:
     :
     Challenge:
     15:
     0.58511,0.452865,0,0,0,369,369,0,0,0,0,0.58511,0.452865,0,0,0,369,369,0,0,0,0:
0000
0000
0000
0000
,
0000
0000
0000
0000
,
0001
1000
0010
0110
0000
0100
0001
1001
,
0000
0001
0100
0000
0100
0010
1000
0001
,
0011
0100
1000
1010
0000
0100
0001
1001
,
0000
0011
0011
1100
1100
1010
0101
0110
,
0001
0000
0000
0000
0001
0000
0000
1000
0100
0000
0000
1000
0010
0000
0100
0000
0000
0000
0110
0000
0000
0000
0010
0000
1000
0000
0001
0000
0010
0000
0100
0000
,
0000
1000
0010
0100
0010
1000
0001
0010
0200
0000
0000
1300
0001
1000
0001
0000
,
0000
0100
0010
0100
0001
1000
0100
0010
0200
0000
0000
1300
0001
0010
0100
1000
,
0000
0000
1100
0000
0011
0000
0001
0100
0010
0000
0010
0100
0000
0000
0010
1000
,
0001
0010
0100
0010
0100
1000
0100
0001
0100
0000
0100
1000
0000
0000
1000
0001
,
0100
0010
1000
0000
1001
0000
0001
0010
0001
0100
0001
0010
0000
0000
0110
0000
,
0100
1000
0010
0100
1000
0100
0001
0100
0010
1000
0100
1000
0001
0100
0100
1000
,
0001
0000
0000
0010
0001
0000
0200
0000
0320
0000
2030
0000
3200
0000
0320
0000
,
0000
0000
0032
0000
2003
0000
3020
0000
0130
0000
0001
0100
0001
0100
1000
0100
,
1000
0100
0001
0010
0100
1000
0001
0010
0001
1000
0000
1001
0000
0001
0010
1000
,
0000
1000
0010
0100
1000
0010
0001
1000
0001
0010
0000
0110
0000
0100
0010
1000
,
0100
0000
0010
0001
0100
0000
0010
1000
0100
0001
0100
1000
0000
0000
0101
0000
,
1010
0000
1000
0000
1100
0000
0011
0000
0000
0000
0001
0100
0001
0000
1000
0100
,
0001
0100
1000
0100
0010
1000
0010
0001
0010
0200
0000
0310
0000
0001
0100
1000
,
0100
0001
0100
0010
0001
0010
1000
0100
0001
0100
0000
0010
0000
0001
1000
0000
,
1010
0000
1000
0001
0011
0000
0010
0100
,
1001
0000
0000
1000
0010
0000
0100
0000
0101
0000
0011
0000
0001
0100
0001
0100
,
0010
0000
1000
0000
0001
0000
0010
0000
0001
1000
0010
0100
0010
0000
0010
1000
,
0001
0000
0010
0000
0100
0000
1000
0000
0100
0010
0001
1000
0010
0000
0010
0100
,
0001
0000
0010
0000
1000
0000
0010
0000
0001
1000
0100
0010
0100
1000
0100
0010
,
0001
0000
0000
0001
0100
0000
0000
0100
0020
1000
0032
0010
0203
0000
2300
0000
,
3020
0000
0030
0100
0001
0000
0000
1000
0001
0000
0010
0100
0010
0000
0001
0000
,
1100
0000
0010
0000
1001
0000
0010
0000
0110
0000
0000
0000
0110
0000
0000
0100
,
0001
0000
0001
0010
0100
0000
0100
0000
1000
0000
1000
0010
0100
0000
0100
0000
,
1000
0100
1000
0100
0010
0100
0010
1000
0001
1000
0001
0010
0001
0010
0100
1000
,
0001
0000
0000
0000
0000
0000
0001
0000
0010
0000
0100
0010
0100
0000
1000
0000
0001
0000
0010
0000
0100
0000
1000
0001
1000
0000
0010
0000
0100
0000
0010
0000
,
1000
0000
1000
0010
0100
0000
0100
0001
0100
0010
0100
1000
0100
0000
0100
0001
,
0000
0001
1000
0100
1000
0001
1000
0000
1001
0000
0001
0100
0001
1000
0001
0100
,
0010
0000
0010
1000
0010
0000
0010
0000
0010
0100
0001
0000
1001
0000
0001
0010
,
0000
0010
0100
0010
0100
1000
0100
0010
0100
0000
1100
0000
1000
0010
1000
0010
,
0001
1000
0100
0001
0010
0001
0010
0100
1000
0000
1000
0010
0000
0010
0100
0000
,
0100
0001
0100
0001
1000
0100
0001
1000
0010
0000
0010
0001
0000
0001
1000
0000
,
1001
0000
1000
0010
0100
0010
1000
0000
1001
0000
0001
0010
0100
0010
0001
0000
,
0110
0000
0000
0100
1000
0010
0001
0000
1000
0100
0001
1000
0001
1000
0001
1000
,
0100
0000
0010
0001
1000
0000
0010
0000
0100
0001
0100
0001
1000
0000
1100
0000
,
0011
0000
0001
0100
0000
0010
1000
0000
0001
0100
0010
0100
0001
0000
0101
0000
,
1010
0000
0010
1000
0000
1000
0100
0000
0110
0000
0010
0001
0000
0001
0100
0000
,
0110
0000
0010
1000
0001
0010
0100
1000
0010
0000
0110
0000
0110
0000
0110
0000
,
0001
0100
0010
0100
0001
0010
0100
0010
0001
0000
0100
0000
0110
0000
0010
0000
,
1000
0100
0010
0100
1000
0010
0100
0010
1000
0000
0001
0000
0100
0000
1000
0000
,
0100
0001
0100
0001
1000
0000
0100
0000
0001
0100
1000
0100
1000
0000
0010
0000
,
1001
0000
0000
0101
0000
0000
1010
0000
0101
0000
0100
0001
0000
1000
0100
0000
,
0110
0000
0000
0000
;
