#VERSION:0.83;
#TITLE:新幹線でひたすら席蹴られるリンちゃん;
#SUBTITLE:;
#ARTIST:鏡音リン;
#TITLETRANSLIT:Shinkansen de Hitasura Seki Kerareru Rin-chan;
#SUBTITLETRANSLIT:;
#ARTISTTRANSLIT:Kagamine Rin;
#GENRE:POP;
#CREDIT:;
#MUSIC:Shinkansen de Hitasura Seki Kerareru Rin-chan.ogg;
#BANNER:Shinkansen de Hitasura Seki Kerareru Rin-chan.png;
#BACKGROUND:Shinkansen de Hitasura Seki Kerareru Rin-chan-bg.png;
#CDTITLE:;
#SAMPLESTART:3.022;
#SAMPLELENGTH:15.000;
#SELECTABLE:YES;
#OFFSET:1.679;
#BPMS:0.000=134.000;
#STOPS:;
#WARPS:223.500=6.000;
#SPEEDS:0.000=1.000=0.000=0;
#SCROLLS:0.000=1.000;
#TICKCOUNTS:0.000=4;
#TIMESIGNATURES:0.000=4=4;
#LABELS:0.000=Song Start;
#COMBOS:0.000=1;
#ORIGIN:;
#PREVIEWVID:;
#JACKET:Shinkansen de Hitasura Seki Kerareru Rin-chan-jacket.png;
#CDIMAGE:;
#DISCIMAGE:;
#BGCHANGES:3.500=Shinkansen de Hitasura Seki Kerareru Rin-chan.avi=1.000=0=0=1,
99999.000=-nosongbg-=1.000=0=0=0=StretchNoLoop====
;
#FGCHANGES:;

//--------------- dance-single - ----------------
#NOTEDATA:;
#STEPSTYPE:dance-single;
#DESCRIPTION:;
#DIFFICULTY:Beginner;
#METER:3;
#RADARVALUES:0,0,0,0,0;
#NOTES:
0000
0000
0000
0000
,
0010
0010
0010
0010
,
0010
0010
0010
0010
,
0010
0010
0010
0010
,
0010
0010
0010
0010
,
0010
0010
0010
0010
,
0010
0010
0010
0010
,
0010
0010
0010
0010
,
0010
0010
0010
0010
,
0010
0010
0010
0010
,
0010
0010
0010
0010
,
0010
0010
0010
0010
,
0010
0010
0010
0010
,
0010
0010
0010
0010
,
0010
0010
0010
0010
,
0010
0010
0010
0010
,
0010
0010
0010
0010
,
0010
0010
0010
0010
,
0010
0010
0010
0010
,
0010
0010
0010
0010
,
0010
0010
0010
0010
,
0010
0010
0010
0010
,
0010
0010
0010
0010
,
0010
0010
0010
0010
,
0010
0010
0010
0010
,
0010
0010
0010
0010
,
0010
0010
0010
0010
,
0000
0000
0000
0000
,
0000
0000
0000
0000
,
0000
0000
0000
0000
,
0000
0000
0000
0000
,
0000
0000
0000
0000
,
0000
0000
0000
0000
,
0000
0000
0000
0000
,
0000
0000
0000
0000
,
0010
0010
0010
0010
,
0010
0010
0010
0010
,
0010
0010
0010
0010
,
0010
0010
0010
0010
,
0000
0000
0000
0000
,
0010
0010
0010
0010
,
0010
0010
0010
0010
,
0010
0010
0010
0010
,
0010
0010
0010
0010
,
0010
0010
0010
0010
,
0010
0010
0010
0010
,
0010
0010
0010
0010
,
0010
0010
0010
0010
,
0010
0010
0010
0010
,
0010
0010
0010
0010
,
0010
0010
0010
0010
,
0010
0010
0010
0010
,
0010
0010
0010
0010
,
0010
0010
0010
0010
,
0010
0010
0010
0010
,
0010
0010
0010
0010
,
0010
0010
0010
0010
,
0010
0000
0000
0000
;

//--------------- dance-single - ----------------
#NOTEDATA:;
#STEPSTYPE:dance-single;
#DESCRIPTION:;
#DIFFICULTY:Easy;
#METER:11;
#RADARVALUES:0,0,0,0,0;
#NOTES:
0000
0000
0000
0000
,
0000
0000
0000
0000
,
0000
0000
0000
0000
0000
0001
1000
0001
,
0100
0000
0100
0000
0010
1000
0001
0000
,
0010
0000
0010
0000
0100
1000
0001
1000
,
0010
0000
0010
0000
0100
0001
1000
0000
,
0010
0000
1000
0000
0001
0010
0100
1000
,
0001
0000
0100
0000
0001
1000
0001
0000
,
0010
0000
0010
0000
0100
1000
0100
1000
,
0001
0000
0100
0000
1000
0100
0001
0000
,
1000
0100
0001
0100
0000
1000
0001
0010
,
0100
1100
0001
0011
,
1000
0000
1010
0000
0001
0010
0100
1000
,
0000
0001
1000
0001
0010
0100
1000
0000
,
0001
0000
1000
0000
0001
0010
0100
1000
,
0001
0000
0100
0000
1000
0100
0001
0000
,
1000
0000
0001
0010
1000
0010
0001
0100
,
0010
0000
0100
0000
0001
1000
0100
0010
,
0001
0000
0010
0100
1000
0001
0100
0000
,
0010
0000
0000
0000
1000
0000
0000
0000
0010
0000
0000
0100
0000
0000
0001
0000
,
0000
1000
0100
0001
0100
1000
0001
1000
,
0010
0000
0000
0000
0100
0000
0000
0000
0001
0000
0000
1000
0000
0000
0010
0000
,
0000
0100
0001
0100
0001
0010
0100
0000
,
0010
1001
0100
1001
,
0100
0010
0100
0000
0010
0100
0010
0000
,
1000
0001
1000
0000
0001
1000
0001
0000
,
0010
0100
1000
0000
0001
0100
0010
0000
,
2000
0000
3020
0000
,
0230
0000
0302
0023
,
0230
2300
3020
0230
,
0301
1000
0010
0000
0100
0001
1000
0000
,
0110
0000
0000
0001
0001
0000
0010
0000
,
0000
0100
0100
0000
1001
0000
0100
0000
,
0110
0000
0000
1000
1000
0000
0010
0000
,
0100
0001
0001
0000
0011
0000
1100
0000
,
1000
0010
0100
0001
0010
1000
0010
0000
,
0100
1000
0010
0001
0010
0100
0001
0000
,
1000
0100
0001
0000
0001
0100
1000
0000
,
1000
0010
0001
0010
1000
0100
0010
0001
,
1000
0000
1000
0000
0010
0100
0010
0100
,
0002
0000
1000
0000
1003
0100
0010
0100
,
2000
0000
0001
0000
3001
0100
0010
0100
,
0002
0000
0010
0000
0013
0100
1000
0001
,
0200
0000
0320
2030
3002
0000
0013
0100
,
2000
0000
0010
0000
3010
0100
0001
1000
,
0200
0000
0010
0000
0310
0001
1000
0001
,
0200
0000
1300
0100
0002
0000
0023
0230
,
0000
2300
3002
0023
0230
2300
3002
0023
,
0130
1000
0001
0100
1000
0100
0010
0000
,
0010
1000
0100
0001
0100
1000
0010
0000
,
0100
0001
0010
0000
0100
1000
0010
0000
,
0100
0001
1000
0100
0010
0100
1000
0000
,
0001
0100
0010
0001
0010
1000
0100
0000
,
0001
0100
1000
0010
0100
1000
0100
0000
,
0100
0001
0010
0000
0100
1000
0010
0000
,
0100
0001
1000
0000
1000
0100
0010
0001
,
0010
0100
1000
0001
0010
0100
1000
0001
,
0010
0000
0000
0000
;

//--------------- dance-single - ----------------
#NOTEDATA:;
#STEPSTYPE:dance-single;
#DESCRIPTION:;
#DIFFICULTY:Medium;
#METER:15;
#RADARVALUES:0,0,0,0,0;
#NOTES:
0000
0000
0000
0000
,
0100
0100
0100
0100
,
0100
0100
0100
0100
,
0101
0000
0000
0000
1100
0000
0000
0000
1001
0000
0000
0001
0100
0000
0010
0000
,
0100
0001
0010
0100
1000
0001
0100
0010
,
0110
0000
0000
0000
0110
0000
0000
0000
1001
0000
0000
1000
0001
0000
1000
0000
,
0010
0100
0001
0000
0011
0000
1100
0000
,
1010
0000
0000
0000
1010
0000
0000
0000
0101
0000
0000
0001
0010
0000
0100
0000
,
1000
0010
1000
0100
0010
0100
1000
0001
,
0101
0000
0000
0000
0101
0000
0000
0000
1010
0000
0000
1000
0010
0000
0100
0000
,
0010
1000
0001
0000
0011
0000
1100
0000
,
0001
0100
0001
1000
0010
1000
0001
0010
0100
0010
0001
0100
0001
1000
0100
1000
,
0010
0100
0010
0100
0001
0100
0010
1000
0100
1000
0001
0100
1000
0100
0001
1000
,
0010
1000
0010
0100
0010
1000
0100
0010
0001
0100
1000
0100
0001
0100
0010
1000
,
0100
0010
0100
0010
0100
1000
0010
0100
0010
1000
0001
0100
1000
0100
0001
1000
,
0100
1000
0100
0010
0001
0100
0010
0100
0001
0100
0010
1000
0100
1000
0100
0010
,
0100
0010
0001
1000
0001
0010
0100
0010
0100
0010
0001
0100
0001
1000
0010
0100
,
0001
1000
0001
0100
0010
1000
0100
1000
0001
1000
0100
0010
0001
1000
0010
0100
,
0001
0100
0010
1000
0100
0010
0001
1000
0001
0010
0001
1000
0010
0100
0001
1000
,
0020
0000
0000
0000
2030
0000
0000
0000
3002
0000
0000
0023
0000
0000
0230
0000
,
0000
1300
0001
1000
0001
1000
0100
1000
,
0010
0000
0000
0000
0010
0000
0000
0000
0100
0000
0000
0001
0000
0000
1000
0000
,
0000
0100
1000
0100
1000
0001
0100
0000
,
0001
0000
0101
0000
0001
1000
1100
0001
,
1000
0010
0110
0100
0001
1000
1010
0010
,
0100
0001
0101
0100
0001
0010
0110
0100
,
1000
0001
0101
0100
0001
0010
0110
0000
,
0210
0000
2300
0000
,
3002
0000
0203
0320
,
2030
3200
0320
0032
2003
3020
0230
0302
,
0023
0000
0230
0000
2300
0000
3020
0000
2030
0000
3002
0003
0020
0000
0130
0000
,
1100
0000
0100
1000
0001
0000
0100
0000
0101
0000
0001
1000
0100
0000
0010
0000
,
0100
0000
1000
0001
1000
0000
0010
0000
0110
0000
0100
0000
0001
0000
1000
0000
,
1100
0000
0100
1000
0001
0000
0100
0000
0101
0000
0100
0001
1000
0000
0001
0000
,
0010
0000
0100
1000
0001
0000
0100
0000
0110
0000
0010
0000
1000
0000
0001
0000
,
0101
0000
0100
0001
0100
0001
1000
0000
1100
0000
0100
1000
0010
0000
0100
0000
,
0101
0000
0001
0010
0100
0000
0100
0000
1100
0000
1000
0000
1001
0000
0001
0000
,
0100
0010
0100
0000
0010
1000
0001
0000
0010
0100
0010
0000
0100
1000
0001
0000
,
1000
0100
1000
0100
0010
0001
0010
0001
1000
0000
0000
0000
0010
0100
0010
0000
,
0100
0000
0000
0000
0100
0000
0000
0000
0100
0001
1000
0000
1100
0000
0110
0000
,
0012
0000
0013
0100
0010
0100
1000
0000
1100
0000
1000
0001
1000
0000
0010
0000
,
0110
0000
0100
0001
1000
0000
0100
0000
0010
0000
0001
0000
1000
0000
0010
0000
,
0100
0001
0010
0000
0010
0001
0100
0000
0010
1000
0100
0000
0100
1000
0010
0000
,
0100
0000
0001
0010
0100
0000
1000
0000
0001
0000
0100
0000
0010
1000
0001
0000
,
1000
0000
0100
0010
0100
0010
0100
0000
1000
0000
0001
0100
0001
0000
0101
0000
,
0100
0000
0001
1000
0001
0000
0010
0000
0100
0000
1000
0000
0001
0000
1000
0000
,
0001
0100
0010
0000
0100
0001
0010
0000
0100
1000
0010
0000
0100
0001
1000
0000
,
0100
0000
1000
0001
0010
0000
0100
0000
0110
0000
0010
0000
0001
1000
0010
0000
,
0110
0000
0100
0001
0100
0001
1000
0000
0100
0000
0010
0001
1000
0000
0010
0000
,
0100
0000
0001
1000
0010
0000
0100
0000
0001
0000
1000
0000
0001
0000
1000
0000
,
0001
0010
0001
0000
0010
0100
0010
0000
0100
1000
0100
0000
1000
0001
1000
0000
,
0010
0000
0100
0001
1000
0000
0100
0000
0010
0000
0001
0000
1000
0010
1000
0000
,
0010
0000
0100
0001
0100
0001
1000
0000
0100
0000
0010
0100
0010
0000
0001
0000
,
1000
0000
0001
0100
0001
0000
1000
0000
0001
0000
0010
0000
0100
0000
1000
0000
,
0001
0100
0001
0000
1000
0100
1000
0000
0001
0100
0001
1000
0100
1000
0001
0000
,
0010
0000
0100
1000
0001
0000
0100
0000
0010
0000
1000
0000
0001
0010
0100
0000
,
1000
0100
0010
0001
1000
0100
0010
0001
1000
0100
0010
0001
1000
0100
0010
0001
,
1000
0000
0000
0000
,
0000
0000
0000
0000
,
0000
0000
0010
0000
0000
0000
0100
0000
0000
0000
0001
0000
0000
1000
0000
0000
,
0010
0000
0100
0100
0001
1000
0010
0100
,
0001
0000
1000
0000
0000
0000
1000
0000
0000
0000
0010
0000
0000
1000
0000
0000
,
0100
0000
1000
1000
0010
0100
0001
0001
,
0000
0000
0010
0000
0000
0000
0100
0000
0000
0000
1000
0000
0000
0001
0000
0000
,
0100
0000
0010
0010
0100
0001
1000
0010
,
1000
0000
0010
0000
0000
0000
0100
0000
0000
0000
0001
0000
0000
0010
0000
0000
,
0100
0000
1000
0010
1000
0010
0100
0100
,
0000
0000
0000
0000
0000
0000
0000
0010
0000
0100
0000
0100
0000
0000
0000
0000
,
0000
0010
0000
0100
0000
0010
0000
0100
0000
0100
0000
0000
0000
0000
0000
0000
,
0000
0100
0000
0000
;

//--------------- dance-single - ----------------
#NOTEDATA:;
#STEPSTYPE:dance-single;
#DESCRIPTION:;
#DIFFICULTY:Hard;
#METER:16;
#RADARVALUES:0.703323,0.827268,0.024055,0.024055,1.250862,614,611,3,3,89,0,0,0,20,0.703323,0.827268,0.024055,0.024055,1.250862,614,611,3,3,89,0,0,0,20;
#CHARTNAME:;
#CHARTSTYLE:;
#CREDIT:;
#NOTES:
0000
0000
0000
0000
,
0000
0000
0000
0000
,
0000
0000
0000
0000
0000
0000
0000
0000
0000
0000
0001
0000
1000
0100
1000
0000
,
0100
1000
0100
1000
0001
0100
0001
0100
0010
1000
0100
1000
0001
0000
0000
0000
,
0001
0010
0100
1000
0001
1000
0001
0100
0010
1000
0001
0010
0100
1000
0001
0000
,
1000
0000
0010
0000
0100
0001
0100
0001
0000
1000
0100
1000
0100
0000
0000
0000
,
0010
0001
0100
0010
0100
0010
1000
0001
0000
0010
0100
0000
1000
0100
1000
0010
,
1000
0001
0010
0001
0010
0100
1000
0000
0010
0100
0010
0000
1000
0000
0000
0000
,
0001
0000
1000
0000
0001
0010
0001
0010
0100
0000
1000
0000
0001
0100
0010
1000
,
0001
0100
0010
0100
0001
0000
0010
0000
0100
1000
0001
0100
0010
0000
0000
0000
,
0100
0001
0100
0001
1000
0100
1000
0100
0000
0010
0100
1000
0001
0100
0010
0000
,
0100
0000
0001
1000
0100
1000
0001
0000
0000
1000
0010
0100
0001
0000
1000
0000
,
0001
0000
0010
0100
1000
0001
1000
0000
0000
0000
0001
0010
0100
1000
0001
0000
,
0000
0100
0010
0100
0010
0000
1000
0000
0001
0010
0100
1000
0001
0000
0000
0000
,
1000
0000
0010
0100
0010
0000
1000
0001
1000
0000
0001
0010
0100
1000
0001
0000
,
1000
0010
1000
0010
0100
0001
0100
0001
1000
0010
0100
0001
0010
0000
0100
0000
,
0010
0000
0001
1000
0100
1000
0100
1000
0001
0000
1000
0010
0100
0000
0010
0000
,
1000
0010
0100
0010
0100
0001
1000
0000
0001
0100
0010
0000
0010
1000
0001
0000
,
1000
0100
1000
0001
0100
0010
0100
0000
0010
1000
0001
0000
1000
0100
0010
0000
,
0001
0000
0000
0000
1000
0000
0000
0000
0010
0000
0000
0100
0000
0000
0001
0000
,
0000
1000
0100
0010
0001
0010
0100
1000
,
0001
1000
0100
1000
0100
0000
0010
0001
1000
0000
0010
0000
0100
0001
0010
0100
,
1000
0000
0010
0000
0100
0000
0010
0000
1000
0001
1000
0000
0001
1000
0001
0000
,
0010
0000
0000
0000
1001
0000
0000
0000
0100
0000
0000
0110
0000
0000
1000
0000
,
0001
0010
0001
0010
0100
1000
0100
0000
0100
1000
0000
1000
0001
0100
0010
0000
,
0100
0001
0100
0001
0010
0000
0100
0000
0010
0001
0010
0001
1000
0010
0100
0000
,
0001
0010
0100
1000
0010
0100
0001
0010
0100
0000
1000
0000
0001
0000
0000
0000
,
2000
0000
0000
0000
3002
0000
0100
0103
,
0000
0010
1000
0010
0100
0001
0010
0100
,
1000
0001
1000
0001
0100
0000
0010
0000
1000
0100
1000
0000
0001
0100
0001
0010
,
0000
0100
1000
0010
1000
0100
1000
0001
0010
0000
0100
1000
0001
1000
0010
0000
,
0100
0001
0010
0001
0010
0001
0100
0000
0001
1000
0000
0001
0100
0001
0100
0000
,
0010
1000
0100
1000
0100
1000
0100
1000
0001
0000
0100
0010
0100
0010
1000
0000
,
0100
0000
1000
0001
1000
0001
0100
0000
0010
0000
1000
0001
1000
0001
0100
0000
,
0001
0000
1000
0001
1000
0100
1000
0001
0010
0000
0010
0000
0100
1000
0001
0000
,
0010
0000
0100
0000
1000
0010
1000
0000
0010
0100
0010
0100
0001
0010
0100
0000
,
1000
0000
0001
0100
0001
0000
0010
0000
0100
0000
1000
0000
0100
0010
0001
0000
,
1000
0000
0010
0000
0100
0010
0100
0001
0100
0010
0100
0001
0010
0100
1000
0000
,
0000
0000
0001
0000
0000
0000
0100
0020
0000
0000
0000
0000
0000
0000
0000
0000
,
0100
0000
0000
0000
0130
0000
0000
0000
0100
0010
0100
0000
1001
0000
0001
0000
,
0010
0000
0100
0000
1000
0100
1000
0000
0001
0100
0001
0100
1000
0000
0100
0000
,
0010
0000
1000
0000
0001
0010
0100
0000
0010
0001
1000
0010
0100
0001
1000
0000
,
0001
0010
0000
0100
1000
0001
1000
0100
0010
0000
0100
0000
1000
0010
0100
0000
,
0010
1000
0100
0010
0100
0010
0001
1000
0010
1000
0010
0100
0001
0010
1000
0000
,
0010
0001
0100
1000
0100
0010
0100
0001
0010
0001
1000
0010
0001
0000
0010
0000
,
0100
0000
0001
0000
1000
0100
0001
0100
1000
0000
0001
0100
1000
0000
0100
0000
,
0001
0010
0100
0000
1000
0010
0100
1000
0100
0010
1000
0100
0010
0100
1000
0001
,
0000
0100
0010
0001
0010
0100
0001
0010
0100
0000
1000
0001
1000
0010
0100
0000
,
0010
0000
1000
0001
1000
0100
0010
0100
0010
0000
0010
0001
1000
0000
1000
0000
,
0010
0100
0001
0100
0010
0100
0001
0010
0100
0010
0001
0010
0100
1000
0001
0000
,
0100
0000
1000
0000
0100
0000
0001
0010
0100
1000
0000
1000
0100
0010
0001
0000
,
0010
0100
1000
0100
0010
0100
1000
0000
0001
0000
0100
0000
0010
0100
0010
1000
,
0001
0000
0010
0100
1000
0001
0000
0001
0010
0100
1000
0001
0100
0000
0010
0000
,
0100
0001
0010
0100
1000
0001
0100
0010
0100
0001
0010
0100
0010
0001
1000
0010
,
0100
0001
0010
0000
0001
0000
1000
0010
0100
0001
0010
0000
0100
0000
1000
0001
,
0100
0001
0100
0000
0010
0000
1000
0001
0010
0000
0100
0000
1000
0000
0001
0000
,
0001
0010
0100
1000
0001
0010
0100
1000
0001
0010
0100
1000
0001
0010
0100
1000
,
0001
0000
0000
0000
0000
0000
0000
0000
0000
0000
0000
0000
0000
0000
0000
000M
,
0000
M000
0000
0000
0000
00M0
0000
0000
0000
0M00
0000
0000
000M
0000
0000
00M0
0000
0000
0M00
0000
0000
0000
M000
0000
0000
0000
000M
0000
0000
0000
0000
0000
M000
0000
0000
0000
0000
0000
0000
0000
0000
0000
0000
0000
0000
000M
0000
0000
,
0000
0000
0000
0000
0M00
0000
0000
0000
0000
0000
0000
0000
0000
0000
0000
0000
0000
0000
0000
0000
000M
0000
0000
0000
0000
0000
0000
0000
0000
0000
0000
0000
0000
0000
0000
0000
0M00
0000
0000
0000
0000
0000
0000
0000
0000
0000
0000
0000
0000
0000
0000
0000
00M0
0000
0000
0000
0000
0000
0000
0000
0000
0000
M000
0000
0000
0000
0000
0000
0000
0000
0000
0000
000M
0000
0000
0000
0000
0000
0000
0000
0000
0000
0000
0000
00M0
0000
0000
0000
0000
0000
0000
0000
0000
0000
0000
0000
0000
0M00
0000
0000
0000
0000
0000
0000
0000
0000
0000
0000
0000
0000
M000
0000
0000
0000
0000
0000
0000
0000
0000
0000
0000
0000
0000
00M0
0000
0000
0000
0000
0000
0000
0000
0000
0000
0000
0000
0000
0M00
0000
0000
0000
0000
0000
0000
0000
0000
0000
0000
0000
0000
00M0
0000
0000
0000
0000
0000
0000
0000
0000
0000
0000
0000
0000
0000
0000
0000
0000
0000
0000
0000
0000
0000
0000
0M00
0000
0000
0000
0000
0000
0000
0000
0000
0000
0000
0000
0000
0000
0000
0000
0000
0000
0000
0000
,
0000
0000
0000
0000
0000
0000
0000
0000
0000
0000
0000
0000
0000
0000
0000
0000
0000
0000
0000
0000
0000
0000
0000
0000
0000
0000
0000
0000
0000
0000
0000
0000
0000
0000
0000
0000
0000
0000
0000
0000
0000
0000
0000
0000
0000
0000
0000
0000
000M
0000
0000
0000
0000
0000
0000
0000
0000
0000
0000
0000
M000
0000
0000
0000
0000
0000
0000
0000
0000
0000
0000
0000
000M
0000
0000
0000
0000
0000
0000
0000
0000
0000
0000
0000
M000
0000
0000
0000
0000
0000
0000
0000
0000
0000
0000
0000
00M0
0000
0000
0000
0000
0000
0000
0000
0000
0000
0000
0000
0000
0000
0000
0M00
0000
0000
0000
0000
0000
0000
0000
0000
0000
0000
0000
0000
0000
0000
00M0
0000
0000
0000
0000
0000
0000
0000
0000
0000
0000
0000
0000
0000
M000
0000
0000
0000
0000
0000
0000
0000
0000
0000
0000
0000
000M
0000
0000
0000
0000
0000
0000
0000
0000
0000
0000
0000
0000
0000
00M0
0000
0000
0000
0000
0000
0000
0000
0000
0000
0000
0000
0000
0000
0M00
0000
0000
0000
0000
0000
0000
0000
0000
0000
0000
0000
,
M000
0000
0000
0000
0000
0000
0000
0000
0000
0000
0000
0000
0000
0000
0000
0000
0000
0000
0000
0000
0000
0000
0000
0000
0000
0000
0000
0000
000M
0000
0000
0000
0000
0000
0000
0000
0000
0000
0000
0000
0M00
0000
0000
0000
0000
0000
0000
0000
0000
0000
0000
0000
000M
0000
0000
0000
0000
0000
0000
0000
0000
0000
0000
0000
0M00
0000
0000
0000
0000
0000
0000
0000
0000
0000
0000
0000
0000
0000
0000
0000
000M
0000
0000
0000
0000
0000
0000
0000
0000
0000
0000
0000
0000
0000
M000
0000
0000
0000
0000
0000
0000
0000
0000
0000
0000
0000
0000
0000
0000
0M00
0000
0000
0000
0000
0000
0000
0000
0000
0000
0000
0000
0000
M000
0000
0000
0000
0000
0000
0000
0000
0000
0000
0000
0000
0000
0000
0000
0M00
0000
0000
0000
0000
0000
0000
0000
0000
0000
0000
0000
0000
0000
0000
0000
0000
0000
0000
0000
0000
0000
0000
0000
0000
0000
0000
0000
0000
0000
0000
0000
0000
0000
0000
0000
0000
0000
0000
0000
0000
0000
0000
0000
0000
0000
0000
0000
0000
0000
0000
0000
0000
0000
0000
,
000M
0000
0000
0000
0000
0000
0000
0000
0000
0000
0000
0000
0000
0000
0000
0000
0000
0000
0000
0000
0000
00M0
0000
0000
0000
0000
0000
0000
0000
0000
0000
0000
0000
0000
0000
0000
000M
0000
0000
0000
0000
0000
0000
0000
0000
0000
0000
0000
0000
0000
0000
0000
0000
0000
00M0
0000
0000
0000
0000
0000
0000
0000
0000
0000
0000
0000
0000
0000
0M00
0000
0000
0000
0000
0000
0000
0000
0000
0000
0000
0000
0000
0000
0000
0000
0000
0000
0000
0000
0000
0000
0000
0000
0000
0000
0000
0000
0000
0000
0000
0000
0000
0000
0000
0000
M000
0000
0000
0000
0000
0000
0000
0000
0000
0000
0000
0000
0000
0000
0000
0000
0000
000M
0000
0000
0000
0000
0000
0000
0000
0000
0000
0000
0000
0000
0000
0000
0000
0000
0000
0000
M000
0000
0000
0000
0000
0000
0000
0000
0000
0000
0000
0000
0000
0000
0000
00M0
0000
0000
0000
0000
0000
0000
0000
0000
0000
0000
0000
0000
0M00
0000
0000
0000
0000
0000
0000
0000
0000
0000
0000
0000
0000
0000
0000
0000
0000
0000
0000
0000
0000
0000
0000
0000
,
0000
0000
00M0
0000
0000
0000
0000
0000
0000
0000
0000
0000
0000
0000
0000
0000
0000
0000
M000
0000
0000
0000
0000
0000
0000
0000
0000
0000
000M
0000
0000
0000
0000
0000
0000
0000
0000
0000
0000
0000
M000
0000
0000
0000
0000
0000
0000
0000
0000
0000
0000
0000
0000
0000
0M00
0000
0000
0000
0000
0000
0000
0000
0000
0000
0000
0000
00M0
0000
0000
0000
0000
0000
0000
0000
0000
0000
0000
0000
000M
0000
0000
0000
0000
0000
0000
0000
0000
0000
0000
0000
0000
0000
0000
M000
0000
0000
0000
0000
0000
0000
0000
0000
0000
0000
0000
0000
0000
0000
00M0
0000
0000
0000
0000
0000
0000
0000
0000
0000
0000
0000
0000
0000
0000
0000
0000
0000
0000
0000
0M00
0000
0000
0000
0000
0000
0000
0000
0000
0000
0000
0000
0000
0000
00M0
0000
0000
0000
0000
0000
0000
0000
0000
0000
0000
0000
0000
0000
0000
0000
0000
0000
0000
0000
0000
0M00
0000
0000
0000
0000
0000
0000
0000
0000
0000
0000
0000
0000
0000
0000
0000
0000
0000
0000
0000
0000
0000
0000
0000
0000
0000
0000
0000
0000
,
000M
0000
0000
0000
0000
0000
0000
0000
0000
0000
0000
0000
0000
0000
M000
0000
0000
0000
0000
0000
0000
0000
0000
0000
0000
0000
0000
0000
0000
0M00
0000
0000
0000
0000
0000
0000
0000
0000
0000
0000
0000
0000
0000
0000
M000
0000
0000
0000
0000
0000
0000
0000
0000
0000
0000
0000
0000
0000
000M
0000
0000
0000
0000
0000
0000
0000
0000
0000
0000
0000
0000
0000
0M00
0000
0000
0000
0000
0000
0000
0000
0000
0000
0000
0000
00M0
0000
0000
0000
0000
0000
0000
0000
0000
0000
0000
0000
M000
0000
0000
0000
0000
0000
0000
0000
0000
0000
0000
0000
0000
0000
0000
0000
0000
0000
0000
0000
0000
0000
0000
0000
0000
0000
0000
0000
0000
0000
0000
0000
0000
0000
0000
0000
0000
0000
0000
0000
0000
0000
0000
0000
0000
0000
0000
0000
0000
0000
0000
0000
0000
0000
0000
0000
0000
0000
0000
0000
0000
0000
0000
0000
0000
0000
0000
0000
000M
0000
0000
0000
0000
0000
0000
0000
0000
0000
0000
0000
0M00
0000
0000
0000
0000
0000
0000
0000
0000
0000
0000
0000
0000
0000
0000
0000
,
0000
0000
0000
0000
0000
0000
0000
0000
0M00
0000
0000
0000
0000
0000
0000
0000
0000
0000
000M
0000
0000
0000
0000
0000
0000
0000
0000
0000
0000
0000
M000
0000
0000
0000
0000
0000
0000
0000
0000
0000
0000
0000
0M00
0000
0000
0000
0000
0000
0000
0000
0000
0000
0000
0000
0000
0000
0000
M000
0000
0000
0000
0000
0000
0000
0000
0000
0000
0000
0000
0000
0000
0000
000M
0000
0000
0000
0000
0000
0000
0000
0000
0000
0000
0000
0000
0000
0000
0000
00M0
0000
0000
0000
0000
0000
0000
0000
0000
0000
0000
0000
0000
0000
0000
0000
0M00
0000
0000
0000
0000
0000
0000
0000
0000
0000
0000
0000
0000
0000
0000
0000
0000
0000
0000
0000
0000
0000
0000
0000
0000
0000
0000
0000
0000
0000
0000
0000
0000
0000
0000
0000
0000
0000
0000
0000
0000
0000
0000
0000
0000
0000
0000
0000
0000
0000
0000
0000
0000
0000
0000
0000
0000
0000
0000
0000
0000
0000
0000
0000
0000
0000
0000
0000
0000
0000
0000
0000
0000
0000
0000
0000
M000
0000
0000
0000
0000
0000
0000
0000
0000
0000
0000
0000
,
0000
0000
0000
0000
0000
0000
0000
0000
0000
000M
0000
0000
0000
0000
0000
0000
0000
0000
0000
0000
0000
0000
0000
0000
0000
0000
0000
0000
0000
M000
0000
0000
0000
0000
0000
0000
0000
0000
0000
0000
0000
0000
0000
0000
0000
0000
0000
0000
0000
0000
0000
0000
0000
0000
0000
0000
0000
0000
0000
0000
000M
0000
0000
0000
0000
0000
0000
0000
0000
0000
0000
0000
0000
0000
0000
0000
0000
0000
0000
0000
0000
0000
0000
0000
0000
0000
0000
0000
0000
0000
0000
0000
0000
0000
0000
0000
0000
0000
0000
0000
0000
0000
0000
0000
0000
0000
0000
0000
0000
0000
0000
0000
0000
0000
0000
0000
0000
0000
0000
0000
0000
0000
0000
0000
0000
0000
0000
0000
0000
0000
0000
0000
0000
0000
0000
0000
0000
0000
0000
0000
0000
0000
0000
0000
0000
0000
0000
0000
0000
0000
0000
0000
0000
0000
0000
0000
0000
0000
0000
0000
0000
0000
0000
0000
0000
0000
0000
0000
0000
0000
0000
0000
0000
0000
0000
0000
0000
0000
0000
0000
0000
0000
0000
0000
0000
0000
0000
0000
0000
0000
0000
0000
;

//--------------- dance-single - ----------------
#NOTEDATA:;
#STEPSTYPE:dance-single;
#DESCRIPTION:;
#DIFFICULTY:Challenge;
#METER:18;
#RADARVALUES:0.906073,1.116605,0.384881,0.352807,1.315009,791,743,48,44,0,0,0,0,19,0.906073,1.116605,0.384881,0.352807,1.315009,791,743,48,44,0,0,0,0,19;
#CHARTNAME:;
#CHARTSTYLE:;
#CREDIT:;
#NOTES:
0000
0000
0000
0000
,
0100
0100
0100
0100
,
0100
0000
0000
0000
0100
0000
0000
0000
0100
0000
0001
0000
1000
0100
1000
0000
,
0010
0100
0001
0010
0100
0001
1000
0010
0100
1000
0001
0100
0010
0000
1000
0000
,
0100
0010
0001
1000
0010
0100
0001
0100
0010
1000
0100
0010
0001
0010
1000
0000
,
0010
0000
0001
0000
1000
0010
0100
0010
0000
0100
0001
1000
0001
0000
1000
0000
,
0010
0100
0010
0100
1000
0100
0010
0001
0000
0010
0100
0000
0001
0010
1000
0010
,
0001
1000
0100
1000
0100
0001
0100
0000
0100
1000
0001
0000
0100
0000
1000
0000
,
0100
0000
0001
0000
1000
0100
1000
0100
0010
0000
0100
0000
1000
0010
0100
0010
,
0100
0001
0010
0100
1000
0000
0001
0000
0100
1000
0100
0010
1000
0000
0001
0000
,
0001
0010
1000
0010
0100
0010
0001
0100
0000
0010
0100
0010
1000
0010
0001
0000
,
0010
0000
0100
0001
0010
0100
1000
0000
0000
1000
0100
1000
0001
0000
0010
0000
,
0100
0000
1000
0001
0100
0001
0100
0000
1000
0000
0100
0001
0010
1000
0001
0000
,
0000
0100
1000
0010
0100
0000
1000
0000
0100
0001
0010
1000
0001
0000
0100
0000
,
1000
0000
0010
0100
0010
0000
0010
0100
0010
0000
0100
0001
0010
1000
0001
0000
,
0100
1000
0100
1000
0010
1000
0100
1000
0100
1000
0010
1000
0001
0000
0100
0000
,
1000
0000
0100
0001
0100
0001
0010
0001
0100
0000
1000
0100
0001
0000
1000
0000
,
0001
0010
0100
1000
0010
0100
1000
0000
1000
0100
0001
0000
0001
0010
1000
0000
,
0001
0100
1000
0010
1000
0100
0001
0000
0100
1000
0001
0000
0100
0001
1000
0000
,
0020
0000
0000
0000
0032
0000
0000
0000
2003
0000
0000
3200
0000
0000
0302
0000
,
1003
1100
0101
1001
0011
1010
0110
0101
,
0001
0010
0100
1000
0010
0000
0100
0001
0010
0000
0100
0000
1000
0001
0010
0100
,
0010
0001
0100
0000
1000
0000
0100
0000
0001
0010
0100
0000
0100
1000
0001
0000
,
0101
0000
0000
0000
1010
0000
0000
0000
0110
0000
0000
0101
0000
0000
1001
0000
,
1000
0100
0010
0001
0010
0100
1000
0000
0001
0100
0000
0100
1000
0100
0001
0000
,
1000
0100
1000
0100
0001
0000
0100
0000
1000
0001
1000
0001
0010
0100
0001
0000
,
0001
0100
0010
0001
0100
0010
0001
0010
0100
0000
0010
0000
0110
0000
0000
0000
,
0120
0000
0000
0000
2030
0000
0001
0100
,
3002
0010
0100
0010
0203
0010
0320
1000
,
0031
0100
0020
1000
0230
0000
0320
0000
0032
1000
0203
0000
0320
0001
1030
0001
,
0020
0100
2030
0010
3200
0001
0320
0100
2030
0000
3002
1003
0020
0100
0031
0000
,
1100
0010
0100
0001
0010
0100
0010
0000
0101
1000
0100
0010
0100
1000
0001
0000
,
0100
0010
1100
0010
1100
0010
1000
0001
1010
0000
0010
0100
1000
0001
1000
0000
,
1001
0000
1000
0100
0001
0100
1000
0000
1001
0000
0001
0100
1000
0100
0001
0000
,
1000
0000
0011
0100
0011
1000
0001
0010
0101
0000
1010
0000
0001
0010
0100
0000
,
0110
0000
1000
0000
1001
0010
0100
0000
0110
1000
0001
0010
1001
0010
0100
0000
,
0110
0000
0010
0100
1001
0000
0001
0000
0110
0000
1000
0000
1001
0010
0100
0000
,
0110
0000
1000
0000
0110
0001
0010
0100
1001
0100
0010
1000
0110
0001
1000
0000
,
0001
0010
0100
1000
0001
1000
0100
0010
0001
1000
0001
0010
0100
1000
0001
1000
0100
0010
0001
1000
0001
0010
0100
1000
,
0001
0000
0000
0000
0001
0000
0000
0000
0001
1000
0100
0000
1100
0000
0101
0000
,
1002
0000
0100
0000
0013
0100
1000
0000
1100
1000
0010
0100
0001
0010
0100
0000
,
0210
0000
1000
0000
1300
0001
0100
1000
0001
0010
0100
0001
0010
0100
1000
0000
,
2001
3001
0100
0001
0010
0100
1000
0001
0100
0000
0010
0000
0100
0001
1000
0000
,
1020
1000
0031
0010
0200
1000
0302
0100
2003
0100
3010
0100
0001
1000
0200
0300
,
2000
3001
0010
0001
0100
0001
0010
0001
0010
0100
1000
0001
0100
0000
0101
0000
,
1020
0000
1000
0000
1030
0001
0010
0100
1000
0000
0010
0100
0010
0000
1000
0000
,
2001
3001
0010
0000
0100
1000
0001
0100
0210
0310
1000
0001
0102
0103
0010
1000
,
2001
3001
0010
0100
1200
1300
0010
0100
0210
0000
0310
1000
0002
0013
0100
0000
,
0110
0000
0010
0001
1000
0010
0100
1000
0001
0000
0001
0010
0100
0000
0001
0000
,
0010
0100
0010
1000
0010
0100
0010
0001
0100
0010
0100
1000
0100
0010
0100
0001
,
1000
0000
1001
0000
0110
0000
0001
0010
0100
1000
0000
1000
0100
0010
0001
0000
,
1000
0100
0001
0100
0001
1000
0010
0000
0011
0000
1100
0000
0100
1000
0010
1000
,
0100
0000
0100
1000
0001
0100
0000
0100
1000
0100
0010
1000
0001
0000
0010
0000
,
0100
1000
0100
1000
0001
0010
0100
1000
0001
0100
0001
0100
0010
1000
0001
0100
,
0010
1000
0001
0000
0010
0000
0100
1000
0100
0010
0001
0000
0010
0000
0100
1000
,
0100
0010
0001
0000
1000
0000
0001
0100
0101
0000
0011
0000
1010
0000
1100
0000
,
0001
0100
1000
0100
0001
0010
1000
0010
0001
0100
1000
0100
0001
0010
1000
0010
,
0001
0000
0000
0000
0000
0000
0000
0000
0000
0000
0000
0000
0000
0000
0000
0001
,
0000
1000
0000
0000
0000
0010
0000
0000
0000
0100
0000
0000
0001
0000
0000
0010
0000
0000
0100
0000
0000
0000
1000
0000
0000
0000
0001
0000
0000
0000
0000
0000
1000
0000
0000
0000
0000
0000
0000
0000
0000
0000
0000
0000
0000
0001
0000
0000
,
0000
0000
0000
0000
0100
0000
0000
0000
0000
0000
0000
0000
0000
0000
0000
0000
0000
0000
0000
0000
0001
0000
0000
0000
00M0
0000
0000
0000
0000
0000
0000
0000
0000
0000
0000
0000
0100
0000
0000
0000
0000
0000
0000
0000
0000
0000
0000
0000
0000
0000
0000
0000
0010
0000
0000
0000
0000
0000
0000
0000
0000
0000
1000
0000
0000
0000
0000
0000
0000
0000
0000
0000
0M01
0000
0000
0000
0000
0000
0000
0000
0000
0000
0000
0000
0010
0000
0000
0000
0000
0000
0000
0000
0000
0000
0000
0000
0000
0100
0000
0000
0000
0000
0000
0000
0000
0000
0000
0000
0000
0000
1000
0000
0000
0000
0000
0000
0000
0000
0000
0000
000M
0000
0000
0010
0000
0000
0000
0000
0000
0000
0000
0000
0000
0000
0000
0000
0100
0000
0000
0000
0000
0000
0000
0000
0000
0000
0000
0000
0000
0010
0000
0000
0000
0000
0000
0000
M000
0000
0000
0000
0000
0000
0000
0000
0000
0000
0000
0000
0000
0000
0000
0000
0100
0000
0000
0000
0000
0000
0000
0000
0000
0000
0000
0000
0000
0000
0000
0000
0000
0000
0000
0000
,
00M0
0000
0000
0000
0000
0000
0000
0000
0000
0000
0000
0000
0000
0000
0000
0000
0000
0000
0000
0000
0000
0000
0000
0000
0000
0000
0000
0000
0000
0000
0000
0000
0000
0000
0000
0000
0000
0000
0000
0000
0000
0000
0000
0000
0000
0000
0000
0000
0M01
0000
0000
0000
0000
0000
0000
0000
0000
0000
0000
0000
1000
0000
0000
0000
0000
0000
0000
0000
0000
0000
0000
0000
0M01
0000
0000
0000
0000
0000
0000
0000
0000
0000
0000
0000
1000
0000
0000
0000
0000
0000
0000
0000
0000
0000
0000
0000
001M
0000
0000
0000
0000
0000
0000
0000
0000
0000
0000
0000
0000
0000
0000
0100
0000
0000
0000
0000
0000
0000
0000
0000
M000
0000
0000
0000
0000
0000
0010
0000
0000
0000
0000
0000
0000
0000
0000
0000
0000
0000
0000
0000
1000
0000
0000
0000
00M0
0000
0000
0000
0000
0000
0000
0000
0001
0000
0000
0000
0000
0000
0000
0000
0000
0000
0000
0000
0000
0000
0010
0000
0M00
0000
0000
0000
0000
0000
0000
0000
0000
0000
0000
0000
0100
0000
0000
0000
0000
0000
0000
0000
0000
0000
0000
0000
,
100M
0000
0000
0000
0000
0000
0000
0000
0000
0000
0000
0000
0000
0000
0000
0000
0000
0000
0000
0000
0000
0000
0000
0000
M000
0000
0000
0000
0001
0000
0000
0000
0000
0000
0000
0000
0000
0000
0000
0000
0100
0000
0000
0000
0000
0000
0000
0000
0000
0000
0000
0000
0001
0000
0000
0000
0000
0000
0000
0000
0000
0000
0000
0000
0100
0000
0000
0000
0000
0000
0000
0000
M000
0000
0000
0000
0000
0000
0000
0000
0001
0000
0000
0000
0000
0000
0000
0000
0000
0000
0000
0000
0000
0000
1000
0000
0000
0000
0000
0000
0000
0000
0000
0000
0000
0000
0000
0000
0000
0100
0000
0000
0000
0000
0000
0000
0000
0000
0000
0000
00M0
0000
1000
0000
0000
0000
0000
0000
0000
0000
0000
0000
0000
0000
0000
0000
0000
0100
0000
0000
0000
0000
0000
0000
0000
0000
0000
0000
0000
0000
0000
0000
0000
0000
0000
0000
M000
0000
0000
0000
0000
0000
0000
0000
0000
0000
0000
0000
0000
0000
0000
0000
0000
0000
0000
0000
0000
0000
0000
0000
0000
0000
0000
0000
0000
0000
0000
0000
0000
0000
0000
0000
,
0M01
0000
0000
0000
0000
0000
0000
0000
0000
0000
0000
0000
0000
0000
0000
0000
0000
0000
0000
0000
0000
0010
0000
0000
0000
0000
0000
0000
0000
0000
0000
0000
0000
0000
0000
0000
0001
0000
0000
0000
0000
0000
0000
0000
0000
0000
0000
0000
M000
0000
0000
0000
0000
0000
0010
0000
0000
0000
0000
0000
0000
0000
0000
0000
0000
0000
0000
0000
0100
0000
0000
0000
M000
0000
0000
0000
0000
0000
0000
0000
0000
0000
0000
0000
0000
0000
0000
0000
0000
0000
0000
0000
0000
0000
0000
0000
00M0
0000
0000
0000
0000
0000
0000
0000
1000
0000
0000
0000
0000
0000
0000
0000
0000
0000
0000
0000
0000
0000
0000
0000
0M00
0001
0000
0000
0000
0000
0000
0000
0000
0000
0000
0000
0000
0000
0000
0000
0000
0000
0000
0000
1000
0000
0000
0000
000M
0000
0000
0000
0000
0000
0000
0000
0000
0000
0000
0010
0000
0000
0000
0000
0000
0000
0000
0000
0000
0000
0000
0000
010M
0000
0000
0000
0000
0000
0000
0000
0000
0000
0000
0000
0000
0000
0000
0000
0000
0000
0000
0000
0000
0000
0000
0000
,
0000
0000
0010
0000
0000
0000
0000
0000
0000
0000
0000
0000
0000
0000
0000
0000
0000
0000
1000
0000
0000
0000
0000
0000
00M0
0000
0000
0000
0001
0000
0000
0000
0000
0000
0000
0000
0000
0000
0000
0000
1000
0000
0000
0000
0000
0000
0000
0000
0000
0000
0000
0000
0000
0000
0100
0000
0000
0000
0000
0000
0000
0000
0000
0000
0000
0000
0010
0000
0000
0000
0000
0000
0M00
0000
0000
0000
0000
0000
0001
0000
0000
0000
0000
0000
0000
0000
0000
0000
0000
0000
0000
0000
0000
1000
0000
0000
0000
0000
0000
0000
0000
0000
0000
0000
0000
0000
0000
0000
0010
0000
0000
0000
0000
0000
0000
0000
0000
0000
0000
0000
M000
0000
0000
0000
0000
0000
0000
0000
0100
0000
0000
0000
0000
0000
0000
0000
0000
0000
0000
0000
0000
0000
0010
0000
0000
0000
0000
0000
0000
0000
0000
0000
0000
0000
0000
0000
000M
0000
0000
0000
0000
0000
0000
0100
0000
0000
0000
0000
0000
0000
0000
0000
0000
0000
0000
0000
0000
0000
0000
0000
0000
0000
0000
0000
0000
0000
0000
0000
0000
0000
0000
0000
,
0M01
0000
0000
0000
0000
0000
0000
0000
0000
0000
0000
0000
0000
0000
1000
0000
0000
0000
0000
0000
0000
0000
0000
0000
0000
0000
0000
0000
0000
0100
0000
0000
0000
0000
0000
0000
0000
0000
0000
0000
0000
0000
0000
0000
1000
0000
0000
0000
00M0
0000
0000
0000
0000
0000
0000
0000
0000
0000
0001
0000
0000
0000
0000
0000
0000
0000
0000
0000
0000
0000
0000
0000
01M0
0000
0000
0000
0000
0000
0000
0000
0000
0000
0000
0000
0010
0000
0000
0000
0000
0000
0000
0000
0000
0000
0000
0000
1M00
0000
0000
0000
0000
0000
0000
0000
0000
0000
0000
0000
0000
0000
0000
0000
0000
0000
0000
0000
0000
0000
0000
0000
000M
0000
0000
0000
0000
0000
0000
0000
0000
0000
0000
0000
0000
0000
0000
0000
0000
0000
0000
0000
0000
0000
0000
0000
M000
0000
0000
0000
0000
0000
0000
0000
0000
0000
0000
0000
0000
0000
0000
0000
0000
0000
0000
0000
0001
0000
0000
0000
00M0
0000
0000
0000
0000
0000
0000
0000
0100
0000
0000
0000
0000
0000
0000
0000
0000
0000
0000
0000
0000
0000
0000
0000
,
M000
0000
0000
0000
0000
0000
0000
0000
0100
0000
0000
0000
0000
0000
0000
0000
0000
0000
0001
0000
0000
0000
0000
0000
00M0
0000
0000
0000
0000
0000
1000
0000
0000
0000
0000
0000
0000
0000
0000
0000
0000
0000
0100
0000
0000
0000
0000
0000
0000
0000
0000
0000
0000
0000
0000
0000
0000
1000
0000
0000
0000
0000
0000
0000
0000
0000
0000
0000
0000
0000
0000
0000
0M01
0000
0000
0000
0000
0000
0000
0000
0000
0000
0000
0000
0000
0000
0000
0000
0010
0000
0000
0000
0000
0000
0000
0000
0000
0000
0000
0000
0000
0000
0000
0000
0100
0000
0000
0000
0000
0000
0000
0000
0000
0000
0000
0000
0000
0000
0000
0000
000M
0000
0000
0000
0000
0000
0000
0000
0000
0000
0000
0000
0000
0000
0000
0000
0000
0000
0000
0000
0000
0000
0000
0000
0000
0000
0000
0000
0000
0000
0000
0000
0000
0000
0000
0000
00M0
0000
0000
0000
0000
0000
0000
0000
0000
0000
0000
0000
0000
0000
0000
0000
0000
0000
0000
0000
0000
0000
0000
0000
1000
0000
0000
0000
0000
0000
0000
0000
0000
0000
0000
0000
,
0M00
0000
0000
0000
0000
0000
0000
0000
0000
0001
0000
0000
0000
0000
0000
0000
0000
0000
0000
0000
0000
0000
0000
0000
0000
0000
0000
0000
0000
1000
0000
0000
0000
0000
0000
0000
0000
0000
0000
0000
0000
0000
0000
0000
0000
0000
0000
0000
M000
0000
0000
0000
0000
0000
0000
0000
0000
0000
0000
0000
0001
0000
0000
0000
0000
0000
0000
0000
0000
0000
0000
0000
00M0
0000
0000
0000
0000
0000
0000
0000
0000
0000
0000
0000
0000
0000
0000
0000
0000
0000
0000
0000
0000
0000
0000
0000
M000
0000
0000
0000
0000
0000
0000
0000
0000
0000
0000
0000
0000
0000
0000
0000
0000
0000
0000
0000
0000
0000
0000
0000
00M0
0000
0000
0000
0000
0000
0000
0000
0000
0000
0000
0000
0000
0000
0000
0000
0000
0000
0000
0000
0000
0000
0000
0000
0M00
0000
0000
0000
0000
0000
0000
0000
0000
0000
0000
0000
0000
0000
0000
0000
0000
0000
0000
0000
0000
0000
0000
0000
0M00
0000
0000
0000
0000
0000
0000
0000
0000
0000
0000
0000
0000
0000
0000
0000
0000
0000
0000
0000
0000
0000
0000
0000
,
0000
0000
0000
0000
0000
0000
0000
00M0
0000
0M00
0000
0M00
0000
0000
0000
0000
,
0000
00M0
0000
0M00
0000
00M0
0000
0M00
0000
0M00
0000
0000
0000
0000
0000
0000
,
0000
0M00
0000
0000
;
