#TITLE:新人類;
#SUBTITLE:;
#ARTIST:まらしぃ×じん×堀江晶太(kemu) feat.Ado;
#TITLETRANSLIT:Shinjinrui;
#SUBTITLETRANSLIT:;
#ARTISTTRANSLIT:marasy x Jin x kemu feat.Ado;
#GENRE:POP;
#CREDIT:;
#MUSIC:Shinjinrui.ogg;
#BANNER:Shinjinrui.png;
#BACKGROUND:Shinjinrui-bg.png;
#CDTITLE:;
#SAMPLESTART:56.697;
#SAMPLELENGTH:13.333;
#SELECTABLE:YES;
#OFFSET:1.636;
#BPMS:0.000=144.000;
#STOPS:;
#LASTBEATHINT:1.459181;
#BGCHANGES:8.000=Shinjinrui.avi=1.000=0=0=0=StretchNoLoop====,
99999.000=-nosongbg-=1.000=0=0=0=StretchNoLoop====
;
#FGCHANGES:;

//--------------- dance-single - ----------------
#NOTES:
     dance-single:
     :
     Easy:
     10:
     0,0,0,0,0:
0000
0000
0000
0000
,
0000
0000
0000
0000
,
0000
0000
0000
0000
,
0001
1000
0001
1000
0001
1000
0000
1001
,
0000
0001
0010
0000
0010
0001
1000
0020
,
0000
0130
0001
0000
0001
0010
0100
0000
,
0100
1000
0001
0000
0001
1000
0010
0000
,
1000
0001
1000
0001
1000
0001
0000
0011
,
0000
0010
0100
0000
1000
0010
0100
0002
,
0000
0013
0100
0000
1000
0000
0001
1000
,
1100
0101
1001
0110
,
0001
0010
0100
0000
1000
0010
0100
0000
,
0001
0000
0001
0000
1000
0100
1000
0000
,
0001
1000
0010
0000
0100
0001
1000
0000
,
0100
0000
0010
0000
0002
1000
1003
0000
,
0001
0100
1000
0000
1000
0100
0001
0000
,
1000
0000
1000
0000
0001
0010
0100
0000
,
1000
0100
0001
0000
0001
0100
1000
0000
,
1100
0000
0101
0000
0001
1000
0001
0000
,
0100
0010
0100
0010
0100
0010
0000
0110
,
0000
1000
0001
0000
1000
0100
0010
0002
,
0000
1003
0100
0000
0100
1000
0010
0000
,
0100
0000
0100
0000
0001
1000
0001
0000
,
1000
0100
1000
0100
1000
0100
0000
1100
,
0000
1000
0001
0000
0001
0100
0010
2000
,
0000
3010
0100
0000
0100
0001
1000
0000
,
0011
1010
1100
0101
,
1001
0002
0023
0230
,
2300
3002
0203
0320
,
2030
3002
2003
3100
,
1100
0101
1010
0011
,
1001
0002
2003
3020
,
0230
0302
2003
3200
,
0310
0012
0103
2010
,
3100
0010
0100
1001
,
0101
0000
1100
0000
0001
1000
0001
0020
,
0000
0130
1000
0000
1000
0010
0001
2000
,
0000
0000
3100
0000
0001
0000
0000
0000
0010
0000
0000
0010
0000
0000
0100
0000
,
1100
0101
0110
1001
,
1100
0000
0101
0000
1000
0001
1000
0020
,
0000
0130
0001
0000
0001
0010
0100
0000
,
1100
0000
0000
0000
0011
0000
0000
0000
1001
0000
0000
1000
0000
0000
0010
0000
,
0100
0001
0100
0001
1000
0000
1001
0000
,
0001
0100
0001
1000
0001
0100
0001
1000
,
0001
0100
0001
0010
0100
1000
0001
0000
,
2000
0100
0000
0010
0000
0100
0000
0010
,
0000
0100
0000
0010
0000
3001
0002
0000
,
1003
0100
1000
0001
1000
0100
1000
0001
,
1000
0100
1000
0010
0100
0001
1000
0002
,
0000
0100
0000
0010
0000
0100
0000
0010
,
0000
1003
0010
0100
0001
1000
0200
0000
,
0310
0001
0010
0001
0010
0001
0000
1000
,
0000
0010
0100
0000
0100
0001
1000
0200
,
0000
0310
0001
0000
0001
0010
0100
0000
,
1000
0000
1000
0000
0010
0100
0010
0000
,
1000
0010
1000
0010
1000
0010
0000
0200
,
0000
0301
0010
0000
0010
0100
1000
0002
,
0000
0103
1000
0000
1000
0100
0001
0000
,
0011
1100
0011
1001
,
1100
0000
0101
0000
1000
0100
0010
0002
,
0000
1003
0020
0000
0130
0001
0100
2000
,
0000
0000
3100
0000
0020
0000
0000
0000
0100
0000
0000
0130
0000
0000
0001
0000
,
0101
1100
0110
1001
,
0101
0000
1100
0000
0001
0100
0010
2000
,
0000
3010
0200
0000
0301
0010
1000
0020
,
0000
0000
0031
0000
1000
0000
0000
0000
1010
0000
0000
0110
0000
0000
0101
0000
,
0001
1000
0001
1000
0010
0000
0110
0000
,
0001
0100
1000
0100
0001
0100
1000
0100
,
0001
0100
1000
0100
0001
0010
1000
0020
,
0000
0031
1000
0000
0010
0100
0010
0000
,
0100
0000
0100
0000
0001
0010
0100
0000
,
1000
0100
0001
0100
1000
0100
0001
0100
,
1000
0100
0001
0100
1000
0010
0001
0020
,
0000
1030
0001
0000
0011
0000
1100
0000
,
0100
0010
0100
0010
0100
0000
0110
0000
,
1000
0001
1000
0001
1000
0000
0220
0000
,
0000
0000
0330
0000
;

//--------------- dance-single - ----------------
#NOTES:
     dance-single:
     :
     Medium:
     13:
     0,0,0,0,0:
0000
0000
0000
0000
,
0000
0000
0000
0000
,
0000
0000
0000
0000
,
0001
1000
0001
1000
0001
1000
0000
1001
,
0000
0001
0100
0000
0001
0000
1000
0000
0100
0000
0010
0000
1100
0000
0002
0000
,
0000
1003
0010
0100
1000
0100
0001
0001
,
1000
1000
0010
0100
0001
1000
0011
0000
,
1000
0001
1000
0001
1000
0001
0000
0101
,
0000
0010
1000
0000
0001
0000
0010
0000
1000
0000
0010
0000
0001
0000
2000
0000
,
0000
0000
3010
0000
0100
0000
0001
0000
1000
0000
0001
0100
0000
0001
0000
1000
,
0100
0100
0100
0100
0110
0000
1001
0001
,
0100
1000
0100
0001
1000
0001
0010
1000
,
0010
0010
0001
0001
1000
0010
0110
1000
,
0100
0001
0100
1000
0010
0001
1000
0100
,
0001
0000
1000
0100
1000
0000
0001
0000
0010
0000
1100
0000
1100
0000
1000
0000
,
0001
0100
1000
0100
0001
1000
0100
0001
,
0100
0100
1000
1000
0010
0100
0101
0001
,
1000
0010
0001
0010
1000
0001
0010
1000
,
0010
0100
0010
0000
0001
1000
0001
0000
0100
0000
0010
0000
0110
0000
0100
0000
,
0010
0100
0010
0100
0010
0100
0000
0110
,
0000
0001
0010
0000
0100
0000
1000
0000
0100
0000
0010
0000
1001
0000
0020
0000
,
0000
1030
0100
0010
0100
1000
0001
0100
,
0010
0010
1000
1000
0001
0100
0110
1000
,
0001
0100
0001
0100
0001
0100
0000
0101
,
0000
0000
0001
1000
0001
0000
0010
0000
0100
0000
1000
0000
0010
0000
0120
0000
,
0000
0000
0130
0001
0000
1000
0000
0001
0010
0000
0100
1000
0000
1000
0000
0001
,
0100
1100
0101
1100
,
1001
0000
0000
0001
0100
0001
1000
0100
1000
0001
0010
0001
,
0100
0000
0000
0100
0010
0100
0001
0010
0001
1000
0010
1000
,
0100
0000
0000
0100
1000
0100
0010
0100
0010
0001
0100
0001
,
1000
0100
1000
0010
0100
0010
1000
0001
1000
0100
0010
0001
,
1000
0000
0000
0001
0100
0100
1000
0001
0100
0010
0100
0001
,
1000
0000
0000
1000
0100
0100
0001
1000
0010
0100
0010
1000
,
0001
0000
0000
0001
0010
0100
1000
0000
0000
1000
0010
0100
,
0001
0010
0100
1000
0010
0000
1001
0000
,
1000
0000
0001
0000
1000
0100
0000
1000
0100
0000
0010
0000
0001
0000
2000
0000
,
0000
3010
0100
0010
0001
1000
0100
0002
,
0000
0000
1003
0000
0100
0000
0010
0000
0100
0000
1000
0010
0000
0000
0100
0000
,
0101
1100
0110
1001
,
0001
0000
1000
0000
0001
0100
0000
0001
0100
0000
0010
0000
1000
0000
0002
0000
,
0000
0013
0100
1000
0001
0100
1000
0100
,
0010
0000
0100
0001
1000
0000
0100
0000
1100
0000
0000
0110
0000
0000
0101
0000
,
0001
0100
0001
0100
0101
0000
1001
0000
,
1000
0000
0001
0000
1000
0100
0000
1000
0100
0000
0010
0000
0001
0100
0000
0001
,
0100
0000
0010
0000
1000
0100
0000
0010
0001
0000
0100
0000
0110
0000
0000
0000
,
1000
1100
0000
0011
0000
1100
0000
1001
,
0000
0101
0000
1010
0000
0101
0200
0000
,
0301
0000
1000
0000
0001
0010
0000
0001
0010
0000
0100
0000
1000
0010
0000
1000
,
0010
0000
0100
0000
0001
0010
0000
0100
1000
0000
0100
0000
1100
0000
1000
0000
,
0001
0101
0000
1100
0000
0101
0000
1100
,
0000
0100
0010
0100
0010
0100
0020
0000
,
0031
1000
0001
1000
0001
1000
0000
2000
,
0000
0000
3010
0100
0010
0000
1000
0000
0001
0000
0100
0000
0110
0000
0002
0000
,
0000
0000
1003
0100
1000
0000
0001
0000
1000
0000
0001
0100
0001
0000
1000
0000
,
0010
0010
0100
0100
0001
0010
0110
0100
,
1000
0001
1000
0001
1000
0001
0000
2000
,
0000
0000
3001
0100
0001
0000
0010
0000
0100
0000
1000
0000
0010
0000
0200
0000
,
0000
0000
0301
1000
0001
0000
0010
0000
0100
0000
1000
0001
1000
0000
0010
0000
,
1010
0101
0011
1001
,
1000
0000
0001
0000
1000
0100
0000
0010
0100
0000
1000
0000
1000
0000
0002
0000
,
0000
0000
0013
0100
0010
0000
0001
0000
1000
0000
0100
0000
0010
0000
0200
0000
,
0000
0000
1300
0000
0010
0000
0100
0000
0001
0000
0010
0100
0000
0000
1000
0000
,
1100
0101
0110
1001
,
0001
0000
1000
0000
0001
0100
0000
0010
0100
0000
0001
0000
0001
0000
0020
0000
,
0000
0000
0130
1000
0001
0000
0100
0000
0010
0000
0100
0001
0010
0000
0200
0000
,
0000
0000
1300
0000
0100
0000
0010
0000
0011
0000
0000
0110
0000
0000
1100
0000
,
1000
0001
1000
0001
0110
0000
1001
0000
,
0001
0000
0100
0000
0001
1000
0000
0010
1000
0000
0001
0000
1000
0001
0000
0010
,
0001
0000
1000
0000
0001
0010
0000
0100
0010
0000
0001
0000
1000
0000
0020
0000
,
0000
0130
0001
1000
0100
0010
0001
0001
,
1000
1000
0010
0100
0001
1000
0010
0000
,
0010
0000
0100
0000
0010
1000
0000
0001
0010
0000
0100
0000
0010
0001
0000
1000
,
0010
0000
0100
0000
0001
0010
0000
1000
0010
0000
0100
0000
0100
0000
0020
0000
,
0000
0000
0031
0000
1000
0010
0000
0010
0001
0000
1000
0100
0000
0100
0001
0000
,
0010
0010
0010
0010
0110
0000
0110
0000
,
1001
1001
1001
1001
1001
0000
0220
0000
,
0000
0000
0330
0000
;

//--------------- dance-single - ----------------
#NOTES:
     dance-single:
     :
     Hard:
     16:
     0,0,0,0,0:
0000
0000
0000
0000
,
0000
0000
0000
0000
,
0000
0000
0000
0000
,
0100
1001
0100
1001
0100
1001
0000
1001
,
0000
0001
0010
0001
0010
0100
1000
0001
0010
0000
0100
0000
1000
0000
0102
0000
,
0000
0000
1003
0100
0010
0100
1000
0001
0100
0010
0100
0001
1000
0000
1000
0000
,
0001
0000
0001
0000
0100
0000
0010
0100
0010
0000
1000
0000
1001
0000
0100
0000
,
0010
1001
0010
1001
0010
1001
0000
0110
,
0000
1000
0010
1000
0010
0100
0001
1000
0010
0000
0100
0000
0001
0000
0102
0000
,
0000
0000
1003
0010
0100
0001
0010
0000
0110
0000
0100
1000
0000
0001
0000
1000
,
0010
0000
0110
0000
0100
0000
0110
0000
1001
0000
0000
0000
1001
0000
1000
0100
,
0010
0000
0001
0010
0100
0000
1000
0100
0010
0000
0001
0010
0100
0000
1000
0000
,
0001
0000
1000
0100
0010
0100
1000
0001
0010
0000
0100
0000
1001
0000
0001
0100
,
0010
0000
1000
0010
0100
0000
0001
0100
0010
0000
1000
0000
0001
0000
1000
0000
,
1001
0000
0001
0100
0010
1000
0010
0100
0001
0000
1000
0000
1001
0000
0001
0010
,
0100
0000
1000
0010
0100
0000
0001
0010
0100
0000
1000
0010
0100
0000
0001
0000
,
1001
0000
1000
0100
0010
0100
1000
0001
0100
0000
0010
0000
0110
0000
1000
0100
,
0010
0000
0001
0100
0010
0000
1000
0100
0010
0000
0001
0000
1000
0000
0001
0000
,
1000
0010
0100
0001
0010
0100
1000
0001
0100
0000
0010
0000
0110
0000
0100
0000
,
0001
1100
0001
1100
0001
1100
0000
1001
,
0000
0001
1000
0001
0010
0100
1000
0001
1000
0000
0010
0000
0100
0000
0002
0000
,
0000
0000
1003
0010
0100
0000
1000
0100
0010
1000
0001
1000
0010
0100
0001
0010
,
1000
0000
0010
0100
1000
0000
0001
0100
0010
0000
0100
0000
0101
0000
0001
0000
,
1000
0101
1000
0101
1000
0101
0000
1001
,
0000
0000
0001
1000
0100
0000
0010
0001
1000
0000
0010
0000
1010
0000
2000
0000
,
0000
0000
3001
0100
0010
1000
0000
1000
0001
0010
0000
0100
0000
1000
0000
0020
,
0001
1000
0001
1000
,
0130
0000
0000
1000
0100
0100
0001
0100
0100
1000
0100
0100
,
0001
0000
0000
0000
0000
0000
0100
0000
0001
1000
0001
1000
0001
0000
0100
0000
0100
0000
1000
0000
0001
0000
0010
0000
,
0100
0000
0000
0000
0000
0000
0100
0000
1000
0001
1000
0000
0010
0000
0100
0000
0010
0000
0100
0000
0001
0000
1000
0000
,
0001
0100
0100
1000
0010
0010
0001
0100
0100
1000
0010
0010
,
0001
0000
0000
0000
0000
0000
0001
0000
1000
0010
1000
0010
1000
0000
0100
0010
0100
0000
1000
0000
0001
0000
0100
0000
,
0010
0000
0000
0000
0000
0000
1000
0000
0001
0100
0001
0100
0001
0000
0010
0100
0010
0000
0001
0000
1000
0000
0100
0000
,
0010
0000
0000
0001
0010
0100
1100
0000
0000
1000
0010
0100
,
0110
0001
0110
1000
0110
0000
1001
0000
,
0101
0000
1100
0000
0001
0100
0001
0100
0001
0000
1100
0000
0101
0000
2000
0000
,
0000
0000
3001
0010
0100
0000
0100
0010
0001
0000
0001
1000
0010
0000
0200
0000
,
0000
0000
0301
1000
0100
0000
0010
0001
2000
0000
0000
3010
0100
0000
0100
0001
,
0010
1000
0010
0001
1000
0000
1001
0000
,
1100
0000
0101
0000
1000
0100
1000
0100
1000
0000
0101
0000
1100
0000
0002
0000
,
0000
0000
1003
0010
0100
0000
0100
0010
1000
0000
1000
0001
0010
0000
0010
0100
,
0000
0000
0010
0001
1000
0000
0010
0000
0100
0000
0001
1000
0000
0000
0100
0000
,
1100
0100
0101
0100
0110
0000
1001
0000
,
0011
0000
1100
0000
0001
0100
0001
0100
0010
0000
0101
0000
1000
0100
1000
0100
,
0010
0000
1100
0000
0001
0100
0001
0100
0010
0000
0110
0000
1001
0000
0001
0100
,
0010
0000
0010
1000
0001
0010
0100
1000
0100
0010
0100
1000
0001
1000
0100
0010
,
0001
1000
0001
0010
0100
0010
0001
1000
0100
0000
0110
0000
0110
0000
0010
0000
,
0011
0000
1100
0000
1000
0010
1000
0010
0100
0000
1010
0000
0001
0010
0001
0010
,
0100
0000
0011
0000
1000
0010
1000
0010
0100
0000
0110
0000
1001
0000
1000
0000
,
0001
1000
0010
1000
0010
0100
0001
0100
0001
0010
0000
0011
0000
0100
1000
0000
,
0001
0000
0010
0000
0100
0000
1000
0000
0001
0000
0010
0000
0100
0000
0000
1000
0000
0000
0001
0000
0000
1000
0000
0000
0001
0000
0000
0000
0000
0000
0110
0000
0000
0000
0000
0000
1001
0000
0000
0000
0000
0000
0000
0000
0000
0000
0000
0000
,
0001
1000
0001
1000
0001
1000
0000
0010
,
0000
0000
0100
0001
1000
0000
0001
0010
0100
0000
1000
0000
0010
0000
0200
0000
,
0000
0301
1000
0001
0010
0000
0100
1000
0010
0000
0100
0001
1000
0100
1000
0001
,
0100
0010
0100
0000
0010
0000
1000
0100
0010
0000
0001
0000
1000
0000
0001
0000
,
0100
0010
0100
0010
0100
0010
0000
0200
,
0000
0000
0310
1000
0001
0010
0100
0000
1000
0000
0001
0000
0100
0000
0020
0000
,
0000
0130
0001
0010
1000
0000
0010
0000
0100
0010
0001
0100
1000
0000
0100
0000
,
0110
0001
0110
1000
0110
0000
1001
0000
,
0101
0000
1100
0000
0001
0010
0100
0010
0001
0000
1100
0000
0101
0000
0020
0000
,
0000
0000
1030
0100
1000
0000
0001
0100
0001
0000
0010
0100
0010
0000
0002
0000
,
0000
0000
1003
0010
0100
0000
1000
0100
0010
0000
1000
0100
0000
0100
0010
0001
,
1000
0010
0101
0010
1100
0000
0110
0000
,
1100
0000
0101
0000
1000
0010
0100
0010
1000
0000
0101
0000
1100
0000
0020
0000
,
0000
0000
0130
1000
0010
0000
0010
1000
0100
0000
0100
1000
0001
0000
0001
0010
,
0000
0000
0010
0100
1000
0010
0001
0000
0010
0000
0000
0010
0100
0000
0010
0000
,
1010
0010
0011
0010
0110
0000
1001
0000
,
0101
0000
1010
0000
0001
0100
0010
1000
0001
0000
0011
0000
1000
0100
0010
0001
,
1000
0000
1010
0000
0001
0100
0010
1000
0001
0000
0110
0000
1001
0000
0002
0000
,
0000
0000
1003
0100
0010
0100
1000
0010
0100
0010
1000
0001
0010
0000
0010
0000
,
0100
0000
0100
0000
0010
0000
0001
1000
0001
0000
0100
0000
0110
0000
0000
0000
,
1001
0000
0110
0000
1000
0100
0010
0001
1000
0000
0110
0000
0001
0100
0010
1000
,
0001
0000
0110
0000
1000
0100
0010
0001
1000
0000
0110
0000
2001
0000
3020
0000
,
0000
0000
0130
0001
0010
1000
0000
0001
0100
1000
0010
0100
0000
0100
0001
0010
,
0100
1100
0101
0101
0110
0000
1001
0000
,
1001
1001
1001
1001
1001
0000
0220
0000
,
0000
0000
0330
0000
;

//--------------- dance-single - ----------------
#NOTES:
     dance-single:
     :
     Challenge:
     19:
     1.213567,1.445059,1.907669,0.070078,1.269184,1091,846,245,9,0,0,1.213567,1.445059,1.907669,0.070078,1.269184,1091,846,245,9,0,0:
0000
0000
0000
0000
,
0000
0000
0000
0000
,
0000
0000
0000
0000
,
1100
0011
1100
0011
1100
0011
0000
1001
,
0000
0001
0100
0001
0100
0010
1000
0100
0010
0000
0100
0000
1000
0000
1002
0000
,
0000
0000
0103
0001
0010
0100
0001
0100
1000
0010
0100
1000
0100
0000
0101
0000
,
1001
0000
1001
0000
1000
0010
0100
0001
1000
0000
0100
0000
0110
0000
0010
0000
,
0011
1100
0011
1100
0011
1100
0000
2010
,
0000
3001
1000
0010
0001
0010
0100
0001
0010
0000
0100
0000
1100
0000
1002
0000
,
0000
0000
0103
0010
0100
0001
0010
0000
1100
0000
1000
0010
0000
0100
0000
0001
,
0110
0000
0110
0000
0110
0000
0110
0000
0110
0000
0000
0000
1001
0000
0001
0100
,
1000
0000
0001
0010
0100
0000
0001
0010
1000
0000
0001
0100
0010
0000
0001
0000
,
1100
0000
1000
0001
0010
0100
1000
0001
0101
0000
1010
0000
0101
0000
1000
0100
,
0001
0000
1000
0010
0100
0000
1000
0010
0001
0000
0011
0000
1010
0000
1001
0000
,
0110
0000
0001
0010
0100
1000
0001
0100
0010
0000
0110
0000
0110
0000
1000
0010
,
0001
0000
1000
0100
0010
0000
1000
0100
0001
0000
1000
0010
0100
0000
1000
0000
,
1001
0000
0001
0100
1000
0100
0010
1000
1100
0000
0011
0000
1100
0000
0001
0010
,
1000
0000
0001
0100
0010
0000
0001
0100
1000
0000
1100
0000
0101
0000
1001
0000
,
0001
0010
0100
1000
0001
0100
0010
0100
0110
0000
1001
0000
0110
0000
1000
0000
,
0101
1010
0101
1010
0101
1010
0000
1100
,
1000
0100
0010
0001
0010
0100
1000
0001
0100
0000
0010
0000
1001
0000
0020
0000
,
0000
0000
1030
0010
0100
0000
1000
0100
0010
1000
0001
1000
0010
0100
1000
0100
,
0001
0000
0001
0010
0100
0000
0100
1000
0001
0000
0100
0000
0110
0000
1000
0000
,
1010
0101
1010
0101
1010
0101
0000
0110
,
0000
0000
0001
0100
0010
0000
0100
0001
0010
0000
0100
0000
1100
0000
1002
0000
,
0000
0000
0103
0010
0100
0001
0000
0001
0010
0100
0000
0100
0000
1000
0000
1000
,
0001
1000
0100
1000
0100
1000
0010
0100
0001
0100
0001
1000
0100
0010
0001
0010
0001
0010
0100
1000
0001
1000
0001
1000
,
0010
0000
0000
0010
1000
0010
0100
1000
0100
0001
0010
0100
,
1000
0001
1000
0001
1000
0001
0100
0000
0010
1000
0100
0010
0001
0000
0010
0000
0100
0000
1000
0000
0010
0000
0100
0000
,
0001
0010
0001
0010
0001
0010
0100
0000
1000
0001
0100
0000
0010
0000
0100
0000
0001
0000
1000
0000
0100
0000
0010
0000
,
0101
1000
0010
1100
0001
0010
0101
1000
0010
1100
0010
0100
,
1001
0000
0000
0000
0000
0000
0001
0000
1000
0100
1000
0010
0100
0000
0001
1000
0100
0000
0010
0000
0100
0000
1000
0000
,
0010
0100
0010
0100
0010
0100
0001
0000
1000
0001
0010
0100
0010
0000
0001
0100
0010
0000
0100
0001
0010
0001
0010
0100
,
1000
0000
0001
0100
0010
0100
0001
0000
0010
0000
0100
0000
1100
0000
0000
0000
0000
0000
1000
0000
0010
0000
0100
0000
,
0101
0000
0000
0000
0010
0000
0000
0000
1100
0000
0000
0000
0010
0000
0000
0000
1001
0000
0000
0000
0000
0000
0000
0000
0001
1000
0001
1000
0001
1000
0001
1000
,
0001
0000
1100
0000
0101
1100
0101
1100
0101
0000
1100
0000
0101
0000
0210
0000
,
0000
0000
0301
0010
0100
0000
0100
0010
0001
0000
0001
0010
1000
0000
0020
0000
,
0001
0000
1030
0001
0100
0000
0100
0001
0020
0000
0000
0100
0130
0000
1000
0000
,
0110
0000
0001
0000
0110
0000
1000
0000
0110
0000
0010
0100
1001
0000
0000
0000
,
1100
0000
0101
0000
1100
0101
1100
0101
1100
0000
0101
0000
1100
0000
0120
0000
,
0000
0000
1030
0010
0100
0000
0100
0010
1000
0000
1000
0100
0001
0000
0001
0100
,
1000
0000
0010
0100
0001
0000
0010
0000
1100
0000
1000
0010
0000
0010
0100
0000
,
0101
1100
0011
1010
0110
0000
1001
0000
,
0011
0000
1100
0000
0011
1100
0011
1100
0011
0000
1001
0000
1010
0101
1010
0101
,
1010
0000
0000
0000
0000
0000
1001
0000
0000
0000
0000
0000
0011
0000
0000
1100
0000
0000
0011
0000
0000
1100
0000
0000
0011
0000
0000
0000
0000
0000
0110
0000
0000
0000
0000
0000
1001
0000
0000
0000
0000
0000
0001
0000
0010
0000
0100
0000
,
1000
0000
1001
0001
0010
0100
1001
1000
0010
0100
1001
0001
0100
0010
1001
1000
,
0100
0010
1001
0100
0010
0100
1001
0010
0100
0000
0110
0000
0110
0000
1000
0010
,
1100
0000
0011
0000
1100
0011
1100
0011
1100
0000
1001
0000
0101
1010
0101
1010
,
0101
0000
1001
0000
1100
0011
1100
0011
1100
0000
0110
0000
1001
0000
1000
0000
,
0001
1000
0010
0010
0100
0100
0001
0001
0010
0100
0000
1100
0000
1000
0001
0000
,
0001
0000
0000
0000
0010
0000
0000
0000
0100
0000
0000
0000
1000
0000
0000
0000
0100
0000
0000
0000
0010
0000
0000
0000
0001
0000
0000
1000
0000
0000
0001
0000
0000
1000
0000
0000
0001
0000
0000
1000
0000
0000
0001
0000
0000
1000
0000
0000
0001
0000
0000
1000
0000
0000
0001
0000
0000
1000
0000
0000
0001
0000
0000
1000
0000
0000
0001
0000
0000
1000
0000
0000
0002
0000
0000
0000
0000
0000
0000
0000
0000
0000
0000
0000
0103
0000
0000
0000
0000
0000
0000
0000
0000
0000
0000
0000
,
0010
1100
0010
0101
0010
1100
0000
1000
,
0000
0000
0001
0100
0010
0000
1000
0010
0100
0000
0001
0000
0011
0000
2100
0000
,
0000
3010
0100
0001
0010
0000
0100
1000
0010
0000
0001
0010
1000
0100
1000
0001
,
0100
1000
0100
0000
0101
0000
0001
0010
0100
0000
1000
0000
1100
0000
0001
0000
,
0100
1010
0100
0011
0100
1010
0001
0020
,
0000
0000
0130
1000
0001
0100
0010
0000
0110
0000
1000
0000
0110
0000
0001
0000
,
0000
1000
0100
0001
0100
1000
0010
0000
0001
0010
1000
0100
0010
0000
0001
1000
,
0100
0010
0001
0010
0001
0010
0100
1000
0001
1000
0001
1000
0010
0100
0001
0100
0001
0100
1000
0000
0000
0000
0000
0000
,
0101
0000
1100
0000
0101
1100
0101
1100
0101
0000
1100
0000
1001
0000
0020
0000
,
0000
0000
1030
0100
1000
0001
1000
0010
0001
1000
0001
0010
1000
0100
0010
0000
,
0011
0000
0001
0010
2000
0000
3001
0100
1000
0000
1000
0010
0000
0100
0001
1000
,
0110
0001
1000
0001
0110
1000
0001
1000
0110
0001
1000
0001
0110
0000
0000
0000
,
0101
0000
1100
0000
0101
1100
0101
1100
0101
0000
1100
0000
0101
0000
2000
0000
,
0000
0000
3001
0010
0100
0010
0001
0010
1000
0010
0001
1000
0100
0010
0001
1000
,
0110
0000
0010
1000
0100
0010
0001
0000
1000
0000
0010
0100
0010
0001
0010
0100
,
0101
0000
0000
0000
1010
0000
0000
0000
1100
0000
0000
0000
0011
0000
0000
0000
0110
0000
0000
0000
0000
0000
0000
0000
0001
1000
0001
1000
0001
1000
0001
1000
,
0100
0000
1010
0000
0101
1010
0101
1010
0101
0000
1001
0000
1100
0011
1100
0011
,
1100
0000
1001
0000
0101
1010
0101
1010
0101
0000
0110
0000
1001
0000
0002
0000
,
0000
0000
1003
0100
0010
0100
1000
0001
0100
0010
0100
0001
0010
1000
0010
1000
,
0001
0100
0001
0100
1000
0010
0100
0001
1000
0010
0100
0010
0001
1000
0100
0001
,
0010
0000
0101
0000
1010
0101
1010
0101
1010
0000
1001
0000
0011
1100
0011
1100
,
0011
0000
0110
0000
1001
0110
1001
0110
1001
0000
0110
0000
1001
0000
2000
0000
,
0000
0000
3010
0100
0010
0001
0000
0001
0010
1000
0100
0001
0000
0001
0100
1000
,
1100
0110
0101
0110
1001
0000
0110
0000
,
1001
0010
0100
0010
1001
0100
0010
0100
1001
0010
0100
0010
0220
0000
0000
0000
,
0000
0000
0330
0000
;
