#TITLE:シャイニングスター;
#SUBTITLE:;
#ARTIST:魔王魂;
#TITLETRANSLIT:Shining Star;
#SUBTITLETRANSLIT:;
#ARTISTTRANSLIT:Maoudamashii;
#GENRE:POP;
#CREDIT:;
#MUSIC:Shining Star.ogg;
#BANNER:Shining Star.png;
#BACKGROUND:Shining Star-bg.png;
#CDTITLE:;
#SAMPLESTART:57.182;
#SAMPLELENGTH:12.722;
#SELECTABLE:YES;
#OFFSET:-0.030;
#BPMS:0.000=158.000
,294.000=123.000
;
#STOPS:;
#BGCHANGES:3.750=Shining Star.avi=1.000=0=0=0=StretchNoLoop====,
99999.000=-nosongbg-=1.000=0=0=0=StretchNoLoop====
;
#FGCHANGES:;

//--------------- dance-single - ----------------
#NOTES:
     dance-single:
     :
     Hard:
     12:
     0.569642,0.697354,0.665936,0.406058,0.012182,491,409,82,50,0,0,0.569642,0.697354,0.665936,0.406058,0.012182,491,409,82,50,0,0:
0000
0000
0000
0000
,
0000
0000
0000
0000
,
0000
0000
0000
0000
,
0000
0000
0000
0000
,
0000
0000
0000
0000
,
0101
0101
1100
1100
,
0001
0100
1000
0200
0000
0301
0010
0100
,
1100
1100
0101
0101
,
0100
0002
0000
1003
0000
1000
0100
1000
,
0011
0011
1010
1010
,
1000
0010
0001
0020
0000
1030
0100
0010
,
0001
0100
1000
0100
0001
1000
0100
0110
,
0000
1001
0000
2100
0000
0000
0000
0100
,
3010
0000
0002
0100
0013
0000
1000
0200
,
0010
0310
0001
1000
0000
0000
1001
0100
,
0001
0010
0100
2000
0000
3002
0000
0203
,
0000
0310
2000
0000
0001
0000
3020
0100
,
0130
0000
0200
0001
0301
0000
0001
0020
,
0100
0130
1000
0002
0000
0100
0000
1003
,
0020
0000
0130
0002
0000
0013
0000
0110
,
0000
1100
0000
1000
0001
0000
1002
0010
,
0013
0100
2000
0010
3010
0100
0001
1000
,
0100
0010
0001
2000
0000
3020
1000
0130
,
0101
0000
0001
0011
0000
1100
0000
1001
,
0000
0010
0210
0000
1000
0000
0302
1000
,
1003
0010
0200
0001
0301
0010
0100
1000
,
0001
0100
1000
0200
0000
0000
0001
0310
,
1100
0000
1000
1010
0000
0110
0000
0101
,
0000
0012
0000
1000
2003
0000
0010
0000
,
3001
0000
0001
0000
0010
0000
0010
0100
,
1000
0001
0000
0001
1000
0010
0100
0001
,
1000
0000
1000
0000
0100
0000
0100
0010
,
0000
0010
0001
0000
1001
0000
0110
0001
,
0100
0000
0000
1010
0000
0000
1000
0000
0100
0000
0000
0011
0000
0000
0010
0000
,
0100
0000
0000
1100
0000
0000
0100
0000
0101
0000
0000
0000
1001
0000
0000
0000
,
0110
1000
0001
0010
0110
0100
1000
0001
,
0100
0001
1000
0000
0010
0100
0000
0001
,
1000
0000
0100
0010
0000
1000
0001
0010
,
0110
0000
1000
0002
0000
1000
0000
0203
,
0000
0010
0320
0000
1030
0001
0001
0010
,
1100
0000
1000
0011
0000
0101
0000
1010
,
0000
1001
0001
0020
0100
0130
1000
0001
,
2000
0000
3010
0200
0000
0001
0000
0302
,
0000
1000
1003
0000
1001
0000
1000
0001
,
0011
1100
0000
0101
0000
1001
0000
1001
,
0000
0001
0010
0100
0010
0100
1000
0010
,
0110
0000
0001
2000
0000
0001
0000
3200
,
0000
0010
0320
0000
0031
1000
1000
0010
,
0101
0000
0001
1010
0000
1100
0000
0011
,
0000
1001
1000
0020
0100
0130
0001
1000
,
0002
0000
0013
0200
0000
1000
0000
2300
,
0000
0001
3001
0000
1001
0000
0001
1000
,
1010
0101
0000
0011
0000
1010
0000
1100
,
0000
1000
0001
0000
0001
0100
1000
0001
,
0020
2030
3002
0023
,
0230
0000
1300
0001
1000
0010
0100
0010
,
1000
0000
1000
0100
0000
0100
0010
0000
,
0010
0001
0100
1000
0100
0001
1000
0000
,
1000
0001
0100
0001
0100
0010
1000
0010
,
2000
0100
0001
0100
,
3001
0100
0001
1000
0100
1000
0001
0002
,
0000
1000
1000
1000
0000
0103
0110
0000
,
0100
0010
0100
0010
1000
0001
1000
0002
,
0010
1000
0010
1000
,
1003
0010
0100
0010
1000
0001
1000
0100
,
1001
0000
0001
0100
0020
0000
1030
0000
,
0011
1000
0100
1000
0011
1000
0001
0100
,
1010
0001
0100
0001
1010
0001
1000
0010
,
0101
1000
0001
0010
1100
0001
1000
0010
,
0101
0000
0011
0000
1010
0000
1100
0001
,
1010
0001
0100
0001
1010
0001
0010
0001
,
1100
0001
0010
0001
1100
0001
0010
0100
,
1000
1100
0000
1001
0000
0101
0000
0110
,
0000
0010
1000
0001
1000
0100
0010
0001
,
2000
0000
0000
0000
,
0000
0000
0000
0000
,
0000
0000
0000
0000
,
0000
0000
0000
0000
,
0000
3000
0000
0000
0000
0000
0000
0000
0000
0000
0000
0000
0000
0000
0000
0000
;

//--------------- dance-single - ----------------
#NOTES:
     dance-single:
     :
     Challenge:
     15:
     0.76803,0.887542,0.877086,0.332968,0.328907,662,554,108,41,0,0,0.76803,0.887542,0.877086,0.332968,0.328907,662,554,108,41,0,0:
0000
0000
0000
0000
,
0000
0000
0000
0000
,
0000
0000
0000
0000
,
0000
0000
0000
0000
,
0000
0000
0000
0000
,
0101
1000
0101
1000
0011
1000
0011
0100
,
1001
0010
0100
0020
0000
0130
0001
0010
,
1100
0001
1100
0001
1010
0001
1010
0100
,
1001
0000
0200
0000
0000
0000
0301
0000
0000
0000
1000
0001
1000
0000
0100
0010
,
0100
1000
0001
0100
0110
0010
0100
0001
,
1001
1000
0100
0110
0000
0010
0001
0100
,
0110
0000
0100
0001
1000
0000
0100
0010
0001
0000
1000
0001
0100
0000
0110
0000
,
0000
0000
1001
0000
0000
0000
0001
0010
0001
0000
1000
0000
0001
0000
0100
0000
,
0102
0000
0100
0013
0210
0000
0010
1300
,
2001
0010
3010
0200
0000
0001
0301
1000
,
1001
0000
1000
0001
0100
0000
0020
0000
0000
0000
0130
0000
0001
0000
2000
0000
,
0000
0000
3100
0010
0001
0000
0001
0000
1000
0000
0001
0100
0010
0000
0010
0000
,
2010
0000
0010
3100
0120
0000
0100
0031
,
1002
0100
0103
0020
0000
0100
0130
0001
,
2000
0000
3001
0020
0000
0130
1000
1010
,
0000
0000
0110
0000
0000
0000
0101
0000
1001
0000
1000
0010
1000
0000
0100
1000
,
0002
0100
0100
1003
2010
0100
0100
3001
,
0021
0032
1003
2010
0000
3010
0100
0001
,
1010
0000
0010
0110
0000
1010
0000
0101
,
0000
0000
0001
0000
0011
0000
0100
0000
1000
0000
0001
1000
0010
0000
0010
0000
,
2010
0100
0001
3100
0012
0100
1000
0103
,
2010
3002
1003
0201
0000
0001
0301
0010
,
1100
0000
1000
1010
0000
0110
0010
0101
,
0000
0000
0110
0000
0000
0000
0100
0001
1000
0000
0001
0000
0010
0000
0100
0000
,
1000
0000
0000
0000
1000
0000
0100
0000
0010
0000
0000
0000
0010
0000
0001
1000
,
0010
0100
0000
0010
0100
0001
1000
0001
,
0010
0000
0000
0000
0010
0000
0001
0000
0100
0000
0000
0000
0100
0000
0010
1000
,
0001
0010
0100
0000
1001
0000
0110
0000
,
0001
1000
1010
0010
0100
0001
1001
0010
,
1100
0000
1000
0000
1001
0000
1000
0000
1010
0000
0100
0001
0010
0000
0100
0000
,
0110
0000
1000
0000
1001
0000
0100
0000
0110
0000
0010
0000
0100
0001
0010
0000
,
0100
1100
1100
0000
0101
0101
0000
1010
,
1010
0000
0000
0000
0000
0000
0110
0000
0000
1001
0000
0000
0000
0000
0000
1000
0100
0010
0001
0000
0000
0010
0000
0000
,
0100
0000
0010
0001
1000
0000
0010
0000
0100
0000
1000
0100
0001
0000
0010
0000
,
0100
0000
0001
0100
0001
0000
0100
1000
0010
0000
0001
0010
0001
0000
0010
0000
,
0110
0000
1010
0101
0000
0011
0000
1100
,
0000
0000
1001
0000
0100
0000
0020
0000
0100
0000
0130
0001
0010
0000
0100
1000
,
0010
0100
0101
0002
0000
1003
1010
0020
,
0000
0000
0130
0001
1000
0000
0000
0000
1001
0000
0000
0000
1000
0000
0001
0000
,
0011
1100
0000
1010
0000
0110
0000
0101
,
0000
0000
0001
0100
0010
0000
1000
0100
1000
0000
0001
0010
0001
0000
1000
0001
,
1000
0000
0010
0000
1010
0000
1000
0000
0100
0000
0001
0100
1000
0000
0010
0000
,
0100
0000
1000
0100
1000
0000
0100
0001
0010
0000
1000
0010
1000
0000
0010
0000
,
0110
0100
1100
1010
0000
0100
0001
0011
,
0000
0000
0110
0000
0100
0000
1000
0000
1001
0000
0001
0100
0010
0000
0010
1000
,
0001
0010
0110
1000
0001
0100
1001
0001
,
0010
0000
0100
1000
0001
0000
0100
0010
0100
0000
0010
1000
0001
0000
0010
0000
,
0110
1100
0000
0011
0000
0101
0000
1010
,
0000
0000
0010
1000
0001
0000
0010
0100
2000
0000
0010
0000
3010
0000
0100
0000
,
0002
0023
2030
3002
,
0103
0000
1000
0000
0001
0000
0100
0000
1000
0000
0100
0000
0001
0010
0100
1000
,
0002
0000
0000
0000
0103
0000
0010
0000
0100
0001
1000
0000
0100
0000
0010
0000
,
0011
0000
0001
0000
1100
0000
1000
0010
0100
0010
0100
0010
0100
0000
0000
0000
,
1002
0100
0100
0100
1000
1000
0013
0020
,
0001
0000
0100
0000
1000
0130
0110
0100
,
2001
0010
0010
0010
0001
0001
0100
3200
,
0000
0010
0001
0010
0000
0310
0110
0000
,
2100
0001
0001
0001
0100
0100
0010
3020
,
0100
0000
1000
0000
0100
1030
1010
0010
,
1002
0100
0100
0100
1000
1000
0010
0013
,
1001
0000
1000
0100
1000
0100
0010
0001
0100
0010
0100
0010
0100
0001
0010
0100
,
1000
0000
0001
0100
0001
0000
1000
0010
1000
0000
0001
0100
0000
0010
1000
0000
,
0001
0000
1000
0100
1000
0000
0001
0010
0001
0000
1000
0100
0000
0010
0001
0000
,
1001
0000
0100
0001
0000
0001
0010
0000
0100
0000
0100
1000
0000
1000
0010
0000
,
0100
0000
0010
1000
0001
0000
0010
0000
0100
1000
0100
0010
0100
1000
0001
0010
,
0100
0000
0001
0100
0001
0000
0100
0010
0100
0000
0001
0100
0000
0100
1000
0000
,
0001
0000
1000
0010
1000
0000
0010
0001
0010
0000
1010
0000
1001
0000
0001
0000
,
1100
0110
0000
0011
0000
0101
0000
1010
,
0000
0000
0000
0000
0000
0000
0010
0000
0000
0100
0000
0000
0001
0000
0000
0000
0000
0000
1000
0000
0100
0000
0010
0000
0001
0000
0000
0000
0000
0000
0100
0000
0000
0000
0000
0000
1000
0000
0000
0000
0000
0000
0100
0000
0000
0000
0000
0000
,
0020
0000
0000
0000
,
0000
0000
0000
0000
,
0000
0000
0000
0000
,
0000
0000
0000
0000
,
0000
0030
0000
0000
0000
0000
0000
0000
0000
0000
0000
0000
0000
0000
0000
0000
;
