#TITLE:視紅;
#SUBTITLE:;
#ARTIST:早見沙織;
#TITLETRANSLIT:Shikou;
#SUBTITLETRANSLIT:;
#ARTISTTRANSLIT:Hayami Saori;
#GENRE:Anime;
#CREDIT:;
#MUSIC:Shikou.ogg;
#BANNER:Shikou.png;
#BACKGROUND:Shikou-bg.png;
#CDTITLE:;
#SAMPLESTART:40.163;
#SAMPLELENGTH:12.671;
#SELECTABLE:YES;
#OFFSET:2.328;
#BPMS:0.000=161.000;
#STOPS:;
#LASTBEATHINT:1.069067;
#BGCHANGES:6.500=Shikou.avi=1.000=0=0=0=StretchNoLoop====,
99999.000=-nosongbg-=1.000=0=0=0=StretchNoLoop====
;
#FGCHANGES:;

//--------------- dance-single - ----------------
#NOTES:
     dance-single:
     :
     Medium:
     12:
     0,0,0,0,0:
0000
0000
0000
0000
,
0000
0000
0000
0000
,
0000
0000
0000
0000
,
0000
0000
0000
0000
,
0000
0000
0000
0000
,
0001
0000
0000
1000
0010
0100
0001
0010
,
0100
0000
0000
1000
0000
0000
1000
0000
0001
0000
0100
0000
0010
0000
0100
0000
,
0001
0010
1000
0010
0001
0100
1000
0100
,
0001
0000
0000
0000
0000
0000
0000
0000
0000
0000
0000
0000
0000
0000
0000
0000
0000
0000
0000
0000
0000
0000
0000
0000
0000
0000
0000
0000
0000
0000
0000
0000
0000
0000
0000
0000
0000
0000
0000
0000
0000
0000
0000
0000
0000
0000
0000
0000
1000
0000
0000
0000
0000
0000
0000
0000
0000
0000
0000
0000
0000
0000
0000
0000
0000
0000
0000
0000
0000
0000
0000
0000
0000
0000
0000
0000
0000
0000
0000
0000
0000
0000
0000
0000
0000
0000
0000
0000
0000
0000
0000
0000
0000
0000
0000
0000
0011
0000
0000
0000
0000
0000
0000
0000
0000
0000
0000
0000
0000
0000
0000
0000
0000
0000
0000
0000
0000
0000
0000
0000
0000
0000
0000
0000
0000
0000
0000
0000
0000
0000
0000
0000
1001
0000
0000
0000
0000
0000
0000
0000
0000
0000
0000
0000
0000
0000
0000
0000
0000
0000
0000
0000
0000
0000
0000
0000
0000
0000
0000
0000
0000
0000
0000
1100
0000
0000
0000
0000
0000
0000
0000
0000
0000
0000
0000
0000
0000
0000
0000
0000
0000
0000
0000
0000
0000
0000
0000
0000
0000
0000
0000
0000
,
0100
1100
0001
0101
,
1000
1010
0001
0101
,
0100
0000
0001
0000
0010
0000
0000
0000
0100
0000
0000
0100
0000
0000
1000
0000
,
0010
0100
0000
1000
0100
0001
0000
1000
,
0100
0010
0001
0000
0001
0010
0100
0000
,
0100
1000
0001
1000
0001
0100
1000
0000
,
0100
0000
0100
0001
1000
0000
1000
0100
,
0020
0032
2003
3020
,
0130
0001
2000
0000
0010
3020
0000
0130
,
0002
0000
0000
0000
0023
0000
0000
0130
,
2000
0000
0000
0000
0000
0000
0000
3001
,
0200
0000
0320
0000
,
1030
0000
0001
0000
0100
0000
0000
0000
0010
0000
1000
0001
0000
1000
0001
0000
,
0020
0000
0100
0000
0032
0000
1003
0010
,
0200
0000
0000
0301
0020
0000
0000
0130
,
2000
0000
0001
0000
3001
0010
0001
0010
,
0200
0000
0000
1300
,
0010
0000
0100
0000
0001
0000
1000
0001
,
0010
0100
0000
0000
0000
0000
0000
0000
,
0011
0000
0000
1100
0000
0000
0011
0000
0001
0000
1000
0000
0010
0000
1000
0000
,
0001
0000
0000
0010
0000
0000
0010
0000
0100
0000
1000
0000
0001
0000
1000
0000
,
0001
0000
0000
0100
0000
0000
0100
0000
0001
0000
0100
0000
1000
0000
0100
0000
,
0010
1000
0100
0010
1000
0010
0001
0100
,
1000
0000
0000
0100
0000
0000
0001
0000
0000
0100
0000
0000
0010
0000
1000
0000
,
0001
0010
0100
1000
0001
0010
0100
0000
,
1000
0010
0100
0001
1000
0010
0100
0000
,
0110
0001
1000
0000
1001
0010
0100
0000
,
1000
0000
0001
0010
0000
0100
1000
0000
0001
0000
1000
0010
0000
0100
0001
0000
,
1000
0100
1000
0001
0100
0001
1000
1000
,
0001
0100
0001
1000
0100
1000
0001
0001
,
1000
0010
1000
0001
0010
0001
0100
0100
,
0101
0000
0000
1010
0000
0000
1100
0000
0000
0011
0000
0000
1100
0000
0000
0000
,
1000
0100
0001
1000
0010
0001
1000
1000
,
0001
0100
1000
0001
0010
1000
0001
0001
,
1000
0100
0001
1000
0010
0001
1000
1000
,
0001
0000
1000
0010
0000
0100
0001
0000
0010
0000
0100
1000
0000
0001
0100
0000
,
1000
0100
0010
1000
0100
0010
1000
1000
,
0001
0100
0010
0001
0100
0010
0001
0001
,
0010
0000
0000
1010
0000
0000
1000
0000
0001
0000
0010
0000
0100
0000
1000
0000
,
0002
0000
0000
0000
2000
0000
0000
3000
,
1003
0010
0100
0010
1000
0100
0001
0100
,
1000
0001
0100
0010
0100
1000
0100
0001
,
1000
0100
0010
0001
1000
0001
0100
0010
,
1000
0000
0000
1000
0000
0000
1000
0000
0001
0000
0000
0001
0000
0000
0001
0000
,
0010
0100
1000
0001
1000
0010
0001
0010
,
0100
1000
0001
1000
0100
0001
0010
0100
,
1000
0100
0001
1000
0001
0100
1000
0010
,
1000
0001
0010
0100
1000
0010
0100
0001
,
0020
0000
0000
0000
,
0000
0000
0000
0000
,
0000
0000
0000
0000
,
0000
0000
0000
0000
,
0030
0000
0000
0000
;

//--------------- dance-single - ----------------
#NOTES:
     dance-single:
     :
     Hard:
     15:
     0,0,0,0,0:
0000
0000
0000
0000
,
0000
0000
0000
0000
,
0000
0000
0000
0000
,
0000
0000
0000
0000
,
0000
0000
0000
0000
,
1001
0000
0000
0000
0000
0000
1000
0000
0001
0010
0100
0000
0010
0100
1000
0000
,
1100
0000
0000
0011
0000
0000
0001
0000
1000
0010
0100
0000
0010
0100
0001
0000
,
1000
0000
0001
0100
0000
0001
1000
0000
0100
0010
0000
0001
0010
0001
0010
0100
,
1000
0000
0000
0000
0000
0000
0000
0000
0000
0000
0000
0000
0000
0000
0000
0000
0100
0000
0000
0000
0000
0000
0000
0000
0000
0000
0000
0000
0000
0000
0000
0000
1000
0000
0000
0000
0000
0000
0000
0000
0000
0000
0000
0000
0000
0000
0000
0000
0001
0000
0000
0000
0000
0000
0000
0000
0000
0000
0000
0000
0000
0000
0000
0000
0100
0000
0000
0000
0000
0000
0000
0000
0000
0000
0000
0000
0000
0000
0000
0000
0001
0000
0000
0000
0000
0000
0000
0000
0000
0000
0000
0000
0000
0000
0000
0000
0101
0000
0000
0000
0000
0000
0000
0000
0000
0000
0000
0000
0000
0000
0000
0000
0000
0000
0000
0000
0000
0000
0000
0000
0000
0000
0000
0000
0000
0000
0000
0000
0000
0000
0000
0000
1010
0000
0000
0000
0000
0000
0000
0000
0000
0000
0000
0000
0000
0000
0000
0000
0000
0000
0000
0000
0000
0000
0000
0000
0000
0000
0000
0000
0000
0000
0000
1100
0000
0000
0000
0000
0000
0000
0000
0000
0000
0000
0000
0000
0000
0000
0000
0000
0000
0000
0000
0000
0000
0000
0000
0000
0000
0000
0000
0000
,
1001
0000
0000
0001
0000
0000
1000
0000
1100
0000
0000
0010
0000
0000
0001
0000
,
0101
0000
0000
0010
0000
0000
1000
0000
1001
0000
0000
0100
0000
0000
0000
0000
,
0101
0000
0000
0001
0000
0000
1000
0000
1100
0000
0000
1000
0000
0000
0001
0000
,
0011
0000
0000
0001
0000
0000
0010
0000
0110
0000
0100
0000
1000
0000
0001
0000
,
1000
0000
0010
0100
0010
0000
1000
0000
0001
0000
1000
0100
1000
0100
1000
0000
,
0110
0000
0000
0000
0110
0000
0000
0000
0110
0000
0000
0000
0001
0000
0000
0010
0000
0000
0100
0000
1000
0000
0001
0000
,
1000
0000
0000
0000
0010
0000
0000
0000
0100
0000
0000
0000
0001
0000
0000
1000
0000
0000
0100
0000
0000
0010
0000
0000
,
0002
0000
0000
0000
0023
0000
0000
0000
0130
1000
0010
0000
0100
0001
0010
0100
,
2000
0000
0000
0000
,
3020
0000
0000
0000
,
0230
0000
0000
0000
,
0302
0000
1003
0000
,
1100
0000
0000
0000
0101
0000
0000
0000
1100
0000
0000
0101
0000
0000
1100
0000
,
1000
0010
0100
0001
0010
0100
1000
0001
,
0101
0000
0000
1000
0000
0000
0100
0000
1100
0000
0000
0001
0000
0000
0100
0000
,
0001
0000
1000
0100
1000
0000
0001
0010
0001
0000
1000
0100
0010
0001
1000
0100
,
0020
0000
0000
0000
,
0230
0000
0000
0000
0000
2300
0000
0001
,
0002
0000
0000
3003
,
0101
0000
0000
1010
0000
0000
0101
0000
0001
0000
0010
0000
0100
0000
1000
0000
,
0001
0000
1000
0010
0000
0100
0010
0000
1000
0010
0000
0100
0001
0000
1000
0000
,
1001
0000
0001
0010
0000
0100
0010
0000
0001
0000
1000
0010
0100
0000
0001
0000
,
0101
0000
0100
0001
0000
1000
0100
0010
0100
0000
1000
0001
0000
0100
0010
0100
,
0001
0000
1000
0001
0000
0010
0100
0000
1000
0001
0000
0100
0010
0100
0001
1000
,
0001
0000
0100
0010
0000
0010
1000
0000
0100
0000
0001
0000
0100
0000
1000
0000
,
0001
0000
0100
0010
0000
0010
0100
0000
0001
0010
0000
0010
0100
0000
1000
0000
,
0010
0000
0100
0001
1000
0000
0100
0000
0010
0001
1000
0000
0001
0000
0100
0000
,
0010
0000
1000
0100
0000
0100
0001
0000
1000
0010
0000
0010
0001
1000
0100
0010
,
0001
1000
1100
0001
0100
0110
0001
0101
,
1000
0000
0010
0000
0100
0001
0010
0100
1000
0000
0110
0000
0001
0000
0110
0000
,
1000
0000
0001
0000
0011
0000
1000
0000
0010
0000
1010
0000
1000
0001
0010
0100
,
1000
0000
0000
0011
0000
0000
1100
0000
0000
0011
0000
0000
1100
0000
1000
0000
,
0001
0000
0100
0000
0101
0000
0001
1000
0100
0010
0100
0000
1000
0000
1001
0000
,
0001
0000
0100
0000
0010
0100
0001
0010
0100
0000
1100
0000
0010
0000
0101
0000
,
1000
0001
0011
1000
0010
1010
0001
0100
,
1000
0000
0100
0001
0000
0010
0100
0000
0001
0100
0010
0000
0100
1000
0001
0100
,
0010
0100
0110
0001
1000
1001
0001
0110
,
1000
0001
1001
0100
0010
0110
1000
0100
,
0011
0000
0000
0110
0000
0000
1100
0000
1000
0000
0010
0100
0000
0010
0100
0001
,
2000
0000
0002
3000
,
1003
0000
0010
0100
0010
0000
1000
0000
0001
0010
0001
0000
1000
0100
1000
0000
,
0001
0000
0100
0010
0100
0000
0001
0000
1000
0010
1000
0000
0001
0100
0001
0000
,
0010
0000
0100
1000
0001
0000
0100
0000
1000
0000
0100
0001
1000
0000
0100
0000
,
0001
0000
0100
0010
0000
0100
0010
0000
0001
1000
0000
0001
1000
0000
0100
0000
,
0110
0000
0010
0001
1000
0000
0001
0000
0100
0010
0100
0000
0010
1000
0001
0000
,
1001
0000
1000
0100
0010
0000
0100
0000
0010
0001
1000
0000
1001
0000
0001
0000
,
0100
0010
0100
0000
1000
0100
0001
0000
0010
0100
0010
0000
1000
0010
0001
0000
,
1001
0000
0000
0011
0000
0000
1100
0000
0101
0000
0000
1010
0000
0000
0101
0000
,
0220
0000
0000
0000
,
0000
0000
0000
0000
,
0000
0000
0000
0000
,
0000
0000
0000
0000
,
0330
0000
0000
0000
;

//--------------- dance-single - ----------------
#NOTES:
     dance-single:
     :
     Challenge:
     17:
     0.349951,0.387211,0.284078,0.061756,0.428176,595,526,69,15,0,0,0.349951,0.387211,0.284078,0.061756,0.428176,595,526,69,15,0,0:
0000
0000
0000
0000
,
0000
0000
0000
0000
,
0000
0000
0000
0000
,
0000
0000
0000
0000
,
0000
0000
0000
0000
,
0101
0000
0000
0000
0000
0000
0000
0000
0000
0000
0000
0000
0000
0000
0000
0000
0000
0000
1000
0000
0100
0000
0010
0000
0001
0000
0000
0010
0000
0000
0100
0000
0000
1000
0000
0000
0001
0000
0000
0010
0000
0000
0100
0000
0000
1000
0000
0000
,
1100
0000
0000
0000
0000
0000
0000
0000
0000
0011
0000
0000
0000
0000
0000
0000
0000
0000
0001
0000
0100
0000
0010
0000
1000
0000
0000
0001
0000
0000
0100
0000
0000
0010
0000
0000
0100
0000
0000
0001
0000
0000
0010
0000
0000
0100
0000
0000
,
1000
0000
0001
0000
0010
0000
0100
0000
0000
1000
0000
0000
0001
0000
0000
1000
0000
0000
0010
0000
0000
0100
0000
0000
0001
0000
0000
1000
0000
0000
0001
0000
0000
0010
0000
0000
0100
0000
0000
1000
0000
0000
0001
0000
0000
0000
0000
0000
,
0001
0000
0000
0000
0000
0000
0000
0000
0000
0000
0000
0000
0000
0000
0000
0000
0100
0000
0000
0000
0000
0000
0000
0000
0000
0000
0000
0000
0000
0000
0000
0000
0010
0000
0000
0000
0000
0000
0000
0000
0000
0000
0000
0000
0000
0000
0000
0000
1000
0000
0000
0000
0000
0000
0000
0000
0000
0000
0000
0000
0001
0000
0000
0000
0000
0000
0000
0000
0010
0000
0000
0000
0000
0000
0000
0000
0100
0000
0000
0000
0000
0000
0000
0000
1000
0000
0000
0000
0000
0000
0000
0000
0000
0000
0000
0000
1100
0000
0000
0000
0000
0000
0000
0000
0000
0000
0000
0000
0000
0000
0000
0000
0000
0000
0000
0000
0000
0000
0000
0000
0000
0000
0000
0000
0000
0000
0000
0000
0000
0000
0000
0000
1001
0000
0000
0000
0000
0000
0000
0000
0000
0000
0000
0000
0000
0000
0000
0000
0000
0000
0000
0000
0000
0000
0000
0000
0000
0000
0000
0000
0000
0000
0000
0101
0000
0000
0000
0000
0000
0000
0000
0000
0000
0000
0000
0000
0000
0000
0000
0000
0000
0000
0000
0000
0000
0000
0000
0000
0000
0000
0000
0000
,
1020
0000
0000
0000
0000
0000
0000
0000
0000
0100
0000
0000
0000
0000
0000
0000
0000
0000
1030
0000
0100
0000
0010
0000
0001
0000
0000
0000
0000
0000
0000
0000
0000
0201
0000
0000
0000
0000
0000
0000
0000
0000
0301
0000
0010
0000
0100
0000
,
1000
0000
0000
0000
0000
0000
0000
0000
0000
1002
0000
0000
0000
0000
0000
0000
0000
0000
0103
0000
0010
0000
1000
0000
0001
0000
0000
0000
0000
0000
0000
0000
0000
0011
0000
0000
0000
0000
0000
0000
0000
0000
1000
0000
0000
0000
0000
0000
,
1100
0000
0000
0000
0000
0000
0000
0000
0000
0101
0000
0000
0000
0000
0000
0000
0000
0000
0001
0000
0000
0000
0000
0000
0101
0000
0000
0000
0000
0000
0000
0000
0000
1010
0000
0000
0000
0000
0000
0000
0000
0000
1000
0000
0010
0000
0100
0000
,
0001
0000
0000
0011
0000
0000
0100
0000
1001
0000
0001
0010
0100
0000
0010
0000
,
0110
0000
0000
0000
0000
0000
0100
0000
1000
0000
0001
0000
0100
0000
0000
0000
0000
0000
0010
0000
0000
0000
0000
0000
0110
0000
0000
0000
0000
0000
0100
0000
0001
0000
0010
0000
0100
0000
0000
1000
0000
0000
0010
0000
0000
0000
0000
0000
,
1001
0000
0000
0000
1001
0000
0000
0000
1001
0000
0000
0001
0010
0000
0000
0100
0000
0000
1100
0000
1000
0000
0001
0000
,
0102
0000
0000
0000
0010
0000
0000
0000
0103
0000
0000
0010
1000
0000
0000
0001
0000
0000
0010
0000
0000
0100
0000
0000
,
1000
0000
0000
0001
0000
0000
0100
0000
0000
0010
0000
0000
1000
0000
0000
0001
0000
0000
0010
0000
0000
0100
0000
0000
1000
0000
0001
0000
1000
0000
0001
0000
1000
0000
0001
0000
0100
0000
0000
0010
0000
0000
1000
0000
0000
0001
0000
0000
,
0020
0000
0000
0000
,
0230
0000
0000
0000
,
2300
0000
0000
0000
,
3002
0000
0013
0000
,
0011
0000
0000
0000
1100
0000
0000
0000
0011
0000
0000
1100
0000
0000
0011
0000
,
1001
0000
0000
0001
0010
0100
1000
0001
0010
0100
0000
0000
1100
0000
0000
1000
0000
0000
0101
0000
0000
0001
0000
0000
,
0110
0000
0000
1000
0010
0000
0100
0000
0101
0000
0000
0001
0010
0000
0100
0000
,
1000
0100
0001
0100
0001
0100
1000
0010
0001
1000
0100
1000
0100
1000
0100
0001
,
2000
0000
0000
0000
,
3020
0000
0000
0000
0000
0000
0000
0000
0000
0000
0000
0000
0000
0000
0000
0000
0000
0000
0000
0000
0130
0000
0000
0000
0100
0000
0010
0000
0100
0000
0010
0100
,
0010
0100
0010
0000
0000
0000
0000
0000
0000
0000
0000
0000
0000
0000
0000
0000
0000
0000
0000
0000
0000
0000
0000
0000
0000
0000
0000
0000
0110
0000
0000
0000
,
0110
0000
1000
0010
0000
0100
0001
0000
0001
0010
0000
0100
1000
0100
0010
0001
,
1000
0000
0000
0000
0000
0000
1000
0000
0000
0010
0000
0000
0000
0000
0000
0100
0000
0000
0010
0000
0000
0000
0000
0000
0001
0000
0000
0010
0000
0000
1000
0000
0100
0000
0010
0000
0001
0000
0000
0000
0000
0000
0010
0000
0000
0000
0000
0000
,
1001
0000
0001
0010
0000
0100
0010
0000
1000
0010
0001
0100
0010
0000
0100
0001
,
1000
0000
0100
0000
0001
0100
1000
0100
0010
0001
1000
0010
0100
0000
1000
0100
,
0010
0000
1000
0001
0000
0010
0100
0000
1000
0001
0000
0001
0100
0010
0100
1000
,
0001
0000
0000
0000
0000
0000
0010
0000
0000
1000
0000
0000
0000
0000
0000
0010
0000
0000
0100
0000
0000
0000
0000
0000
0001
0000
0010
0000
0100
0000
1000
0000
0000
0000
0000
0000
0001
0000
0000
0010
0000
0000
1000
0000
0000
0010
0000
0000
,
0100
0000
0010
0001
0000
0001
1000
0000
1000
0100
0000
0000
1001
0000
0010
0000
,
0110
0000
0001
0100
1000
0000
0101
0000
1000
0100
0001
0000
1100
0000
1000
0001
,
0100
0000
0001
0000
0010
0000
0100
0000
0000
1000
0000
0000
0001
0000
0000
0100
0000
0000
1000
0000
0000
0100
0000
0000
0010
0000
0000
0002
0000
0000
0000
0000
0000
1003
0000
0000
0100
0000
0000
0001
0000
0000
0010
0000
0000
0100
0000
0000
,
1200
0010
1300
0201
0010
0301
1100
1001
,
0102
0000
1000
0000
0103
0010
1000
0100
1100
0000
0101
0000
1100
0000
0101
0000
,
2010
0000
0001
0000
3100
0000
0012
0000
1000
0000
0103
0000
0010
1000
0100
0010
,
0001
0000
0001
0100
0000
0100
1000
0000
0001
0010
0000
0010
1000
0000
0001
0100
,
0020
0000
0100
0000
1000
0000
0130
0001
0010
0100
1000
0000
1100
0000
1010
0000
,
0201
0000
0010
0000
0301
1000
0100
0010
0002
0000
1000
0000
0100
0000
1003
0000
,
0120
1000
0130
0210
0001
0310
1002
0010
,
1003
0100
0010
0100
1000
0100
0010
0001
0010
0100
0010
0001
1000
0000
1000
0010
,
0200
0301
0011
0210
1300
1010
0210
0301
,
0012
1003
0101
2010
3001
1100
0120
0031
,
1001
0000
0000
0110
0000
0000
1000
0010
0001
0010
1000
0001
0010
1000
0010
0001
,
2000
0000
0002
3000
,
1003
0100
1000
0100
0010
0000
0110
0000
0100
1000
0100
1000
0001
0100
1000
0100
,
0001
0010
0001
0010
0100
1000
0001
0000
0001
0100
1000
0100
0001
0100
0001
0010
,
1000
0000
1000
0010
0100
0000
0100
1000
0010
1000
0010
0100
0001
1000
0010
0100
,
0001
0010
1000
0001
0100
1000
0001
0100
1000
0001
0010
0100
0001
0000
0001
0010
,
0100
0000
0010
0100
1000
0010
0001
0010
1000
0001
0100
1000
0100
0001
0010
0100
,
1000
0001
0010
1000
0010
0001
1000
0000
0001
0100
1000
0100
0001
0000
1000
0100
,
0010
0100
1000
0001
0100
0010
0001
0000
1000
0100
0010
1000
0100
0001
1000
0010
,
0001
0000
0001
0100
1000
0100
0010
1000
0100
0001
0100
1000
0010
0001
1000
0100
,
0020
0000
0000
0000
,
0000
0000
0000
0000
,
0000
0000
0000
0000
,
0000
0000
0000
0000
,
0030
0000
0000
0000
;
