#TITLE:シャルル;
#SUBTITLE:;
#ARTIST:バルーン;
#TITLETRANSLIT:Sharuru;
#SUBTITLETRANSLIT:;
#ARTISTTRANSLIT:Balloon;
#GENRE:POP;
#CREDIT:;
#MUSIC:Sharuru.ogg;
#BANNER:Sharuru.png;
#BACKGROUND:Sharuru-bg.png;
#CDTITLE:;
#SAMPLESTART:56.301;
#SAMPLELENGTH:13.241;
#SELECTABLE:YES;
#OFFSET:-0.025;
#BPMS:0.000=145.000;
#STOPS:116.000=0.207
,116.500=0.207
;
#BGCHANGES:3.500=Sharuru.avi=1.000=0=0=0=StretchNoLoop====,
99999.000=-nosongbg-=1.000=0=0=0=StretchNoLoop====
;
#FGCHANGES:;

//--------------- dance-single - ----------------
#NOTES:
     dance-single:
     :
     Hard:
     12:
     0,0,0,0,0:
0000
0000
0000
0000
,
0000
0000
0000
0000
,
1000
0100
1000
0000
0001
0100
0001
1000
,
0010
0000
0110
0000
0100
0001
0100
0001
,
0000
1000
1000
0100
0010
0001
0100
0010
,
1000
0000
0001
0100
0000
0000
0000
0000
0101
0000
0000
0000
1010
0000
0000
0000
,
1000
0000
0100
0000
0010
0000
0100
1000
0000
0001
1000
0000
0010
0000
0000
0000
,
0100
0000
0001
0000
1000
0000
0001
0010
0000
0000
0100
0000
0100
0000
2000
0000
,
0001
0000
3010
0000
0010
0100
0010
2000
,
0001
3001
1001
1001
,
1000
0000
0100
0000
0010
0000
0001
0100
0000
0001
0100
0000
2020
0000
3030
0000
,
0001
0000
0100
0000
0010
0000
1000
0100
0000
1000
0100
0000
0022
0000
0033
0000
,
1000
0000
0001
0000
0100
0000
0010
1000
0000
0010
1000
0000
0202
0000
0303
0000
,
0001
0000
1000
0000
0100
0000
0010
0001
0000
0010
0001
0000
2200
0000
3300
0000
,
1000
0000
0100
0000
0001
0000
0100
0010
0000
0100
1000
0000
2200
0000
3300
0000
,
0001
0000
0100
0000
1000
0000
0100
0010
0000
0100
0001
0000
0202
0000
0303
0000
,
1000
0000
0010
0000
0001
0000
0010
0100
0000
0010
1000
0000
2020
0000
3030
0000
,
0001
0000
0010
0000
1000
0000
0010
0100
0000
0010
0001
0000
0022
0000
0033
0000
,
0001
0000
0100
0000
0010
0000
0000
0010
1000
0000
0001
0000
0010
0000
0100
0000
,
1100
0000
0000
1000
0001
0000
0000
0000
0001
0000
0100
0000
0010
0000
1000
0000
,
0000
0001
0001
0010
0100
0100
1000
0001
,
1001
0000
0000
0100
0010
0000
0000
0000
1010
0000
0000
0000
0101
0000
0000
0000
,
1100
0000
1000
0000
1001
0000
0001
0010
0000
0100
1000
0000
1000
0000
0001
0100
,
0001
0000
1000
0000
0010
0000
0100
0010
0000
0000
0010
0000
1000
0000
0100
0000
,
0001
0000
0000
0100
0000
0000
1000
0000
0000
0001
0000
0100
0010
0000
0100
0000
,
0110
0000
0000
0000
0110
0000
0000
0000
0001
0000
1000
0100
1000
0000
0001
0000
,
0100
0000
0000
0001
1000
0000
0100
0000
0010
0000
0001
0000
0010
0000
0100
0000
,
1100
0000
0101
0000
0002
0100
0103
0000
,
0100
0001
0010
0100
1000
0010
0100
0001
,
0101
1100
1001
0100
0010
0100
0110
0000
,
1010
0000
0100
0001
0011
0000
0110
0000
,
1100
0000
1000
0010
0110
0000
0100
0001
,
0001
1000
0001
0100
0010
1000
1001
0000
,
0000
0000
1000
0100
0010
0000
0011
0000
,
0101
0000
1010
0000
1100
0000
0001
0100
,
1000
0100
0002
0000
1000
2000
3003
0001
,
0010
0100
1000
0100
0010
0001
0011
0000
,
1100
0000
1010
0000
0101
0010
1000
0000
,
1000
0010
0101
0000
1100
0010
0001
0000
,
0001
0010
2100
0000
0001
0000
3010
0100
,
0010
0100
0001
0010
0100
1000
1100
0000
,
0110
0011
1001
1010
,
1100
0000
0011
0000
0101
0000
1000
0100
,
0001
0100
2000
0000
0001
0002
3003
1000
,
0010
0100
0001
0100
0010
1000
1010
0000
,
0101
0000
0011
0000
1100
0010
0001
0000
,
0001
0010
1100
0000
0101
0010
1000
0000
,
1000
0010
0102
0000
1000
0000
0013
0100
,
0010
0100
1000
0010
0100
0001
0002
0000
,
2003
0000
3020
0000
0230
0301
0110
0000
,
1001
0000
0110
0000
1001
0000
1010
1000
,
0010
0001
0020
0000
1000
1030
0001
0010
,
0100
1000
0001
0010
0100
1000
0001
0100
,
0010
1000
0001
0100
0010
1000
1010
0000
,
0101
0000
0011
0000
1100
0000
1001
0001
,
0010
1000
0020
0000
0001
0031
0100
1000
,
0100
0001
1000
0100
0001
0100
1000
0010
,
0001
0000
0010
0000
1000
0000
0100
0010
0100
0000
0010
0000
0001
0000
0000
0100
,
0010
0000
1000
0000
0100
0000
0000
0010
0001
0000
0100
0000
0020
0000
2030
0000
,
3200
0320
0032
0003
1001
0000
1000
0001
,
0001
1000
0010
0000
0100
0001
1000
0000
,
0001
1001
0000
0000
;

//--------------- dance-single - ----------------
#NOTES:
     dance-single:
     :
     Challenge:
     15:
     0.766262,0.894378,0.330981,0,0.861524,551,517,34,0,0,0,0.766262,0.894378,0.330981,0,0.861524,551,517,34,0,0,0:
0000
0000
0000
0000
,
0000
0000
0000
0000
,
1000
0100
0010
0001
0000
0000
1001
0000
0100
0000
0010
0000
1000
0000
1000
0000
,
0001
0100
0010
1000
0000
0000
1001
0000
1000
0100
0010
0001
0010
0100
1000
0000
,
0001
0010
0100
1000
0000
0000
1010
0000
0100
0000
0010
0000
1000
0000
1000
0000
,
0001
0100
0010
1000
0000
0000
1001
0000
0001
0100
0010
1000
0010
0100
0001
0000
,
1000
0010
0100
0001
0000
0000
1000
0000
0011
0000
0001
0000
1001
0000
1000
0000
,
0010
0100
0001
1000
0000
0000
1001
0000
0010
0001
1000
0100
1000
0001
0010
0000
,
0100
1000
0001
0010
0000
0000
0100
0000
0110
0000
0010
0000
1001
0000
0200
0000
,
0010
0000
0000
0000
0000
0000
0310
0000
0000
0000
1000
0010
2000
0000
0001
0000
0001
0000
3001
0000
0000
0000
0000
0000
,
1000
0010
0000
1000
0001
0000
0100
0010
0000
1000
0010
0000
2020
0000
3030
0000
,
0001
0010
0000
0001
1000
0000
0100
0010
0000
0001
0100
0000
0202
0000
0303
0000
,
0001
0100
0000
0001
1000
0000
0010
0100
0000
0001
1000
0000
2200
0000
3300
0000
,
1000
0100
0000
1000
0001
0000
0010
0100
0000
1000
0001
0000
0101
0000
0100
0001
,
0100
0001
0000
1000
0001
0000
0010
0100
0000
0010
0001
0000
1001
0000
1100
0000
,
0100
1000
0000
0001
1000
0000
0010
0100
0000
0010
1000
0000
0101
0000
1001
0000
,
1000
0100
0000
0010
0100
0000
0001
0100
0000
1000
0001
0000
1010
0000
1001
0000
,
0001
0100
0000
0010
0100
0000
1000
0100
0000
0001
1000
0001
0100
0010
0100
0000
,
0110
0000
0010
0000
1010
0000
1000
0100
1000
0000
0001
0000
0010
0000
0100
0000
,
1001
0000
0000
1000
0010
0000
0000
0000
1000
0000
0100
0000
0001
0000
0100
0000
,
0000
0000
0010
0100
0010
0000
0001
0000
1000
0000
0010
0000
0100
0000
0001
0000
,
1001
0000
0000
0100
0010
0000
0000
0000
0110
0000
0000
0010
1000
0100
0010
0001
,
0100
0000
1010
0000
0101
0000
0001
0010
0000
0100
1000
0100
1000
0000
0001
0100
,
0001
0000
1000
0010
1000
0010
0100
0001
0000
0000
0011
0000
0100
1000
0100
0000
,
0010
0000
0001
0010
0000
0010
0100
0000
1000
0001
0000
0001
0100
0010
0100
0010
,
1000
0000
0000
0000
0000
0000
0000
0000
0000
1000
0000
0000
0001
0000
0000
0000
0000
0000
1000
0000
0000
0000
0000
0000
0001
0000
0100
0000
0001
0000
0100
0000
0000
0010
0000
0000
1000
0000
0000
0100
0000
0000
0010
0000
0000
0100
0000
0000
,
1000
0000
0000
1000
0001
0000
0100
0000
0010
0100
0010
0000
1000
0000
0100
0000
,
0011
0000
0000
0001
1000
0000
0000
0000
1000
0000
0100
0000
0120
0000
0000
0000
,
0130
1000
0001
0100
0010
1000
0100
0010
,
0011
0000
0000
1100
0000
0000
1001
0000
0000
0001
0100
0001
0100
0000
0000
0010
0000
0000
1010
0000
0000
1000
0000
0000
,
1001
0100
0011
0001
1001
0000
0101
0100
,
0110
0000
1000
0000
1010
0000
0010
0000
0110
0000
0100
0010
0100
0001
1000
0001
,
1000
0100
1000
0100
0010
0001
1000
0001
0100
0000
0010
0000
0110
0000
0000
0000
,
0000
0000
0000
0000
1000
0000
0001
0000
1001
0000
0000
0000
0011
0000
0000
0001
,
0100
0000
0010
0000
1010
0000
0000
1000
0100
0000
0010
0000
0011
0000
0010
0000
,
1010
0000
0010
0000
0001
1000
0010
1000
0001
0000
1000
0000
0001
0000
0100
0010
,
0100
0000
0001
0000
1000
0000
0100
0010
0100
0000
1000
0000
1010
0000
0000
0000
,
0101
0000
0000
0000
0000
0000
0000
0000
0000
0000
0000
0000
0011
0000
0000
0000
0000
0000
0010
0000
0100
0000
0010
0000
0100
0000
0000
0000
0000
0000
1000
0000
0000
0000
0000
0000
1010
0000
0000
0000
0000
0000
0000
0000
0000
0100
0000
0000
,
0001
0000
1000
0000
0011
0000
0000
0100
1000
0000
0001
0000
0110
0000
0000
1000
,
0001
0000
0010
0000
0100
1000
0100
0010
0001
0000
0100
0000
0110
0000
1000
0000
,
0101
0000
0010
0000
1100
0000
0010
0000
1001
0000
0001
0100
0010
0000
1000
0100
,
0010
0001
1000
0001
0010
0100
1000
0001
0100
0001
0100
0010
1000
0000
0000
1000
,
0100
0000
1000
0000
0011
0000
0000
0001
0100
0000
0001
0000
1010
0000
0010
0000
,
0011
0000
0010
0000
0010
1000
0000
1000
0001
0100
0001
1000
0010
0000
0100
0010
,
0100
0000
0001
0000
1000
0000
0100
0010
0100
0000
1000
0000
0110
0000
0000
0100
,
0001
0000
0000
0000
0000
0000
0010
0000
0000
0000
0000
0000
1001
0000
0000
0000
0000
0000
1000
0000
0100
0000
1000
0000
0100
0000
0000
0000
0000
0000
0010
0000
0000
0000
0000
0000
1100
0000
0000
0000
0000
0000
0000
0000
0000
0001
0000
0000
,
0100
0000
0010
0000
0101
0000
0000
1000
0100
0000
0010
0000
1100
0000
0000
0001
,
0100
0000
0010
0100
0001
0000
1000
0000
0001
0000
0010
0100
1000
0000
0001
0000
,
0100
0010
0000
0010
1000
0100
1000
0010
0100
0001
0010
0001
1000
0100
1000
0001
,
1000
0001
0100
0001
1000
0010
0100
0010
1000
0001
1000
0001
0010
0000
0000
0100
,
1000
0000
1010
0000
0101
0000
0000
0100
0001
0000
0011
0000
1100
0000
1000
0000
,
0010
0000
0001
0000
0010
0000
0000
1000
0100
0000
0010
0000
0001
0000
0100
0010
,
0100
0000
1000
0000
0001
0000
0010
0100
0010
0000
1000
0000
0001
0000
0010
0100
,
0010
0000
1000
0000
0010
0001
0010
0001
1000
0100
1000
0100
0010
0000
0000
0001
,
0100
0000
0101
0000
1010
0000
0000
1000
0100
0000
1100
0000
0011
0000
0001
0000
,
0010
0000
1000
0000
0010
0000
0000
0001
0100
0000
0010
1000
0100
0000
0100
0000
,
0010
0000
0010
0001
1000
0000
1000
0000
0010
0000
0010
0100
0001
0000
0010
0000
,
0100
0000
0000
0000
0000
0000
1000
0000
0000
0000
0000
0000
0010
0000
0000
0000
0000
0000
1000
0000
0100
0000
0010
0000
0001
0000
0000
0000
0000
0000
1000
0000
0000
0001
0000
0000
0100
0000
0000
0010
0000
0000
0100
0000
0000
0001
0000
0000
,
1000
0000
0001
0000
0010
0100
1000
0100
0010
0000
0001
0000
0100
0010
1000
0010
,
0001
0000
0010
0000
1000
0000
0001
0010
0001
0000
1000
0100
1000
0000
0001
0100
,
0001
0100
1000
0000
0100
0000
0001
0010
0100
1000
0001
1000
0010
0000
0000
0000
,
0100
1001
0000
0000
;
