#VERSION:0.83;
#TITLE:ネ 土 会 ェ 貝 南 犬 ☆ カ ゞ ん I よ ″ る ノ D A !!。;
#SUBTITLE:;
#ARTIST:ぬぬぬぬぬぬぬぬぬぬぬぬぬぬぬぬぬぬぬぬぬぬぬぬぬぬぬぬぬぬぬぬぬぬぬぬぬぬぬぬぬぬぬぬぬぬぬぬ feat.ずんだもん;
#TITLETRANSLIT:Shakai Kouken Ganbaru no DA!!;
#SUBTITLETRANSLIT:;
#ARTISTTRANSLIT:Nunununununununununununununununununununununununununununununununununununununununununununununununu feat.Zundamon;
#GENRE:pop;
#CREDIT:;
#MUSIC:Shakai Kouken Ganbaru no DA!!.ogg;
#BANNER:Shakai Kouken Ganbaru no DA!!.png;
#BACKGROUND:Shakai Kouken Ganbaru no DA!!-bg.png;
#CDTITLE:;
#SAMPLESTART:83.538;
#SAMPLELENGTH:10.608;
#SELECTABLE:YES;
#OFFSET:1.324;
#BPMS:0.000=181.000
,328.000=362.000
,335.000=181.000
;
#STOPS:328.000=0.166
,329.000=0.166
,330.000=0.166
,331.000=0.166
,332.000=0.166
,333.000=0.166
,334.000=0.166
;
#WARPS:408.000=12.000;
#DISPLAYBPM:181.000;
#LASTBEATHINT:0.892909;
#BGCHANGES:7.750=Shakai Kouken Ganbaru no DA!!.avi=1.000=0=0=0=StretchNoLoop====,
99999.000=-nosongbg-=1.000=0=0=0=StretchNoLoop====
;
#FGCHANGES:;

//--------------- dance-single - ----------------
#NOTEDATA:;
#STEPSTYPE:dance-single;
#DESCRIPTION:;
#DIFFICULTY:Medium;
#METER:13;
#RADARVALUES:0,0,0,0,0;
#NOTES:
0000
0000
0000
0000
,
0000
0000
0000
0000
,
0000
0000
0000
0000
,
0000
0000
0000
0000
,
0000
0000
0000
0000
,
0000
0000
0000
0000
,
0000
0000
0000
0000
,
0000
0000
0000
0000
,
0000
0000
0000
0000
,
0000
0000
0000
0000
,
0000
0000
0000
0000
,
0000
0000
0000
0000
,
2001
0000
3020
0230
,
0302
0000
0023
0000
,
0230
0000
2300
0000
3001
0010
0100
1000
,
0020
0000
0230
0000
,
0302
0000
2003
0000
,
3020
0000
0130
0000
,
0110
0000
2002
0000
,
0000
0000
3003
0110
,
0101
0000
0000
1100
0000
0000
1001
0000
,
0001
1000
0001
1000
0020
0000
0000
0030
,
1010
0000
0000
0011
0000
0000
1001
0000
,
0001
1000
0010
0100
0010
1000
0001
0000
,
0010
0100
0000
0100
1000
0000
1000
0001
,
0000
0001
0100
0000
0100
0010
0000
0000
,
0110
0000
1001
0000
0001
0100
0000
1010
,
0000
1000
0001
1000
0110
0000
1001
0000
,
0011
0000
1001
0000
1100
0000
1000
0010
,
0000
0100
0001
1000
0010
0100
0010
0100
,
0001
0010
1000
0010
0001
0100
1000
0100
,
0001
0010
0110
0000
0110
0000
1001
0000
,
1010
0000
1001
0000
0101
0000
0001
0010
,
0000
0100
1000
0001
0100
0010
0100
0010
,
1000
0010
0001
0010
1000
0100
0001
0100
,
1000
0001
0100
0000
0110
0000
0010
0000
,
2002
0000
0000
3003
,
0001
0000
1000
0000
0001
0000
1000
0000
0020
0000
0000
0000
0130
0000
0000
0100
,
0001
0000
0000
0000
1000
0000
0000
0001
0010
0000
0000
0000
0010
0000
0100
0000
,
1000
0001
1000
0010
0000
0100
0001
1000
,
0010
0000
0001
0000
0010
0000
1000
0001
0000
0000
0010
0000
0100
0000
0000
0000
,
0110
1001
0110
1001
,
0011
0000
1100
0000
0011
0001
0100
0010
,
1010
0000
0101
0000
1010
1000
0100
0010
,
0011
0000
1100
0001
0110
0000
1001
0000
,
0110
0000
0001
0000
1000
0000
0001
0000
1000
0000
0000
0000
0110
0000
0000
1000
,
0010
0000
0000
0000
0100
0000
0000
0001
1000
0000
0100
0000
0010
0000
0100
0000
,
1000
0001
0000
1000
0000
0001
0010
0100
,
1000
0001
0100
1000
0100
0001
0010
0000
,
0011
0101
1100
1010
,
0101
0000
1010
0000
0101
0001
0010
0100
,
1100
0000
0011
0000
1100
1000
0010
0100
,
0101
0000
0101
1000
0110
0000
0110
0000
,
1001
0010
0100
0010
0100
0000
1001
0000
,
0002
0000
0023
0230
,
2300
0000
3002
0000
,
0203
0000
0320
0000
1030
0001
1000
0000
,
0110
1001
0110
1001
,
0010
0000
0000
0000
0100
0001
1000
0100
,
0010
0001
1000
0010
,
0100
0001
0000
0001
1000
0000
1000
0010
,
0000
0010
0100
0000
0100
0001
2000
0000
,
3010
0000
0110
0000
1000
0001
0000
0011
,
0000
0010
0100
1000
1001
0000
0110
0000
,
0001
0100
0010
0100
0001
0010
0100
0010
,
0001
1000
0100
0010
0001
1000
0001
1000
,
0010
0100
0100
1000
0010
0100
0100
1000
,
0001
0101
1100
0000
0110
0000
1001
0000
,
1000
0100
0010
0100
1000
0010
0100
0010
,
1000
0001
0100
0010
1000
0001
1000
0001
,
0010
0100
0100
0001
0010
0100
0100
0001
,
1000
1100
0101
0000
0110
0000
1001
0000
,
0001
0100
1000
0100
0001
1000
0100
0001
,
0100
1000
0001
1000
0100
0100
0010
0010
,
0001
0010
1000
0010
0001
1000
0010
0001
,
0010
1000
0010
0000
0110
0000
1001
0000
,
1000
0100
0001
0100
1000
0001
0100
1000
,
0100
0001
1000
0001
0100
0100
0010
0010
,
1000
0001
0010
1000
0010
0001
1000
0010
,
0001
0010
0100
0000
0110
0000
0010
0000
,
1001
0000
1000
0010
,
0100
0000
0001
1000
0001
1000
0010
0100
,
0202
0303
0000
0000
0000
0000
0000
0000
0000
0000
0000
0000
0000
0000
0000
0000
0000
0000
0000
0000
0000
0000
0000
0000
0000
0000
0000
0000
0000
0000
0000
0000
0000
0000
0000
0000
0000
0000
0000
0000
0000
0000
0000
0000
0000
0000
0000
0000
2200
3300
0000
0000
0000
0000
0000
0000
0000
0000
0000
0000
0000
0000
0000
0000
0000
0000
0000
0000
0000
0000
0000
0000
0000
0000
0000
0000
0000
0000
0000
0000
0000
0000
0000
0000
0000
0000
0000
0000
0000
0000
0000
0000
0000
0000
0000
0000
2020
3030
0000
0000
0000
0000
0000
0000
0000
0000
0000
0000
0000
0000
0000
0000
0000
0000
0000
0000
0000
0000
0000
0000
0000
0000
0000
0000
0000
0000
0000
0000
0000
0000
0000
0000
0000
0000
0000
0000
0000
0000
0000
0000
0000
0000
0000
0000
0022
0033
0000
0000
0000
0000
0000
0000
0000
0000
0000
0000
0000
0000
0000
0000
0000
0000
0000
0000
0000
0000
0000
0000
0000
0000
0000
0000
0000
0000
0000
0000
0000
0000
0000
0000
0000
0000
0000
0000
0000
0000
0000
0000
0000
0000
0000
0000
,
2002
3003
0000
0000
0000
0000
0000
0000
0000
0000
0000
0000
0000
0000
0000
0000
0000
0000
0000
0000
0000
0000
0000
0000
0000
0000
0000
0000
0000
0000
0000
0000
0000
0000
0000
0000
0000
0000
0000
0000
0000
0000
0000
0000
0000
0000
0000
0000
0220
0330
0000
0000
0000
0000
0000
0000
0000
0000
0000
0000
0000
0000
0000
0000
0000
0000
0000
0000
0000
0000
0000
0000
0000
0000
0000
0000
0000
0000
0000
0000
0000
0000
0000
0000
0000
0000
0000
0000
0000
0000
0000
0000
0000
0000
0000
0000
2002
3003
0000
0000
0000
0000
0000
0000
0000
0000
0000
0000
0000
0000
0000
0000
0000
0000
0000
0000
0000
0000
0000
0000
0000
0000
0000
0000
0000
0000
0000
0000
0000
0000
0000
0000
0000
0000
0000
0000
0000
0000
0000
0000
0000
0000
0000
0000
1001
0000
0000
0000
0000
0000
0000
0000
0000
0000
0000
0000
0000
0000
0000
0000
0000
0000
0000
0000
0000
0000
0000
0000
0000
0000
0000
0000
0000
0000
0000
0000
0000
0000
0000
0000
0000
0000
0000
0000
0000
0000
0000
0000
0000
0000
0000
0000
,
0001
0010
1000
0001
0100
0010
1000
0001
,
0100
1000
0010
0001
1000
0100
0010
0001
,
1000
0100
0001
1000
0100
0001
1000
0010
,
0100
1000
1100
0000
0101
0000
1001
0000
,
1000
0010
0001
1000
0100
0010
0001
1000
,
0100
0001
0010
1000
0001
0100
0010
1000
,
0001
0100
1000
0001
0100
1000
0001
0010
,
0100
0001
0101
0000
1100
0000
1001
0000
,
0001
0100
0100
1000
0001
0100
0100
0100
,
1000
0100
0001
0010
1000
0001
0100
0100
,
1000
0100
0001
0010
0100
0100
0100
1000
,
0002
0103
0110
1001
,
1000
0100
0100
0001
1000
0100
0100
0100
,
0001
0100
1000
0010
0001
1000
0100
0000
,
0110
0001
1000
0000
1000
0010
0000
0010
,
1001
0010
0100
0000
1000
0001
0000
0010
,
0110
0000
0100
0000
1000
0010
0000
0020
,
0000
0000
0000
0000
,
0230
0000
0000
0000
,
0300
0000
0000
0000
,
0000
0000
0000
0000
,
0M00
0M00
0M00
0M00
0M00
0M00
0M00
0M00
,
0M00
0000
0000
0000
;

//--------------- dance-single - ----------------
#NOTEDATA:;
#STEPSTYPE:dance-single;
#DESCRIPTION:;
#DIFFICULTY:Hard;
#METER:17;
#RADARVALUES:0,0,0,0,0;
#NOTES:
0000
0000
0000
0000
,
0000
0000
0000
0000
,
0000
0000
0000
0000
,
0000
0000
0000
0000
,
0000
0000
0000
0000
,
0000
0000
0000
0000
,
0000
0000
0000
0000
,
0000
0000
0000
0000
,
0000
0000
0000
0000
,
0000
0000
0000
0000
,
0000
0000
0000
0000
,
0000
0000
0000
0000
,
0102
0000
1003
0100
,
0120
0000
0032
0003
,
1020
0000
0230
0000
0301
1000
0010
0100
,
0210
0301
0210
0000
,
2300
0000
0001
3001
0200
0000
0320
0000
,
2030
0000
0000
0000
3001
0000
0010
0000
0100
0000
0000
0000
1000
0001
1000
0001
,
1000
0000
0000
0000
0000
0000
0010
0100
0010
0100
0010
0100
,
0010
0000
0000
0000
0100
0000
0000
0000
0010
0000
0000
0000
0100
0000
0000
0000
0010
0000
0000
0000
0100
0000
0000
0000
0010
0000
0000
0000
0000
0000
1000
0000
0000
0001
0000
0000
1000
0000
0000
0000
0000
0000
0000
0000
0000
0000
0000
0000
,
0101
0000
0000
1100
0000
0000
1001
0000
,
1000
0000
0001
0000
1000
0100
1000
0100
0020
0000
0000
0000
0000
0000
0030
0000
,
0110
0000
0000
0011
0000
0000
1100
0000
,
1000
0000
0010
0000
0100
0001
0100
0001
1000
0000
0100
0000
0110
0000
0000
0000
,
1000
1100
0000
0001
0101
0000
1000
1010
,
0000
0001
0011
0000
0010
0110
0100
0000
,
1100
0000
1001
0000
0001
1010
0000
0101
,
0000
0100
0001
0010
0110
0000
1001
0000
,
1000
0000
0001
0100
0001
0000
0100
0001
1000
0000
0100
1000
0100
0000
1000
0001
,
0100
0000
0001
1000
0100
0000
1000
0000
0101
0000
0001
0000
1100
0000
1000
0000
,
0001
0000
0100
0001
0100
0001
0010
0000
0100
1000
0100
1000
0010
0000
0100
0000
,
0010
1010
0101
0000
0110
0000
1001
0000
,
1100
0000
1000
0100
1000
0000
0100
1000
0001
0000
0100
0001
0100
0000
0001
1000
,
0100
0000
1000
0001
0100
0000
0001
0000
1100
0000
0001
0000
0101
0000
1000
0000
,
0010
0000
0100
0001
0100
0001
0010
0000
0100
1000
0100
1000
0010
0000
0100
0000
,
0001
1000
0100
0000
0110
0000
0010
0000
,
1001
0000
0000
0000
,
0001
0000
1000
0000
0001
0000
1000
0000
0001
1000
0001
1000
0010
0000
0000
0000
,
0110
0000
0000
0000
1001
0000
0000
0010
0200
0000
0001
0000
0301
0000
0010
0000
,
0110
0000
0000
0000
0110
0000
0000
0000
0110
0000
1000
0000
0001
0000
1000
0100
,
0010
0000
0100
1000
0001
0000
0100
0010
0000
0000
1000
0000
0001
0000
0000
0000
,
0011
0101
1100
1010
,
0101
0000
0001
0100
0001
0000
0001
0010
0100
0000
0010
0000
0100
0000
0010
0000
,
1100
0000
1000
0100
1000
0000
1000
0010
0100
0000
0010
0000
0100
0000
0010
0000
,
0101
0000
0001
0100
0001
0000
0100
1000
0100
0000
0001
0010
0001
0000
0010
1000
,
0010
0011
1010
0011
1010
0000
0110
0000
,
1001
0000
0000
0001
0100
0000
0000
0010
0100
0000
0001
0000
0010
0000
0100
0000
,
1000
1100
0000
0101
0000
1000
0010
0100
,
0001
0000
0010
0100
0010
0000
0001
1000
0001
0000
0100
0000
0010
0000
0000
0000
,
1010
0101
1010
0101
,
1010
0000
1000
0010
1000
0000
1000
0100
0010
0000
0100
0000
0010
0000
0100
0000
,
0011
0000
0001
0010
0001
0000
0001
0100
0010
0000
0100
0000
0010
0000
0100
0000
,
1010
0000
1000
0010
1000
0000
0010
0001
0010
0000
1000
0100
1000
0000
0100
0001
,
0100
1100
0101
1100
0101
0000
0110
0000
,
2001
0000
3010
0200
0000
0301
0000
0010
,
0100
0010
0001
0010
1000
0010
0100
1000
,
0100
0010
0100
0001
0100
1000
0010
0000
,
1010
0101
1010
0110
,
1001
0000
0000
0000
1000
0100
0001
0100
,
1000
0010
0100
0001
,
1000
0000
0010
0000
0100
0001
0010
0100
1000
0000
0100
0000
0001
0000
0100
0000
,
1000
0000
0010
0100
0001
0000
1000
0000
1100
0000
0000
0000
0011
0000
0000
0000
,
1001
0000
0110
0000
1000
0101
0000
0011
,
0000
0010
0100
1000
1100
0000
1001
0000
,
0101
0000
0001
0100
0010
0000
0001
0010
0100
0000
0001
0000
1000
0000
1100
0000
,
0000
0000
1000
0010
0100
0000
0001
0000
0101
0000
0010
0000
1100
0000
0010
0000
,
1001
0000
0001
0100
0010
0100
1000
0000
0001
0010
0100
0010
1000
0000
0001
0000
,
0010
1100
0101
0000
0110
0000
1001
0000
,
1100
0000
1000
0100
0010
0000
1000
0010
0100
0000
1000
0000
0001
0000
0011
0000
,
0000
0000
0001
0010
0100
0000
1000
0000
1100
0000
0010
0000
0101
0000
0010
0000
,
1001
0000
1000
0100
0010
0100
0001
0000
1000
0010
0100
0010
0001
0000
1000
0000
,
0010
0000
0100
0000
0001
0010
0100
1000
0010
0000
0000
0000
1001
0000
0000
0000
,
0101
0001
0011
0001
1001
1000
1001
1000
,
1010
0010
0110
0010
1010
1001
0101
1001
,
1100
1000
1001
1000
1001
0001
0101
0001
,
2001
0010
3100
0000
0110
0000
1001
0000
,
1100
0000
1000
0010
0100
0000
0001
0000
0101
0000
0100
0001
1000
0000
1001
0000
,
0001
0000
0010
0001
1000
0000
0010
0100
1000
0000
0100
0001
0010
0100
1000
0001
,
0100
0000
1000
0100
0010
0000
0100
0000
0101
0000
0001
1000
0100
0000
0010
0000
,
0011
0001
0100
0000
0101
0000
0110
0000
,
1001
0000
0000
0000
1000
0000
0001
0100
,
0001
0000
0000
0000
0100
0000
0001
0000
1000
0000
0010
0000
0100
0001
1000
0001
,
2000
3000
0000
0000
0000
0000
0000
0000
0000
0000
0000
0000
0000
0000
0000
0000
0000
0000
0000
0000
0000
0000
0000
0000
0000
0000
0000
0000
0000
0000
0000
0000
0000
0000
0000
0000
0000
0000
0000
0000
0000
0000
0000
0000
0000
0000
0000
0000
0202
0303
0000
0000
0000
0000
0000
0000
0000
0000
0000
0000
0000
0000
0000
0000
0000
0000
0000
0000
0000
0000
0000
0000
0000
0000
0000
0000
0000
0000
0000
0000
0000
0000
0000
0000
0000
0000
0000
0000
0000
0000
0000
0000
0000
0000
0000
0000
0022
0033
0000
0000
0000
0000
0000
0000
0000
0000
0000
0000
0000
0000
0000
0000
0000
0000
0000
0000
0000
0000
0000
0000
0000
0000
0000
0000
0000
0000
0000
0000
0000
0000
0000
0000
0000
0000
0000
0000
0000
0000
0000
0000
0000
0000
0000
0000
2020
3030
0000
0000
0000
0000
0000
0000
0000
0000
0000
0000
0000
0000
0000
0000
0000
0000
0000
0000
0000
0000
0000
0000
0000
0000
0000
0000
0000
0000
0000
0000
0000
0000
0000
0000
0000
0000
0000
0000
0000
0000
0000
0000
0000
0000
0000
0000
,
2200
3300
0000
0000
0000
0000
0000
0000
0000
0000
0000
0000
0000
0000
0000
0000
0000
0000
0000
0000
0000
0000
0000
0000
0000
0000
0000
0000
0000
0000
0000
0000
0000
0000
0000
0000
0000
0000
0000
0000
0000
0000
0000
0000
0000
0000
0000
0000
0220
0330
0000
0000
0000
0000
0000
0000
0000
0000
0000
0000
0000
0000
0000
0000
0000
0000
0000
0000
0000
0000
0000
0000
0000
0000
0000
0000
0000
0000
0000
0000
0000
0000
0000
0000
0000
0000
0000
0000
0000
0000
0000
0000
0000
0000
0000
0000
2002
3003
0000
0000
0000
0000
0000
0000
0000
0000
0000
0000
0000
0000
0000
0000
0000
0000
0000
0000
0000
0000
0000
0000
0000
0000
0000
0000
0000
0000
0000
0000
0000
0000
0000
0000
0000
0000
0000
0000
0000
0000
0000
0000
0000
0000
0000
0000
0110
0000
0000
0000
0000
0000
0000
0000
0000
0000
0000
0000
0000
0000
0000
0000
0000
0000
0000
0000
0000
0000
0000
0000
0000
0000
0000
0000
0000
0000
0000
0000
0000
0000
0000
0000
0000
0000
0000
0000
0000
0000
0000
0000
0000
0000
0000
0000
,
1001
0000
0001
0100
0010
0000
0010
1000
0001
0000
0001
0010
0100
0000
0100
1000
,
0001
0010
0100
1000
0001
1000
0100
0010
0001
0000
1000
0000
1100
0000
0000
0000
,
0101
0000
0100
0001
1000
0000
0001
0100
1000
0000
0100
0001
1000
0000
0001
0100
,
1000
1100
0101
0000
0110
0000
1001
0000
,
1001
0000
1000
0100
0010
0000
0010
0001
1000
0000
1000
0010
0100
0000
0100
0001
,
1000
0010
0100
0001
1000
0001
0100
0010
1000
0000
0001
0000
0101
0000
0000
0000
,
1100
0000
0100
1000
0001
0000
1000
0100
0001
0000
0100
1000
0001
0000
1000
0100
,
0001
0000
0100
0000
1000
0001
1000
0001
0100
0000
0000
0000
0110
0000
0000
0000
,
0110
0000
0010
0100
1000
0000
1000
0100
0010
0000
0010
0100
1000
0000
1000
0100
,
0010
1000
0100
0010
0100
1000
0010
0100
1000
0000
0100
0000
0101
0000
0000
0000
,
1010
0000
1000
0010
0100
0000
1000
0100
0010
0000
1000
0000
1001
0000
0001
0000
,
0010
0100
0010
0100
0010
0000
0001
1000
0100
0000
0000
0000
0110
0000
0000
0000
,
0110
0000
0010
0100
0001
0000
0001
0100
0010
0000
0010
0100
0001
0000
0001
0100
,
0010
0001
0100
0010
0100
0001
0010
0100
0001
0000
0100
0000
1100
0000
0000
0000
,
0101
0000
0001
0100
0010
0000
0100
0000
0001
0000
1000
0100
0010
0000
0100
0000
,
1100
0000
1000
0001
0100
0000
0010
0000
0100
0000
0010
1000
0001
0000
0010
0000
,
0110
0000
1000
0000
0001
0010
0000
0020
,
0000
0000
0000
0000
,
0230
0000
0000
0000
,
0300
0000
0000
0000
,
0000
0000
0000
0000
,
0M00
0M00
0M00
0M00
0M00
0M00
0M00
0M00
0M00
0M00
0M00
0M00
0M00
0M00
0M00
0M00
,
0M00
0000
0000
0000
;

//--------------- dance-single - ----------------
#NOTEDATA:;
#STEPSTYPE:dance-single;
#DESCRIPTION:;
#DIFFICULTY:Challenge;
#METER:18;
#RADARVALUES:0.964079,1.231986,0.823505,0.083746,1.106148,967,849,118,12,0,0,0.964079,1.231986,0.823505,0.083746,1.106148,967,849,118,12,0,0;
#NOTES:
0000
0000
0000
0000
,
0000
0000
0000
0000
,
0000
0000
0000
0000
,
0000
0000
0000
0000
,
0000
0000
0000
0000
,
0000
0000
0000
0000
,
0000
0000
0000
0000
,
0000
0000
0000
0000
,
0000
0000
0000
0000
,
0000
0000
0000
0000
,
0000
0000
0000
0000
,
0000
0000
0000
0000
,
0201
0000
0000
0301
0010
0000
0100
0000
,
2000
0010
3020
0100
,
2030
0000
0000
0000
3001
0000
0010
0100
0010
0000
0001
0000
1000
0000
0001
0000
,
0200
0000
0000
0000
0310
0000
1000
0001
0020
0000
0000
0000
0100
0000
0000
0000
,
0230
0000
1000
1300
0002
0000
1000
0000
,
2003
0000
0000
0000
0000
0000
0010
0000
0000
3010
0000
0000
0100
0000
0000
0000
0000
0000
0001
1000
0001
1000
0001
1000
,
0100
0000
0000
0000
0000
0000
0100
0100
0100
0100
0100
0100
,
0100
0000
0000
0000
0100
0000
0000
0000
0100
0000
0000
0000
0100
0000
0000
0000
0100
0000
0000
0000
0100
0000
0000
0000
0100
0000
0000
0000
0000
0000
1000
0000
0000
0001
0000
0000
1000
0000
0000
0000
0000
0000
0000
0000
0000
0000
0000
0000
,
1100
0000
0000
0101
0000
0000
1001
0000
,
0001
0000
1000
0000
0001
0100
0001
0100
0020
0000
0000
0000
0000
0000
0030
0000
,
1010
0000
0000
0101
0000
0000
0011
0000
,
0010
0000
0100
0000
1000
0001
1000
0001
0110
0000
0010
0000
1001
0000
0000
0000
,
0101
0011
0000
0011
1010
0000
1010
1100
,
0000
1100
0101
0000
0110
1001
0000
0000
,
0011
0000
1100
0000
0101
1001
0000
1010
,
0000
0101
0010
1100
1001
0000
1001
0000
,
0001
0100
0001
0100
0010
1000
0100
0010
0001
1000
0100
1000
0100
0010
0001
1000
,
0100
1000
0001
0100
0001
1000
0100
1000
0010
0100
0001
0010
0100
1000
0010
0100
,
0001
0000
1000
0100
0001
0100
1000
0000
0001
0100
1000
0100
0001
0000
1000
0000
,
0001
0101
1100
0000
0110
0000
1001
0000
,
1000
0100
1000
0100
0010
0001
0100
0010
1000
0001
0100
0001
0100
0010
1000
0001
,
0100
0001
1000
0100
1000
0001
0100
0001
0010
0100
1000
0010
0100
0001
0010
0100
,
1000
0000
0001
0010
1000
0010
0001
0000
1000
0010
0001
0010
1000
0000
0001
0000
,
1000
0001
0100
0000
0110
0000
0010
0000
,
1001
0000
0000
0000
,
0001
0000
0000
1000
0000
0000
0001
0000
0000
1000
0000
0000
0001
1000
0001
1000
0001
1000
0010
0000
0000
0000
0000
0000
,
0120
0000
0000
0000
0000
0100
0130
0000
,
0110
0000
0000
0000
0110
0000
0000
0000
0110
0000
0100
0000
0001
0100
0001
1000
,
0100
0000
0010
0001
1000
0000
0010
0100
0000
0000
0001
0000
1000
0000
0000
0000
,
1100
0101
0011
1010
,
0001
0100
0001
0010
0001
0100
0001
0010
0100
0010
0001
0100
0100
1000
0001
0010
,
0100
1000
0010
1000
0100
1000
0010
0100
0010
1000
0100
0100
0001
1000
0010
0100
,
0001
0010
0001
0100
0100
1000
0010
1000
0100
0100
0001
1000
0001
0010
0100
1000
,
0001
0101
1100
0101
1100
0000
0110
0000
,
1001
0000
0020
0000
,
0000
0000
0000
0000
,
0000
0000
0000
0000
,
1030
0001
1000
0001
,
1000
0100
1000
0010
1000
0100
1000
0010
0100
0010
1000
0100
0100
0001
1000
0010
,
0100
0001
0010
0001
0100
0001
0010
0100
0010
0001
0100
0100
1000
0001
0010
0100
,
1000
0010
1000
0100
0100
0001
0010
0001
0100
0100
1000
0001
1000
0010
0100
0001
,
1000
1100
0101
1100
0101
0000
1001
0000
,
0002
0000
0203
0302
,
2003
0000
3020
0000
,
0230
0000
0302
0000
1003
0100
0010
0000
,
0011
1100
0011
0110
,
1001
0000
0000
0000
0001
0100
1000
0100
,
0001
0010
0100
1000
,
1100
1010
0000
1010
0011
0000
0011
0101
,
0000
0000
0000
0101
0000
0000
1100
0000
0000
0000
0000
0000
1100
0000
0000
1001
0000
0000
0001
0010
0100
1000
0001
0010
,
0100
0000
0110
0000
1100
0101
0000
0110
,
0000
0110
0000
0110
1001
0000
1001
0000
,
0001
0010
0100
1000
0001
0010
0100
0010
0001
1000
0100
0010
0001
1000
0100
0010
,
0100
1000
0001
0010
0100
0010
0001
1000
0100
0010
0100
1000
0001
0010
0100
0010
,
0001
0000
0100
0100
0100
0100
1000
0000
0100
0100
0100
0100
0001
0000
1000
0000
,
0001
0101
1100
0000
0110
0000
1001
0000
,
1000
0010
0100
0001
1000
0010
0100
0010
1000
0001
0100
0010
1000
0001
0100
0010
,
0100
0001
1000
0010
0100
0010
1000
0001
0100
0010
0100
0001
1000
0010
0100
0010
,
1000
0000
0100
0100
0100
0100
0001
0000
0100
0100
0100
0100
1000
0000
0001
0000
,
0010
0000
0000
0100
0000
0000
1000
0001
1000
0001
1000
0001
0100
0000
0000
0000
0000
0000
0110
0000
0000
0000
0000
0000
,
0001
0010
0100
1000
0001
0100
0010
0100
0001
1000
0100
0010
0001
1000
0010
0100
,
0010
1000
0001
0010
0100
1000
0001
0100
0010
0100
0001
0010
0100
0010
0001
1000
,
0001
0010
0100
1000
0001
0100
0010
0100
0001
0010
0100
1000
0001
0100
0010
0100
,
0002
0010
0103
0000
0110
0000
0110
0000
,
1000
0010
0100
0001
1000
0100
0010
0100
1000
0001
0100
0010
1000
0001
0010
0100
,
0010
0000
0000
0001
0000
0000
1000
0000
0000
0010
0000
0000
0100
0000
0000
0001
0000
0000
1000
0000
0000
0100
0000
0000
0010
0000
0000
0100
0000
0000
1000
0000
0000
0001
0000
0000
1000
0000
0100
0000
1000
0000
0100
0000
1000
0000
0100
0000
,
0010
0001
0101
0011
0010
0100
1100
1010
,
0010
0100
0001
0000
0011
0000
0100
0000
,
1001
0000
0000
0000
0000
0000
0000
0000
1000
0000
0000
0000
0010
0000
0100
0001
,
0010
0000
0000
0000
0000
0000
0100
0000
0000
1000
0000
0000
0001
0000
0000
0100
0010
0100
0010
0100
0010
0100
0010
0100
,
0002
0003
0000
0000
0000
0000
0000
0000
0000
0000
0000
0000
0000
0000
0000
0000
0000
0000
0000
0000
0000
0000
0000
0000
0000
0000
0000
0000
0000
0000
0000
0000
0000
0000
0000
0000
0000
0000
0000
0000
0000
0000
0000
0000
0000
0000
0000
0000
2020
3030
0000
0000
0000
0000
0000
0000
0000
0000
0000
0000
0000
0000
0000
0000
0000
0000
0000
0000
0000
0000
0000
0000
0000
0000
0000
0000
0000
0000
0000
0000
0000
0000
0000
0000
0000
0000
0000
0000
0000
0000
0000
0000
0000
0000
0000
0000
2200
3300
0000
0000
0000
0000
0000
0000
0000
0000
0000
0000
0000
0000
0000
0000
0000
0000
0000
0000
0000
0000
0000
0000
0000
0000
0000
0000
0000
0000
0000
0000
0000
0000
0000
0000
0000
0000
0000
0000
0000
0000
0000
0000
0000
0000
0000
0000
0022
0033
0000
0000
0000
0000
0000
0000
0000
0000
0000
0000
0000
0000
0000
0000
0000
0000
0000
0000
0000
0000
0000
0000
0000
0000
0000
0000
0000
0000
0000
0000
0000
0000
0000
0000
0000
0000
0000
0000
0000
0000
0000
0000
0000
0000
0000
0000
,
2200
3300
0000
0000
0000
0000
0000
0000
0000
0000
0000
0000
0000
0000
0000
0000
0000
0000
0000
0000
0000
0000
0000
0000
0000
0000
0000
0000
0000
0000
0000
0000
0000
0000
0000
0000
0000
0000
0000
0000
0000
0000
0000
0000
0000
0000
0000
0000
0202
0303
0000
0000
0000
0000
0000
0000
0000
0000
0000
0000
0000
0000
0000
0000
0000
0000
0000
0000
0000
0000
0000
0000
0000
0000
0000
0000
0000
0000
0000
0000
0000
0000
0000
0000
0000
0000
0000
0000
0000
0000
0000
0000
0000
0000
0000
0000
0220
0330
0000
0000
0000
0000
0000
0000
0000
0000
0000
0000
0000
0000
0000
0000
0000
0000
0000
0000
0000
0000
0000
0000
0000
0000
0000
0000
0000
0000
0000
0000
0000
0000
0000
0000
0000
0000
0000
0000
0000
0000
0000
0000
0000
0000
0000
0000
1001
0000
0000
0000
0000
0000
0000
0000
0000
0000
0000
0000
0000
0000
0000
0000
0000
0000
0000
0000
0000
0000
0000
0000
0000
0000
0000
0000
0000
0000
0000
0000
0000
0000
0000
0000
0000
0000
0000
0000
0000
0000
0000
0000
0000
0000
0000
0000
,
0001
0100
0001
1000
0001
0100
0001
0010
0100
1000
0001
1000
0100
1000
0001
1000
,
0010
1000
0100
0010
0001
0010
1000
0010
0100
1000
0001
0100
1000
0100
0010
1000
,
0001
0010
0001
1000
0001
0010
0001
0100
0010
1000
0100
1000
0010
1000
0001
0010
,
0100
1100
0011
0000
1001
0000
1001
0000
,
1000
0100
1000
0001
1000
0100
1000
0010
0100
0001
0010
0001
0100
0001
1000
0001
,
0100
0010
1000
0010
0001
0010
1000
0001
1000
0100
0001
0100
1000
0010
0100
0001
,
1000
0001
0010
0001
0100
0010
1000
0001
1000
0100
1000
0001
1000
0010
0100
0000
,
0001
0000
0000
1000
0000
0000
0001
0010
0100
1000
0001
0010
0100
0000
0000
0000
0000
0000
0110
0000
0000
0000
0000
0000
,
0001
0010
0100
0010
0001
0010
1000
0010
0001
1000
0010
0100
0010
1000
0010
0001
,
0010
1000
0100
0010
0100
1000
0100
0001
0100
1000
0001
0100
0010
0100
0001
0100
,
1000
0100
0001
0010
0100
1000
0001
1000
0100
0010
0001
1000
0001
0010
0100
1000
,
0001
0010
0100
1000
0001
0010
0100
0000
0000
0000
0000
0000
0110
0000
0000
0000
0000
0000
1001
0000
0000
0000
0000
0000
,
0001
0100
0010
0100
0001
1000
0001
0010
1000
0010
0001
1000
0100
0010
0100
1000
,
0001
0000
0000
1000
0000
0000
0010
0000
0000
0001
0000
0000
0010
0000
0000
1000
0000
0000
0001
0000
0000
1000
0000
0000
0100
0000
0000
0010
0000
0000
0001
0000
0000
0010
0000
0000
0100
0000
1000
0000
0001
0000
0010
0000
0100
0000
1000
0000
,
0001
0100
0001
0100
0010
0100
0001
0010
0100
1000
0100
1000
0010
0100
0001
0100
,
0101
0000
1000
0100
1000
0100
0010
0100
1000
0010
0100
0001
0010
0001
0010
0100
,
1100
0000
1000
0000
0001
0010
0000
0020
,
0000
0000
0000
0000
,
0230
0000
0000
0000
,
0300
0000
0000
0000
,
0000
0000
0000
0000
,
0M00
0M00
0M00
0M00
0M00
0M00
0M00
0M00
0M00
0M00
0M00
0M00
0M00
0M00
0M00
0M00
0M00
0M00
0M00
0M00
0M00
0M00
0M00
0M00
0M00
0M00
0M00
0M00
0M00
0M00
0M00
0M00
0M00
0M00
0M00
0M00
0M00
0M00
0M00
0M00
0M00
0M00
0M00
0M00
0M00
0M00
0M00
0M00
0M00
0M00
0M00
0M00
0M00
0M00
0M00
0M00
0M00
0M00
0M00
0M00
0M00
0M00
0M00
0M00
0M00
0M00
0M00
0M00
0M00
0M00
0M00
0M00
0M00
0M00
0M00
0M00
0M00
0M00
0M00
0M00
0M00
0M00
0M00
0M00
0M00
0M00
0M00
0M00
0M00
0M00
0M00
0M00
0M00
0M00
0M00
0M00
0M00
0M00
0M00
0M00
0M00
0M00
0M00
0M00
0M00
0M00
0M00
0M00
0M00
0M00
0M00
0M00
0M00
0M00
0M00
0M00
0M00
0M00
0M00
0M00
0M00
0M00
0M00
0M00
0M00
0M00
0M00
0M00
0M00
0M00
0M00
0M00
0M00
0M00
0M00
0M00
0M00
0M00
0M00
0M00
0M00
0M00
0M00
0M00
0M00
0M00
0M00
0M00
0M00
0M00
0M00
0M00
0M00
0M00
0M00
0M00
0M00
0M00
0M00
0M00
0M00
0M00
0M00
0M00
0M00
0M00
0M00
0M00
0M00
0M00
0M00
0M00
0M00
0M00
0M00
0M00
0M00
0M00
0M00
0M00
0M00
0M00
0M00
0M00
0M00
0M00
0M00
0M00
0M00
0M00
0M00
0M00
,
0M00
0000
0000
0000
;
