#TITLE:センシティブ・ゴースト;
#SUBTITLE:;
#ARTIST:瀬名航 feat 初音ミク;
#TITLETRANSLIT:Sensitive Ghost;
#SUBTITLETRANSLIT:;
#ARTISTTRANSLIT:Sena Wataru;
#GENRE:POP;
#CREDIT:;
#MUSIC:Sensitive Ghost.ogg;
#BANNER:Sensitive Ghost.png;
#BACKGROUND:Sensitive Ghost-bg.png;
#CDTITLE:;
#SAMPLESTART:52.738;
#SAMPLELENGTH:13.500;
#SELECTABLE:YES;
#OFFSET:-0.024;
#BPMS:0.000=140.000
,116.500=70.000
,117.000=140.000
;
#STOPS:20.000=2.786;
#BGCHANGES:3.000=Sensitive Ghost.avi=1.000=0=0=0=StretchNoLoop====,
99999.000=-nosongbg-=1.000=0=0=0=StretchNoLoop====
;
#FGCHANGES:;

//--------------- dance-single - ----------------
#NOTES:
     dance-single:
     :
     Medium:
     12:
     0,0,0,0,0:
0000
0000
0000
0000
,
0000
0000
0000
0000
,
0000
0000
0000
0000
,
0000
0000
0000
0000
,
0000
0000
0000
0000
,
0002
0000
0003
0000
1000
0000
0001
0100
,
0001
0000
1000
0100
1000
0000
0001
0100
,
0010
0000
1010
0010
0100
0000
0001
0010
,
0001
0000
1000
0010
1000
0000
0001
0010
,
0100
0000
0110
0100
1000
0000
0010
1000
,
0001
0000
0010
0001
1000
0000
0010
0100
,
0101
2010
0001
0100
,
0001
0000
3010
0200
0000
0302
0000
0023
,
0000
0230
0000
1300
0001
0100
0001
1000
,
0100
1000
0010
0100
0010
1000
0001
1000
,
0100
0100
0001
0010
0001
1000
0010
0100
,
0010
1000
0001
0010
0100
1000
0001
1000
,
0010
0010
0001
0100
1000
0100
0001
0010
,
1000
0010
0001
1000
0010
0100
0001
0010
,
0100
1000
0001
0200
0000
0302
0000
0023
,
0000
0130
1000
0020
0000
0230
0000
0302
,
0000
2003
0000
3010
0000
0010
0100
0000
,
0001
0000
1000
0010
0100
0001
1000
0000
,
0100
0000
0100
1000
0100
0010
0100
1000
,
0001
0010
0100
1000
0001
0011
0000
0001
,
1000
1010
0000
0001
0010
0100
0000
1000
,
0010
0100
0000
0001
0100
0010
0000
1000
,
0100
0010
0000
0011
0000
1100
0000
1010
,
0000
0101
0000
1001
0000
0110
0000
1001
,
0000
2000
3001
0100
1000
0100
0001
0100
,
1000
0100
0001
0010
0100
0000
0100
1000
,
0002
0000
1003
0100
0001
0100
1000
0100
,
0001
0100
1000
0010
0100
0000
0100
0001
,
2000
0000
3001
0010
1000
0010
0001
0010
,
1000
0010
0001
0100
0010
1000
0001
0000
,
0001
0010
0100
0000
0100
1000
0001
0000
,
0001
0100
0101
0000
1010
0000
0110
0000
,
1001
0000
0001
0100
1000
0100
0001
0010
,
1000
0010
0001
0100
0010
1000
0001
0000
,
0102
0000
1003
0100
0001
0100
1000
0010
,
0001
0010
1000
0100
0010
0001
1000
0000
,
2100
0000
3001
0100
1000
0001
0010
1000
,
0100
0001
1000
0010
0001
0100
0010
0000
,
0100
0001
0010
0100
1000
0010
0100
0001
,
1000
0100
0011
0000
1100
0000
1010
0100
,
0001
1000
0100
0000
0100
1000
0010
0000
,
0010
0100
0001
0000
0010
0100
2000
0001
,
3001
0000
0000
0000
1000
0000
0010
0000
0100
0001
0000
0010
0000
0001
0000
0010
,
0100
1000
0010
0100
0001
1000
0200
0000
,
2300
0000
0000
0000
3001
0000
0100
0000
0010
0100
0000
0001
0000
0010
0000
0001
,
1000
0010
0100
0001
0010
0100
2000
0000
,
3020
0000
0000
0000
0130
0000
0001
0000
1000
0100
0000
0010
0000
0100
0000
1000
,
0001
0100
1000
0100
0001
0010
0200
0000
,
1300
0000
0001
0000
0100
0000
0001
0000
1000
0010
0000
0100
0000
0001
0000
1000
,
0100
0010
0200
0000
2300
0000
3002
0000
,
0203
0310
0000
0000
;

//--------------- dance-single - ----------------
#NOTES:
     dance-single:
     :
     Hard:
     15:
     0,0,0,0,0:
0000
0000
0000
0000
,
0000
0000
0000
0000
,
0000
0000
0000
0000
,
0000
0000
0000
0000
,
0000
0000
0000
0000
,
2001
0000
3001
0100
0001
1000
0010
0100
,
0001
0100
0010
1000
0100
0010
0001
1000
,
0010
0100
0101
0001
1000
0001
0010
0100
,
0010
0001
1000
0100
1000
0001
0100
0010
,
1000
0010
0110
0100
0001
1000
0100
1000
,
0001
0010
0001
1000
0010
1000
0001
0100
,
0101
2010
0001
0100
,
0001
0000
3010
0200
0000
0302
0000
0023
,
0000
0000
0230
0000
0300
0000
1100
0000
1000
0010
0100
0000
0010
0100
0010
0000
,
0100
0001
1000
0000
0001
1000
0001
0000
0010
0001
1000
0000
0100
1000
0010
0000
,
0100
0000
0100
0000
0001
0010
0100
0000
1000
0010
1000
0000
0010
0100
0001
0000
,
0010
0100
0010
0000
0100
1000
0010
0000
0100
0001
0100
0000
0010
1000
0001
0000
,
0010
0000
0010
0000
0100
0000
1000
0000
0001
0100
0010
0000
0100
0001
1000
0000
,
0100
1000
0010
0000
0100
0001
0010
0000
0100
1000
0001
0000
0100
0010
1000
0000
,
0001
0010
0100
0000
1000
0000
0001
0000
1000
0010
0001
0000
0010
0000
0100
0000
,
0001
0010
1000
0000
0010
0000
0002
0000
0000
0000
2003
0000
0000
0000
3020
0000
,
0000
0000
0230
0000
0000
0000
0301
0000
0001
0000
0001
0000
0100
0010
0100
0000
,
0001
0000
1000
0010
1000
0010
0100
0000
0001
0010
0001
0000
1000
0100
1000
0000
,
0010
0000
0100
0001
0100
0001
0010
0000
0100
0000
1000
0000
0010
0100
0010
0000
,
1000
0000
0001
0010
0001
0000
1000
0000
0001
0010
0100
0000
0010
0000
0001
0000
,
1000
0010
0100
0000
0010
0000
0110
0000
0100
0001
1000
0000
0001
0010
0100
0000
,
0010
0000
0001
0000
1000
0001
0100
0000
0010
1000
0100
0000
0010
0001
1000
0000
,
0001
0000
0100
0000
0010
1000
0001
0000
0000
0010
0100
0000
1000
0000
0001
0100
,
0001
0100
0001
0000
0010
0000
1100
0000
0000
1000
0010
0000
0110
0000
0100
0001
,
0010
0100
2000
0000
3010
0000
1001
0000
0010
0000
1001
0000
0010
0000
1001
0000
,
0010
0000
1001
0000
0010
0000
1000
0010
0100
0000
0010
0000
1000
0000
0001
0010
,
0200
0000
0310
1001
0010
1001
0010
1001
,
0010
0000
1001
0000
0010
0000
1000
0010
0100
0000
0010
0000
1000
0000
0001
0010
,
0200
0000
0310
1001
0100
1001
0010
1001
,
0100
0000
1001
0000
0010
0000
1000
0100
0010
0000
0100
0000
1000
0000
0001
0100
,
0010
0000
0100
0000
0001
0000
1000
0100
0001
0000
0100
0000
1000
0000
0001
0100
,
1000
0000
0100
0000
0001
0010
0100
1000
0001
0000
0100
0000
0010
0000
0100
0000
,
0001
1000
0011
1100
0011
1100
0011
1100
,
0011
0000
1100
0000
1000
0000
0001
0010
0100
0000
1000
0000
0001
0000
1000
0010
,
0200
0300
1010
0101
1010
0101
1010
0101
,
1010
0000
0101
0000
0001
0000
1000
0010
0100
0000
0010
0000
1000
0000
0001
0010
,
0200
0300
0011
1100
1010
0101
0011
1100
,
1010
0000
0101
0000
0001
0000
1000
0010
0100
0000
0010
0000
1000
0000
0001
0010
,
0100
0000
0010
0000
0001
0000
1000
0010
0001
0000
0010
0000
0100
0000
0001
0010
,
1000
0000
0010
0000
0100
0010
0001
0100
1000
0000
0100
0000
0010
0000
1000
0000
,
0100
0000
0010
0000
0001
0000
0100
0010
0100
0000
0001
0000
1000
0100
0010
0001
,
1000
0000
0010
0000
0100
0001
1000
0100
0010
0000
0100
0000
2000
0000
0001
0000
,
3002
0000
0000
0000
1003
0000
0010
0000
0100
0001
0000
0010
0000
0001
0000
0010
,
0100
1000
0001
0000
0100
0000
0010
1000
0001
0000
0010
0000
0100
0000
1000
0010
,
0002
0000
0000
0000
0013
0000
1000
0000
0100
1000
0000
0010
0000
1000
0000
0010
,
0100
0001
0010
0000
0100
0000
1000
0010
0100
0000
0001
0000
0100
0000
0001
0010
,
2000
0000
0000
0000
3010
0000
0001
0000
0100
0010
0000
0010
1000
0100
0010
0001
,
1000
0000
0001
0100
0010
0000
0100
0001
1000
0000
0100
0000
0010
0000
0100
1000
,
0010
0100
0001
0010
0100
0010
0001
0000
0001
0100
0000
0100
0010
1000
0100
0010
,
0001
0000
0100
0000
0020
0000
0000
0000
2030
0000
0000
0000
3002
0000
0000
0013
,
0100
0110
0000
0000
;

//--------------- dance-single - ----------------
#NOTES:
     dance-single:
     :
     Challenge:
     17:
     0.733521,0.859124,0.050241,0,0.59787,511,506,5,0,0,0,0.733521,0.859124,0.050241,0,0.59787,511,506,5,0,0,0:
0000
0000
0000
0000
,
0000
0000
0000
0000
,
0000
0000
0000
0000
,
0000
0000
0000
0000
,
0000
0000
0000
0000
,
2002
0000
0000
0000
3003
0000
0000
0000
0001
0000
1000
0100
0010
0000
0100
1000
,
0001
0010
0100
0000
1000
0000
0001
0000
1000
0000
0010
0000
0100
0000
0001
0100
,
0010
0100
0001
0000
1000
0000
0100
0000
1000
0000
0001
0000
0100
0000
0010
0100
,
0001
1000
0100
0000
0010
0000
0100
0000
1000
0000
0001
0000
0100
0000
0010
1000
,
0001
0010
0100
0000
1000
0000
0001
0000
0100
0000
0001
0000
1000
0000
0010
0100
,
0001
0000
0010
0000
0100
0000
0010
0000
0001
0000
1000
0000
0001
0000
0100
0010
,
0100
0001
1000
0000
2100
0000
0001
0000
0100
0000
3000
0000
0110
0000
0001
0010
,
0100
0000
1000
0000
0010
0000
2000
0000
0001
0000
3200
0000
0010
0000
2300
0001
,
3200
0001
0320
0000
0130
0000
1100
0000
1000
0010
0100
0000
0010
0100
0001
0010
,
0100
1000
0010
0000
0001
0010
0100
0000
0010
1000
0100
0010
0100
1000
0010
0000
,
1010
0000
0101
0000
0001
0010
0100
0000
1000
0010
0100
0000
0010
1000
0100
0010
,
0100
1000
0001
0000
1000
0010
0100
0000
0010
1000
0001
0000
0010
0100
1000
0010
,
0100
0010
0001
0000
0010
1000
0100
0000
0010
0001
0100
0000
0010
1000
0100
0010
,
0001
1000
0010
0000
0100
0001
1000
0000
0100
1000
0010
0000
0100
0001
0010
0000
,
0001
0010
1000
0000
0010
0001
1000
0000
0001
0100
0020
0000
0230
0000
0320
0000
,
1030
0001
0020
0000
0230
0000
2300
0000
0000
0000
3002
0000
0000
0000
0023
0000
,
0000
0000
0000
0230
0000
0000
0300
0000
0000
1100
0000
0000
1100
0000
0000
1100
0000
0000
0001
0010
0100
1000
0000
0000
,
0001
0000
0000
0000
0000
0000
0100
0000
0000
0010
0000
0000
1000
0000
0000
0010
0000
0000
0100
0000
0000
0000
0000
0000
0001
0000
0000
0010
0000
0000
0001
0000
0000
0000
0000
0000
1000
0000
0100
0000
0010
0000
0001
0000
0000
0000
0000
0000
,
1000
0000
0000
0010
0000
0000
0100
0000
0001
0000
0100
0000
0001
0000
0100
0000
0001
0000
0010
0000
0000
0000
0000
0000
0110
0000
0000
0000
0000
0000
0110
0000
0000
0000
0000
0000
0100
0000
1000
0000
0100
0000
1000
0000
0000
0000
0000
0000
,
0001
0000
0000
0000
0000
0000
0100
0000
0000
0001
0000
0000
1000
0000
0000
0100
0000
0000
0001
0000
0000
0000
0000
0000
0100
0000
1000
0000
0100
0000
1000
0000
0000
0000
0000
0000
0001
0000
0000
0100
0000
0000
1000
0000
0000
0000
0000
0000
,
0100
0000
0001
0000
0100
0000
0001
0000
0000
0000
0000
0000
1000
0000
0000
0000
0000
0000
1001
0000
0000
0000
0000
0000
0001
0000
0000
0010
0000
0000
0100
0000
0000
0000
0000
0000
1000
0000
0100
0000
1000
0000
0100
0000
0000
0000
0000
0000
,
0010
0000
0000
0001
0000
0000
1000
0000
0000
0000
0000
0000
0001
0000
0100
0000
0001
0000
0100
0000
0000
0010
0000
0000
1000
0000
0000
0001
0000
0000
0010
0000
0000
0000
0000
0000
0100
0000
0000
1000
0000
0000
0010
0000
0000
0100
0000
0000
,
0001
0100
1000
0000
0100
0001
0010
0000
0100
1000
0001
0000
0010
0000
1100
0000
,
1000
0001
0100
0000
0110
0000
1001
0000
0000
0001
0010
0000
0110
0000
0100
1000
,
0001
0000
0010
0000
0100
0000
2000
0000
0000
0000
0000
0000
3001
0000
0000
0100
0000
0000
1000
0000
0000
0100
0000
0000
0001
0000
0000
0100
0000
0000
1000
0000
0000
0100
0000
0000
0001
0000
0000
0100
0000
0000
1000
0000
0000
0100
0000
0000
,
0001
0000
0000
0100
0000
0000
0010
0000
0000
0000
0000
0000
0100
0000
0000
0000
0000
0000
0001
0000
0000
0010
0000
0000
0100
0000
0000
0000
0000
0000
1000
0000
0000
0000
0000
0000
0001
0000
0000
0000
0000
0000
1000
0000
0010
0000
0100
0000
,
0002
0000
0000
0000
1003
0100
0001
0100
1000
0100
0001
0100
1000
0100
0001
0100
,
1000
0000
0000
0100
0000
0000
0010
0000
0000
0000
0000
0000
0100
0000
0000
0000
0000
0000
1000
0000
0000
0010
0000
0000
0100
0000
0000
0000
0000
0000
0001
0000
0000
0000
0000
0000
1000
0000
0000
0000
0000
0000
0001
0000
0010
0000
0100
0000
,
2000
0000
0000
0000
3001
0010
1000
0010
0001
0010
1000
0010
0001
0010
1000
0010
,
0001
0010
0100
0000
1000
0000
0001
0100
0010
0000
0100
0000
0001
0010
0100
1000
,
0001
0000
0000
0000
0000
0000
0100
0000
0010
0000
0100
0000
0010
0000
0000
0000
0000
0000
1000
0000
0000
0001
0000
0000
0010
0000
0000
0000
0000
0000
0100
0000
0000
0000
0000
0000
0001
0000
0000
0100
0000
0000
0010
0000
0000
0100
0000
0000
,
1000
0000
0001
0000
1000
0010
0100
0010
0001
0000
0010
0000
1000
0000
1010
0000
,
0101
0000
0000
0000
0000
0000
1001
0000
0000
0000
0000
0000
0001
0000
0010
0000
0001
0000
0010
0000
0100
0000
1000
0000
0001
0000
0000
0100
0000
0000
1000
0000
0000
0100
0000
0000
0001
0000
0000
0010
0000
0000
1000
0000
0000
0010
0000
0000
,
0001
0000
0000
0100
0000
0000
0010
0000
0000
0000
0000
0000
0110
0000
0000
0000
0000
0000
0100
0000
0000
0001
0000
0000
0010
0000
0000
0000
0000
0000
0110
0000
0000
0000
0000
0000
1100
0000
0000
0000
0000
0000
1000
0000
0010
0000
1000
0000
,
0010
0000
0100
0001
1000
0100
0001
0100
1000
0010
0001
0010
1000
0100
0001
0100
,
1000
0000
0000
0010
0000
0000
0100
0000
0000
0000
0000
0000
0110
0000
0000
0000
0000
0000
0010
0000
0000
1000
0000
0000
0100
0000
0000
0000
0000
0000
0110
0000
0000
0000
0000
0000
0011
0000
0000
0000
0000
0000
0001
0000
1000
0000
0001
0000
,
1000
0000
0010
1000
0100
0010
0001
0100
1000
0001
0010
1000
0100
0001
1000
0010
,
0001
0100
0010
0000
1010
0000
1000
0010
0100
0000
0101
0000
0001
0010
0100
1000
,
0010
0000
0100
0001
1000
0000
0001
0010
2000
0000
0010
0000
3010
0100
1000
0010
,
0002
0000
0000
0000
0000
0000
0010
0000
0000
0000
0000
0000
0013
0000
0000
0100
0000
0000
0001
0000
0000
0010
0000
0000
0200
0000
0000
0000
0000
0000
2300
0000
0000
0000
0000
0000
3001
0000
0010
0000
0100
0000
1000
0000
0001
0000
0010
0000
,
0100
1000
0100
1000
0001
0000
0100
0010
0100
0000
0001
0000
1000
0100
0010
0001
,
1000
0000
0000
0000
0000
0000
0001
0000
0000
0000
0000
0000
0100
0000
0000
0001
0000
0000
1000
0000
0100
0000
1000
0000
0100
0000
0000
0000
0000
0000
0010
0000
0000
0000
0000
0000
0100
0000
0000
0000
0000
0000
1100
0000
0000
0000
0000
0000
,
1100
0000
0000
0000
1000
0000
0001
0000
1000
0020
0000
0100
0000
0100
0000
0130
,
0001
0000
0000
0010
0000
0000
0100
0000
0000
0000
0000
0000
0010
0000
0000
0000
0000
0000
0001
0000
0010
0000
0100
0000
1000
0000
0000
0000
0000
0000
0010
0000
0000
0000
0000
0000
0100
0000
0000
0000
0000
0000
0001
0000
0010
0000
0100
0000
,
1000
0000
0000
0000
0001
0000
1000
0000
0001
0020
0000
0100
0000
0100
0000
0130
,
1000
0000
0000
0010
0000
0000
0100
0000
0000
0000
0000
0000
0001
0000
0000
0000
0000
0000
1000
0000
0010
0000
0100
0000
0001
0000
0000
0000
0000
0000
0010
0000
0000
0000
0000
0000
0100
0000
0000
0000
0000
0000
1000
0000
0010
0000
0100
0000
,
0001
0000
0001
0010
0100
0010
0100
1000
0100
0010
0000
0010
0001
1000
0010
0100
,
0001
0000
0010
0000
0100
0000
1000
0000
0000
0001
0000
0000
0100
0000
0000
0000
0000
0000
0010
0000
1000
0000
0100
0000
0010
0000
0000
0000
0000
0000
0100
0000
0000
0000
0000
0000
1000
0000
0000
0000
0000
0000
0010
0000
0100
0000
0001
0000
,
0010
0100
1000
0100
1000
0001
0100
0000
0100
0010
0000
0010
1000
0100
0001
0100
,
1000
0000
0000
0000
0000
0000
0001
0000
0010
0000
0100
0000
2000
0000
0000
0000
0000
0000
0000
0000
0000
0000
0000
0000
3020
0000
0000
0000
0000
0000
0000
0000
0000
0000
0000
0000
0230
0000
0000
0000
0000
0000
0000
0000
0000
0301
0000
0000
,
1000
0110
0000
0000
;
