#TITLE:晴天を穿つ;
#SUBTITLE:;
#ARTIST:傘村トータ Covered by カシ・オトハ;
#TITLETRANSLIT:Seiten wo Ugatsu;
#SUBTITLETRANSLIT:;
#ARTISTTRANSLIT:kasamura tota covered by Kashi Otoha;
#GENRE:POP;
#CREDIT:;
#MUSIC:Seiten wo Ugatsu.ogg;
#BANNER:Seiten wo Ugatsu.png;
#BACKGROUND:Seiten wo Ugatsu-bg.png;
#CDTITLE:;
#SAMPLESTART:44.792;
#SAMPLELENGTH:13.409;
#SELECTABLE:YES;
#OFFSET:1.799;
#BPMS:0.000=132.000;
#STOPS:;
#LASTBEATHINT:1.757800;
#BGCHANGES:4.500=Seiten wo Ugatsu.avi=1.000=0=0=0=StretchNoLoop====,
99999.000=-nosongbg-=1.000=0=0=0=StretchNoLoop====
;
#FGCHANGES:;

//--------------- dance-single - ----------------
#NOTES:
     dance-single:
     :
     Hard:
     13:
     0,0,0,0,0:
0000
0000
0000
0000
,
0000
0000
0000
0000
,
0001
0000
1000
0100
0000
1000
0000
1000
0000
0001
0100
0000
0010
0000
0000
0000
,
1000
0000
0001
0100
0000
0001
0000
0010
0000
0010
0100
0000
1000
0000
0010
0000
,
0100
0000
0001
1000
0000
0010
0000
0010
0000
0100
0001
0000
1000
0000
0100
0000
,
0010
0000
0100
1000
0000
0001
0000
0100
0000
0100
0010
0000
1000
0000
0100
0000
,
0001
0000
0100
1000
0000
0010
0000
0010
0000
0100
0001
0000
0010
0000
0000
0000
,
0100
0000
1000
0001
0000
0100
0000
0010
0000
0010
1000
0000
0001
0000
0100
0000
,
0001
0000
1000
0100
1000
0000
0001
0000
1000
0010
1000
0000
0002
0000
0000
0000
,
1003
0000
0001
0100
0001
0000
1000
0000
0001
0010
0001
0000
1000
0000
0010
0000
,
0110
0000
0100
0001
0000
0001
0010
0100
,
1000
0000
0001
0100
0000
0001
1000
0000
0000
0000
0010
0000
0010
0000
0100
0000
,
0001
0000
1000
0100
0000
0100
0001
0100
,
1000
0000
0010
0100
0000
0001
1000
0000
0000
0000
0001
0000
0010
0000
1000
0000
,
0010
0000
0000
0000
0001
0000
0100
0010
0000
0000
0000
0000
1000
0000
0010
0000
,
0100
0000
0001
0000
0010
0000
0100
1000
0001
0000
0000
0000
0100
0000
0010
0000
,
1000
0000
0100
0000
0010
0000
0001
0000
0010
0000
0100
0000
1000
0000
0001
0100
,
0000
0000
0010
0100
0000
0010
0000
1000
0100
0010
0000
0001
1000
0000
0010
0000
,
0100
0000
0100
0001
0010
0001
0100
0001
,
1000
0000
1000
0100
1000
0010
1000
0001
,
0100
0000
0010
0100
0001
0010
0100
1000
,
0001
0000
0001
1000
0001
1000
0100
0010
,
0001
0100
0000
0001
0100
0000
0010
1000
0000
0010
1000
0000
0001
0000
0000
0000
,
1000
0100
0000
1000
0100
0000
0010
0001
0000
0010
0001
0000
1000
0000
0000
0000
,
0001
0000
0100
0010
0000
0000
1000
0000
0100
0010
0000
0000
0100
0000
0010
0000
,
0001
1000
0000
0001
1000
0000
0001
1000
0000
0001
1000
0000
0010
0000
0100
0000
,
0001
0000
0010
0100
0000
0100
1000
0100
0000
0010
0000
0001
0000
1000
0000
0010
,
0100
0000
0002
0010
0000
0010
0000
0023
0000
0000
0000
0000
0130
0000
1000
0000
,
0001
0000
1000
0010
0100
0001
0010
0100
,
1000
0001
0100
1000
0100
0001
0000
0001
,
0010
0000
0000
0010
0100
0000
1000
0000
0000
0000
1001
0000
0000
0000
1000
0000
,
0010
0000
0100
0001
0000
0010
0000
0010
0000
0100
2000
0000
3001
0000
0100
0000
,
0010
0000
0100
0000
0010
0000
1000
0000
0001
0000
0000
0000
1000
0000
0010
0100
,
0010
0000
1000
0001
0000
0010
0000
0100
2000
0000
0000
0000
3010
0000
0000
0000
,
1000
0000
0000
1010
0000
0000
0001
0000
0000
0101
0000
0000
0100
0000
0001
0000
,
0010
0000
0000
0011
0000
0000
1000
0000
0000
1100
0000
0000
0100
0000
1000
0000
,
0001
0000
0000
0110
0000
0000
1000
0000
0000
0110
0000
0000
0001
0000
1000
0000
,
0001
0000
0010
0000
0100
0010
0000
0010
0001
0000
0001
1000
0000
1000
0010
0000
,
0100
0000
0000
0101
0000
0000
0001
0000
0000
1100
0000
0000
1000
0000
0001
0000
,
0010
0000
0000
0100
0000
0000
1000
0000
0000
0001
0000
0000
0100
0000
1000
0000
,
0200
0000
0000
0301
0000
0000
0002
0000
0000
1003
0000
0000
1000
0000
0100
0000
,
0001
0000
0100
1000
0000
0000
0001
0000
0100
1000
0000
0000
0100
0000
0001
0000
,
0010
0000
0000
0110
0000
0000
1001
0000
0000
0000
0001
0000
0100
0000
0001
0000
,
0100
0000
0010
1000
0000
0001
0010
0100
,
0010
0001
1000
0010
0000
0100
0001
0100
,
0010
0000
0010
1000
0000
1000
0100
0010
,
0001
0010
0100
1000
0000
0001
0100
0010
,
1000
0000
0000
1010
0000
0000
0001
0000
0000
0011
0000
0000
1000
0000
0100
0000
,
0010
0000
0000
0110
0000
0100
1000
0000
0000
0001
0100
0000
0110
0000
0000
0000
,
1000
0010
0100
0001
1000
0001
0010
0100
,
1000
0001
1000
0001
0010
0100
0010
0100
,
2000
0000
0000
0000
,
3001
0000
0000
0101
0000
0000
1000
0000
0000
1100
0000
0000
0001
0000
1000
0000
,
0001
0010
0100
1000
0001
0010
0100
0010
,
0100
0000
0100
1000
0000
1000
0010
0100
0000
0010
0100
0001
0000
0001
0010
1000
,
0001
0000
0200
1000
0000
1000
0000
2300
0000
0000
0000
0000
3001
0000
0100
0000
,
0001
0010
1000
0001
0100
0010
0001
1000
,
0010
0000
0001
0000
1000
0000
0100
0000
0010
1000
0002
0000
0000
0000
0013
0000
,
0110
0000
0000
0100
1000
0000
0002
0000
0000
0000
0103
0000
0000
0000
0010
0000
,
0100
0000
0001
0010
0000
0100
0000
1000
0001
1000
0020
0000
0000
0000
0130
0000
,
0001
0000
1000
0000
0100
0000
0010
0000
0001
0000
1000
0000
0010
0000
0100
0001
,
0000
0000
0001
0010
0000
0100
0000
0100
0010
0000
0001
0000
1000
0010
1000
0000
,
0001
0000
0000
0100
0010
0000
0010
0000
0000
1000
0100
0000
0010
0000
0100
0000
,
1000
0000
0000
1000
0010
0000
0100
0000
0000
0100
0001
0000
1000
0000
0001
0000
,
0010
0000
0000
0100
1000
0000
0001
0000
0000
0001
0100
0000
0010
0000
0100
0000
,
0010
0000
0010
1000
0000
0001
0000
1000
0000
0001
0010
0000
0100
0000
1000
0000
,
0001
0000
0100
0010
0000
0010
0000
1000
0000
0001
0010
0000
0110
0000
0000
0000
,
1000
0000
0001
0010
0000
0010
0000
0100
0000
1000
0001
0000
0100
0000
0010
0000
,
1000
0000
0100
0010
0100
0000
1000
0000
0010
0100
0010
0000
2000
0000
0000
0000
,
3001
0000
0010
0100
0010
0000
0001
0000
0100
0010
0100
0000
0002
0000
0000
0000
,
0103
0000
0001
1000
0001
0000
0010
0000
0001
1000
0001
0000
0200
0000
0000
0000
,
0310
0000
1000
0001
1000
0000
0100
0000
1000
0001
1000
0000
0020
0000
0000
0000
,
0130
0000
0000
0000
;

//--------------- dance-single - ----------------
#NOTES:
     dance-single:
     :
     Challenge:
     15:
     0.627066,0.758933,0,0,0.094114,583,583,0,0,0,0,0.627066,0.758933,0,0,0.094114,583,583,0,0,0,0:
0000
0000
0000
0000
,
0000
0000
0000
0000
,
1001
0000
0001
0100
0000
0010
0100
0001
0000
0010
0100
0000
1100
0000
0000
0000
,
1001
0000
1000
0100
0000
0010
0100
1000
0000
0010
0100
0000
0100
0001
1000
0000
,
1001
0000
0001
0010
0000
0100
0010
0001
0000
0100
0010
0000
0010
1000
0001
0000
,
0011
0000
0010
0100
0000
1000
0000
0010
0000
0100
0001
0000
0001
1000
0100
0000
,
0110
0000
0010
0001
0000
1000
0010
0100
0000
0010
1000
0000
1100
0000
0000
0000
,
0110
0000
0100
1000
0000
0001
0100
0010
0000
1000
0001
0000
0001
0010
0100
0000
,
1000
0100
0010
0001
0010
0100
1000
0100
0010
0001
0010
0100
2000
0000
3001
0000
,
1000
0010
0100
0001
0100
0010
1000
0010
0100
0001
0100
0010
1000
0000
0100
0000
,
1001
0000
0001
0000
0100
0010
0100
0000
0000
0000
0010
1000
0001
1000
0001
0010
,
0100
1000
0100
0010
0001
1000
0010
0000
0000
0000
0100
0000
0110
0000
0010
0000
,
1001
0000
0000
0001
0010
0000
1100
0000
0000
0000
1000
0000
1001
0000
0010
0000
,
0010
0000
0100
0001
0000
0001
0010
0000
0000
0000
0100
0000
1000
0000
0100
1000
,
0001
0000
0000
0000
0101
0000
0001
1000
0000
0000
0010
0000
0100
0001
0010
0100
,
0010
0100
1000
0001
0100
0000
0010
1000
0001
0000
0011
0000
0100
0000
1000
0001
,
0200
0000
0320
0000
2030
0000
3200
0000
0320
0000
0032
0000
0023
0000
0130
2000
,
0000
0000
3010
0100
0000
0110
0000
0010
1000
0100
0010
0100
1000
0001
0010
0000
,
1100
0000
1000
0000
0001
0000
1000
0010
1000
0000
0001
1000
0000
0001
0010
0000
,
0100
0000
1000
0000
0001
0000
1000
0010
0100
0000
0010
1000
0000
0001
0010
0000
,
0110
0000
0000
0000
1000
0000
1100
0000
0100
0000
0010
0000
0001
1000
0001
0000
,
0100
0000
1000
0000
0100
0000
0001
0010
0000
0010
1000
0000
0001
0100
0010
0000
,
0001
0100
0000
0100
0001
0000
1000
0100
0000
0100
1000
0000
0010
0000
0100
0000
,
0001
0010
0100
0010
0001
0000
1000
0010
0100
0010
1000
0000
0001
1000
0000
0000
,
0110
0000
1000
0010
1000
0010
0100
0000
0001
0010
0001
0010
1000
0001
0100
1000
,
0010
0100
0000
0010
0100
0000
0010
0100
0000
0010
0100
0000
0100
0001
0010
0000
,
0100
0000
0100
1000
0000
1000
0001
0100
0000
0010
0100
0001
0000
0010
0100
1000
,
0020
0000
0032
1000
0000
1000
0000
2003
0000
3100
0001
0000
0010
0000
0100
0000
,
1001
0001
2000
3200
0320
0032
2003
3020
,
0230
0000
2300
0000
3200
0000
0301
0010
0100
1000
0010
0000
1001
0000
0100
0000
,
0110
0000
0000
0010
1000
0000
1100
0000
0000
0000
1001
0000
0001
0000
0010
0000
,
0100
0000
1000
0010
0000
0100
0000
0100
0001
0010
2000
0000
3010
0000
0100
0000
,
1000
0000
1000
0010
0000
0010
0001
0000
0110
0000
0001
0000
1000
0000
0001
0010
,
0000
0000
0100
1000
0000
0010
0000
0100
0001
0000
0001
0100
0001
0100
0001
0010
,
0100
0000
0000
0100
1000
0100
1000
0000
0000
1000
0010
0000
0110
0000
0100
0001
,
1000
0000
0001
0010
0001
0010
0100
1000
0000
1000
0010
0000
0100
0010
0001
0010
,
0100
0000
0100
0001
0010
0100
1000
0000
0000
0001
0100
0001
0100
1000
0100
0010
,
1000
0100
0010
0000
0100
0010
0001
0010
1000
0000
0001
0100
0000
0100
1000
0000
,
1001
0000
0001
0100
0000
0000
1000
0000
0000
0100
0001
0000
0010
0001
0010
0001
,
1000
0000
1000
0010
0000
0010
0001
0000
1000
0100
0001
0000
0010
0001
0100
0000
,
0010
0000
1000
0001
0000
0001
0010
0000
0010
0100
1000
0000
0010
0100
1000
0000
,
1100
0000
0100
0001
0000
0000
0011
0000
0010
0100
0000
1000
0001
0000
1000
0010
,
0100
0000
0000
0110
0000
0000
1001
0000
0000
0000
0001
0010
0100
1000
0001
0010
,
0100
0000
0000
1100
0000
0000
0000
0000
,
0010
0000
0000
0101
0000
0000
0000
0000
,
0100
0000
0000
1001
0000
0000
0000
0000
,
0001
0000
0000
0110
0000
0000
0000
0000
,
1100
0000
1000
0100
0010
0000
0001
1000
0100
0010
0000
0001
1000
0000
0010
0000
,
0100
0000
0001
0100
0000
0001
0100
0010
1000
0000
0001
0010
0100
1000
0000
1000
,
0010
0000
0100
0010
0000
0100
0001
0010
0100
1000
0000
0100
1000
0000
0001
0100
,
0001
0100
0010
0100
0010
1000
0001
1000
0001
0010
0100
0010
0100
1000
0100
1000
,
0020
0000
0000
0030
,
0110
0000
1000
0010
0100
0000
0110
0000
0001
0010
0100
0000
0110
0000
1001
0000
,
0001
0010
0100
1000
0001
0010
0100
1000
0001
1000
0100
0010
0001
0000
0100
0000
,
0110
0000
0010
1000
0000
1000
0100
0010
0000
0010
0001
0100
0000
1000
0100
0001
,
0020
0000
2030
0001
0000
0001
0000
3002
0000
0103
1000
0000
1000
0010
0100
0000
,
0101
0000
0010
0000
1100
0000
1000
0010
0100
0000
1000
0000
1100
0000
0100
0001
,
0010
0000
0100
1000
0020
0000
0031
0010
1000
0100
0002
0000
0103
0000
1000
0000
,
1001
0000
0001
0100
0010
0000
0100
0000
0001
0000
1000
0100
0010
0000
0001
0000
,
0011
0000
0010
0200
0000
2300
0000
3010
0001
1000
0200
0000
0301
0000
0010
0000
,
1000
0000
0001
0100
0000
0100
1000
0000
1010
0000
0010
0100
0001
0010
0100
0000
,
1100
0000
1000
0010
0000
0100
0000
0100
0001
0000
1000
0001
1000
0100
0010
0001
,
1000
0000
1000
0010
0000
0100
0001
0010
0000
0001
1000
0000
1010
0000
0100
0000
,
0101
0000
0001
0010
0000
0100
1000
0010
0000
1000
0001
0000
0100
0010
0100
0000
,
1001
0000
0001
0100
0000
0010
1000
0100
0000
1000
0001
0000
0010
0100
0010
0000
,
1001
0000
1000
0100
0000
0010
0000
0110
0000
0001
1000
0000
0001
0100
0010
0000
,
0110
0000
0100
0001
0000
1000
0100
0010
0000
0001
1000
0000
0110
0000
0000
0000
,
1001
0000
0001
0010
0000
0100
1000
0001
0000
0100
0010
0000
0100
0001
1000
0000
,
1000
0100
0010
0001
0010
0100
1000
0100
0010
0001
0010
0100
2000
0000
3001
0000
,
1000
0010
0100
0001
0100
0010
1000
0010
0100
0001
0100
0010
1000
0000
0000
0000
,
1000
0100
0010
0001
0010
0100
1000
0100
0010
0001
0010
0100
2000
0000
3001
0000
,
0001
0100
0010
1000
0010
0100
0001
0100
0010
1000
0010
0100
0002
0000
0000
0000
,
0013
0000
0000
0000
;
