#TITLE:すくりぃむ!;
#SUBTITLE:;
#ARTIST:P丸様。;
#TITLETRANSLIT:Scream!;
#SUBTITLETRANSLIT:;
#ARTISTTRANSLIT:Pmaru sama.;
#GENRE:ANIME;
#CREDIT:;
#BANNER:Scream!.png;
#BACKGROUND:Scream!-bg.png;
#LYRICSPATH:;
#CDTITLE:;
#MUSIC:Scream!.ogg;
#OFFSET:1.832000;
#SAMPLESTART:48.157001;
#SAMPLELENGTH:11.806000;
#LASTBEATHINT:2.095995;
#SELECTABLE:YES;
#BPMS:0.000000=155.000000
,114.000000=130.000000
,120.000000=155.000000
;
#STOPS:
;
#BGCHANGES:4.750=Scream!.avi=1.000=0=0=0=====,
99999=-nosongbg-=1.000=0=0=0 // don't automatically add -songbackground-
;
#KEYSOUNDS:;
#ATTACKS:;

//---------------dance-single - ----------------
#NOTES:
     dance-single:
     :
     Hard:
     13:
     0.677192,0.679534,0.549118,0.459466,0.100858,423.000000,374.000000,49.000000,41.000000,36.000000,0.000000,0.677192,0.679534,0.549118,0.459466,0.100858,423.000000,374.000000,49.000000,41.000000,36.000000,0.000000:
// measure 0
0000
0000
0000
0000
,  // measure 1
0000
0000
0000
0000
,  // measure 2
0001
0100
0001
0000
1000
0100
1000
0000
,  // measure 3
0001
0010
0100
1000
0000
1000
0010
0100
,  // measure 4
0101
0000
1010
0000
0101
0001
1000
0002
,  // measure 5
0000
0200
0003
0000
0301
1000
0001
1000
,  // measure 6
0010
0100
0001
1000
0001
0100
1000
0100
,  // measure 7
0101
0000
1010
0000
0101
0001
1100
1000
,  // measure 8
1001
0001
0100
0010
1000
0100
0001
0100
,  // measure 9
1100
0000
0011
0000
1100
1000
0101
0001
,  // measure 10
1000
0010
0002
0000
0013
0100
0010
0100
,  // measure 11
0001
0000
1000
0000
0001
0000
0100
0010
0100
0000
0001
1000
0001
0000
0010
0100
,  // measure 12
0010
0001
1000
0100
0020
0000
0130
1000
,  // measure 13
0020
0000
0100
0000
0130
0001
1000
0001
,  // measure 14
1000
0100
0000
0010
0001
1000
0000
1000
,  // measure 15
0010
0000
0100
0000
0001
0000
0010
0000
0100
0000
1000
0000
0000
0000
0001
0100
,  // measure 16
0001
0010
0100
0010
0001
1000
0010
0100
,  // measure 17
0000
0100
0001
0010
0000
0010
0100
1000
,  // measure 18
0001
1000
0000
0001
0100
0001
0000
0100
,  // measure 19
0010
0000
1000
0000
0100
0000
0010
0000
0001
0000
1000
0000
0000
0000
0001
0100
,  // measure 20
0001
0010
0100
1000
0001
1000
0010
0100
,  // measure 21
0000
0100
0001
1000
0000
0001
0010
0000
,  // measure 22
0100
1000
0001
0100
1000
0100
0001
0000
,  // measure 23
1000
0100
0010
0001
0011
0000
1001
0000
,  // measure 24
0001
1000
0100
0010
0001
1000
0100
0001
,  // measure 25
0100
0000
1000
0000
0001
0000
0010
0000
0100
0000
1100
0000
0101
0000
0001
1000
,  // measure 26
0100
0000
0010
0000
0100
0000
1000
0000
0020
0000
0000
0000
0130
0000
0001
1000
,  // measure 27
0100
0010
0001
1000
0020
0000
0130
0001
,  // measure 28
1000
0001
1000
0001
0020
0000
0130
1000
,  // measure 29
0000
1000
0001
0100
0020
0000
0000
0000
,  // measure 30
0030
0000
0000
0000
0000
0001
0010
0100
,  // measure 31
2000
0002
0000
0000
3000
0100
0100
0103
,  // measure 32
0101
1001
1100
1001
,  // measure 33
0001
0010
0100
1000
0000
0001
0100
1000
,  // measure 34
0100
0010
0100
0001
0010
1000
0010
0001
,  // measure 35
1000
0000
0001
0000
1000
0001
0010
0100
,  // measure 36
2200
0000
3300
0000
MM22
MM00
MM33
0000
0202
0000
0303
0000
2M2M
0M0M
3M3M
0000
,  // measure 37
0220
0000
0330
0000
1MM2
0MM0
1MM3
0000
0001
0000
0010
0000
0100
0000
1000
0000
,  // measure 38
0010
0100
0001
1000
1100
0000
0011
0000
,  // measure 39
0101
0000
1001
0001
0200
0010
0010
0310
,  // measure 40
0110
1001
0011
1100
,  // measure 41
1000
0010
0100
0001
0000
0010
0100
0001
,  // measure 42
0100
1000
0010
0100
1000
0100
0001
0010
,  // measure 43
0000
0100
0000
0100
1000
0001
0010
0100
,  // measure 44
2200
0000
3300
0000
MM22
MM00
MM33
0000
0202
0000
0303
0000
2M2M
0M0M
3M3M
0000
,  // measure 45
0220
0000
0330
0000
1MM2
0MM0
1MM3
0000
0001
0000
0100
0000
0010
0000
1000
0000
,  // measure 46
0010
0001
1000
0100
0001
0010
0100
2000
,  // measure 47
0000
0000
0002
0000
3000
0000
0103
0000
0010
0000
0100
0010
0100
0000
0010
0000
,  // measure 48
1000
0001
0010
0100
1000
0001
1000
0002
,  // measure 49
0000
0000
2000
0000
0000
0000
3000
0000
1003
0000
0010
0000
0100
0000
0010
0100
,  // measure 50
0010
0100
0001
1000
0001
0100
1000
0100
,  // measure 51
0101
0000
1010
0000
0101
0001
1100
1000
,  // measure 52
1001
0001
0100
0010
1000
0100
0001
0100
,  // measure 53
1100
0000
0011
0000
1100
1000
0101
0001
,  // measure 54
1000
0010
0002
0000
0013
0100
0010
0100
,  // measure 55
0001
0000
1000
0000
0001
0000
0100
0010
0100
0000
0001
1000
0001
0000
0010
0100
,  // measure 56
0010
0001
1000
0100
0020
0000
0130
1000
,  // measure 57
0020
0000
0100
0000
0130
0001
1000
0000
;

//---------------dance-single - ----------------
#NOTES:
     dance-single:
     :
     Challenge:
     17:
     1.035800,1.035480,0.661183,0.179304,1.053410,647.000000,588.000000,59.000000,16.000000,60.000000,0.000000,1.035800,1.035480,0.661183,0.179304,1.053410,647.000000,588.000000,59.000000,16.000000,60.000000,0.000000:
0000
0000
0000
0000
,
0000
0000
0000
0000
0000
0100
0100
0100
,
1001
0000
1000
0010
0100
0000
0010
0000
0110
0000
0001
0010
0100
0000
0010
0000
,
0001
0000
1000
0001
0100
0000
0020
0000
0000
0000
1030
0000
0001
0000
1000
0000
,
0010
0000
0100
0001
0010
0000
0100
0000
0010
0000
0100
1000
0010
0000
0100
0000
,
0001
0000
1000
0000
0001
0000
1000
0000
0001
0000
1000
0000
0001
0000
1000
0000
0001
0000
1000
0000
0001
0000
1000
0000
0010
0000
0000
0000
0000
0000
0100
0000
0000
0000
0000
0000
0001
0000
0000
0010
0000
0000
0001
0000
0000
0010
0000
0000
,
0100
0000
1000
0010
0100
0000
0001
0000
1100
0000
0010
0000
1100
0000
0001
0000
,
1000
0000
0010
1000
0100
0000
1000
0000
0101
0000
0010
0000
0101
0000
1000
0000
,
0001
0000
0010
0001
0100
0000
0001
0000
1100
0000
0010
0000
1100
0000
0001
0000
,
1000
0000
0010
0100
0001
0000
1000
0000
0110
0000
0001
0000
0110
0000
1000
0000
,
0010
0100
0010
0100
0010
0000
1000
0000
0101
0000
0010
0000
0101
0000
1000
0000
,
0001
0000
1000
0010
0100
0000
0001
1000
1100
0000
1000
0001
0101
0000
0001
1000
,
0100
0000
0010
0001
0100
0010
0100
0010
0001
0000
1000
0100
0010
0100
0010
1000
,
0001
0000
0010
0100
1000
0000
0001
0010
0100
0000
1000
0001
1000
0000
0010
0000
,
0110
0000
0000
0000
0000
0000
0010
0000
0000
0000
0010
0000
1000
0001
0010
0000
,
0011
0000
0000
0000
0000
0000
1001
0000
0000
0000
1000
0000
0001
0000
1000
0010
,
0100
0000
0000
0101
0000
0001
1000
0100
,
1100
0000
0000
0000
0000
0000
0000
0000
0000
1001
0000
0000
0000
0000
0000
1000
0100
0010
0001
0000
0000
1000
0000
0000
,
0110
0000
0000
1001
0000
0001
1000
0001
,
0101
0000
0100
0001
0010
0000
0100
0000
1000
0000
0001
0000
0100
0000
0010
1000
,
0001
0010
0100
1000
0001
0000
0100
0010
0000
0000
0100
0000
0001
1000
0100
0000
,
1000
0000
0000
0000
0001
0000
0000
0000
1000
0000
0000
0000
0010
0000
0000
0000
0100
0000
0001
0000
1000
0100
1000
0000
0001
0000
0000
0000
0100
0000
0001
0000
,
0010
0000
0010
0001
0100
1000
0100
0001
0010
0000
0010
0100
0010
0001
1000
0001
,
0100
0000
0000
0000
0100
0000
1000
0000
0100
0000
0001
0000
0010
0000
0100
0000
1000
0000
0000
0000
1000
0100
0010
0001
1000
0000
0000
0000
0000
0000
0000
0000
,
1001
0000
1000
0010
0100
0010
1000
0100
0001
0100
1000
0010
0100
0010
1000
0001
,
0010
0000
0000
0000
0010
0000
0100
0000
1000
0000
0001
0000
1000
0000
0010
0000
0100
0000
0000
0000
0001
0100
0010
1000
0001
0000
0000
0000
1000
0000
0100
0000
,
0010
0000
0100
1000
0001
0000
0100
0000
0010
0000
0100
0001
1000
0001
0100
0001
,
0010
0000
0100
1000
0001
0000
0010
0000
0100
0000
1000
0001
0100
0000
1000
0000
,
0100
0000
0000
0000
0000
0000
0000
0000
0000
0000
0000
0000
0001
0000
0000
0000
0000
0000
0000
0000
0000
0000
0000
0000
0010
0000
0000
0000
0000
0000
0000
0000
0000
0000
0000
0000
0100
0000
0000
0000
0000
0000
0000
0000
0000
0000
0000
0000
1000
0000
0000
0000
0000
0000
0000
0000
0000
0000
0000
0000
0000
0000
0000
0000
0000
0000
0000
0000
0000
0000
0000
0000
0010
0000
0000
0000
0000
0000
0000
0000
0000
0000
0000
0000
0000
0000
0000
0000
0000
0000
0000
0000
0000
0000
0000
0000
0200
0300
0000
0000
0000
0000
0000
0000
0000
0000
0000
0000
0000
0000
0000
0000
0000
0000
0000
0000
0000
0000
0000
0000
0001
0000
0000
0000
0000
0000
0000
0000
0000
0000
0000
0000
1000
0000
0000
0000
0000
0000
0000
0000
0000
0000
0000
0000
0100
0000
0000
0000
0000
0000
0000
0000
0000
0000
0000
0000
0000
0000
0000
0000
0000
0000
0000
0000
0000
0000
0000
0000
0010
0000
0000
0000
0000
0000
0000
0000
0000
0000
0000
0000
0000
0000
0000
0000
0000
0000
0000
0000
0000
0000
0000
0000
,
0100
1000
0001
0100
0020
0000
0000
0000
,
0230
0300
0000
0000
0000
0000
0000
0000
0000
0000
0000
0000
0000
0000
0000
0000
0000
0000
0000
0000
0000
0000
0000
0000
0001
0000
0000
0000
0000
0000
0000
0000
0000
0000
0000
0000
1000
0000
0000
0000
0000
0000
0000
0000
0000
0000
0000
0000
0000
0000
0000
0000
0000
0000
0000
0000
0000
0000
0000
0000
0000
0000
0000
0000
0000
0000
0000
0000
0000
0000
0000
0000
0010
0000
0000
0000
0000
0000
0000
0000
0000
0000
0000
0000
0000
0000
0000
0000
0000
0000
0000
0000
0000
0000
0000
0000
0000
0000
0000
0000
0000
0000
0000
0000
0000
0000
0000
0000
0000
0000
0000
0000
0000
0000
0000
0000
0000
0000
0000
0000
0010
0000
0000
0000
0000
0000
0000
0000
0000
0000
0000
0000
1000
0000
0000
0000
0000
0000
0000
0000
0000
0000
0000
0000
0000
0000
0000
0000
0000
0000
0000
0000
0000
0000
0000
0000
0000
0000
0000
0000
0000
0000
0000
0000
0000
0000
0000
0000
0001
0000
0000
0000
0000
0000
0000
0000
0000
0000
0000
0000
0000
0000
0000
0000
0000
0000
0000
0000
0000
0000
0000
0000
,
1000
0000
0000
0100
0000
0000
0010
0000
0000
0001
0000
0000
1000
0000
0100
0000
0010
0000
0001
0000
1000
0000
0100
0000
0010
0000
0000
0000
0000
0000
0110
0000
0000
0000
0000
0000
0110
0000
0000
0000
0000
0000
0110
0000
0000
0000
0000
0000
,
1001
0000
0001
0010
1000
0000
0010
0000
0001
0000
0001
0100
1000
0100
0010
1000
,
0001
0000
0010
0100
0010
0000
0001
0000
0100
0000
0001
1000
0001
1000
0100
0000
,
0010
0000
0100
1000
0010
0000
0001
0010
0100
0000
0001
0010
1000
0000
0010
0000
,
0100
0000
1000
0010
0100
0000
0001
0000
1000
0100
0010
0001
1000
0000
0001
0000
,
0010
0000
0001
0000
0010
0000
0001
0000
22MM
00MM
00MM
00MM
33MM
0000
0000
0000
0010
0000
1000
0000
0010
0000
1000
0000
M2M2
M0M0
M0M0
M0M0
M3M3
0000
0000
0000
,
0010
0000
0100
0000
0010
0000
0100
0000
2MM2
0MM0
0MM3
0MM0
3MM1
0000
1000
0000
0001
0000
0000
0000
0100
0000
0010
0000
0100
0000
0000
0000
0010
0000
1000
0000
,
0001
0000
0010
0100
1000
0000
0001
0100
0101
0000
1010
0000
1100
0000
0011
0000
,
1010
0000
1000
0010
0000
0000
0110
0000
0000
0000
0110
0000
0110
0000
0110
0000
,
1001
0000
1000
0010
0001
0000
0010
0000
1000
0000
1000
0100
0001
0100
0010
0001
,
1000
0000
0010
0100
0010
0000
1000
0000
0100
0000
1000
0001
1000
0001
0100
0000
,
0010
0000
0100
0001
0010
0000
1000
0010
0100
0000
1000
0010
0001
0000
0010
0000
,
0100
0000
0001
0010
0100
0000
1000
0000
0001
0100
0010
1000
0001
0000
1000
0000
,
0100
0000
1000
0000
0100
0000
1000
0000
MM22
MM00
MM00
MM00
MM33
0000
0000
0000
0100
0000
0001
0000
0100
0000
0001
0000
2M2M
0M0M
0M0M
0M0M
3M3M
0000
0000
0000
,
0010
0000
0100
0000
0010
0000
0100
0000
2MM2
0MM0
3MM0
0MM0
1MM3
0000
0001
0000
1000
0000
0000
0000
0010
0000
0100
0000
0010
0000
0000
0000
0100
0000
0001
0000
,
1000
0000
0001
0010
0100
0000
0000
1000
0010
0000
0100
0001
1000
0001
0010
0000
,
0100
0000
1000
0001
0100
0000
0110
0000
1000
0000
0001
0010
0100
1000
0010
0000
,
0100
0000
0001
0000
0000
0000
1000
0001
0100
0000
0010
0000
0100
0000
0010
0000
,
1000
0000
0000
0000
0001
0000
0000
0000
1000
0100
0010
0001
1000
0000
0000
0000
1100
0000
0000
0000
0101
0000
0000
0000
0001
0000
0010
0000
0100
0000
0010
0000
,
0100
0000
1000
0010
0100
0000
0001
0000
1100
0000
0010
0000
1100
0000
0001
0000
,
1000
0000
0010
1000
0100
0000
1000
0000
0101
0000
0010
0000
0101
0000
1000
0000
,
0001
0000
0010
0001
0100
0000
0001
0000
1100
0000
0010
0000
1100
0000
0001
0000
,
1000
0000
0010
0100
0001
0000
1000
0000
0110
0000
0001
0000
0110
0000
1000
0000
,
0010
0100
0010
0100
0010
0000
1000
0000
0101
0000
0010
0000
0101
0000
1000
0000
,
0001
0000
1000
0010
0100
0000
0001
1000
1100
0000
1000
0001
0101
0000
0001
1000
,
0100
0000
0010
0001
0100
0010
0100
0010
0001
0000
1000
0100
0010
0100
0010
1000
,
0001
0000
0010
0100
1000
0000
0001
0010
0100
0000
1000
0001
1000
0000
0000
0000
;
