#TITLE:燦々デイズ;
#SUBTITLE:;
#ARTIST:スピラ・スピカ;
#TITLETRANSLIT:Sansan Days;
#SUBTITLETRANSLIT:;
#ARTISTTRANSLIT:Spira Spica;
#GENRE:ANIME;
#CREDIT:;
#MUSIC:Sansan Days.ogg;
#BANNER:Sansan Days.png;
#BACKGROUND:Sansan Days-bg.png;
#CDTITLE:;
#SAMPLESTART:56.643;
#SAMPLELENGTH:10.667;
#SELECTABLE:YES;
#OFFSET:2.024;
#BPMS:0.000=180.000;
#STOPS:;
#LASTBEATHINT:3.072000;
#BGCHANGES:6.000=Sansan Days.avi=1.000=0=0=0=StretchNoLoop====,
99999.000=-nosongbg-=1.000=0=0=0=StretchNoLoop====
;
#FGCHANGES:;

//--------------- dance-single - ----------------
#NOTES:
     dance-single:
     :
     Hard:
     12:
     0,0,0,0,0:
0000
0000
0000
0000
,
0000
0000
0000
0000
,
0000
0000
0000
0000
,
1001
0000
1001
0000
0001
0100
0001
0000
,
0010
0000
0000
0010
0100
0000
1000
0100
,
1000
0000
0001
0100
0000
0110
0000
0010
,
1000
1100
0011
0101
,
0010
1000
0100
0000
0010
0001
0100
0000
,
1010
0000
0010
0100
0001
0000
0011
0000
,
0010
0100
0000
0100
1000
0000
1000
0001
,
0000
0001
0010
0100
1000
0001
1000
0000
,
0001
0100
0001
0100
0010
1000
0010
1000
,
0001
0010
0001
0010
0100
1000
0100
1000
,
0001
0100
0010
1000
0001
0010
0100
1000
,
1100
0000
1100
0000
0001
0100
0110
0000
,
0010
0000
0010
1000
0001
0000
1000
0100
,
0000
0010
0000
0001
0100
1000
0000
1000
,
0100
0010
1000
0000
1000
0100
0010
0000
,
0010
0001
0010
0001
1000
0100
0010
0001
,
0000
1000
0100
1000
0000
0001
0100
0010
,
0000
0010
1000
0000
1000
0100
0001
0000
,
0001
0100
0010
0001
0100
1000
0100
0010
,
0000
0110
0000
0100
0001
1000
0010
0100
,
0010
1000
0100
0010
0001
1000
0000
0200
,
0000
0010
0310
0000
0010
0001
1000
0100
,
0001
0000
0001
0100
0000
0100
1000
0010
,
0000
0100
0010
1000
0001
1000
0001
0010
,
0100
0000
0100
1000
0001
0100
0010
0000
,
0110
0000
0100
0000
0010
1000
0001
0010
,
0011
0000
0001
0010
0100
0000
1000
0010
,
0200
0000
0302
0000
1003
0100
1000
0100
,
0010
0000
0010
0100
1000
0000
0001
0100
,
0010
0000
0010
0100
0001
0010
1000
0001
,
0100
0000
0100
1000
0010
0000
0100
0001
,
0000
0101
0000
1010
0000
0100
0001
0000
,
0010
0100
1000
1000
0010
0100
0001
0001
,
0010
1000
0010
0010
0001
1000
0010
0010
,
1000
0001
0100
0000
0010
1000
0001
0000
,
0010
0100
0010
0100
1000
0001
0100
0010
,
1010
0000
0110
0000
0100
0001
0000
0011
,
0000
0110
0000
1100
0000
1000
0010
0100
,
0001
0100
1000
0100
0001
1000
0001
0010
,
0100
0010
0100
1000
0001
0100
0010
0000
,
0110
0000
0110
0000
0100
0010
1001
0000
,
0011
0101
1010
1100
,
1001
0110
1001
0110
,
0101
0001
0010
0000
1100
1000
0010
0000
,
0110
0001
1000
0000
1000
0010
0000
0100
,
0001
0010
1000
0001
0100
1000
0010
0100
,
0010
1000
0001
0100
1000
0001
0010
0000
,
0010
1000
0000
1000
0100
0000
0100
0010
,
0000
0010
0001
1000
0010
0100
0110
0000
,
1010
1100
0011
0101
,
0110
1001
0110
1001
,
0110
0010
1000
0000
0110
0010
0001
0000
,
0110
0001
1000
0000
1000
0010
0000
0010
,
0100
0001
0010
1000
0001
0100
0010
0100
,
1000
0010
0001
1000
0100
0001
0010
0000
,
0010
0100
0000
0100
1000
0000
1000
0001
,
0000
0001
1000
0010
0200
0001
0301
0000
,
1000
0100
0001
0100
1000
0000
0001
0100
,
1000
0100
0001
0000
0100
0010
0100
0000
,
0110
0000
0010
1000
0100
0010
0100
1000
,
0001
0010
0100
2000
0000
0010
3010
0000
,
0101
1100
0101
1100
,
1000
0010
1000
0000
0001
0010
0001
0000
,
1000
0010
0100
0001
0000
0001
0010
0100
,
0000
1000
0001
1000
0020
0000
0130
0000
;

//--------------- dance-single - ----------------
#NOTES:
     dance-single:
     :
     Challenge:
     16:
     0.819369,0.636517,0,0,0,517,517,0,0,0,0,0.819369,0.636517,0,0,0,517,517,0,0,0,0:
0000
0000
0000
0000
,
0000
0000
0000
0000
,
0000
0000
0000
0000
,
0110
0000
1001
0000
0100
0010
0120
0000
,
0130
0000
1000
0100
0011
0000
0001
0100
,
0101
0000
1000
0100
1100
0000
0001
0100
,
0110
0000
1010
0000
0101
0001
0100
0010
,
1010
1000
0100
0000
0010
0100
0010
0000
,
0011
1000
0001
0100
1000
0100
0010
0100
,
0101
0101
0000
1100
1100
0000
1001
1001
,
0000
0001
0010
0100
1000
1100
0101
0000
,
0110
0000
0100
0001
0010
0000
0010
0100
0010
0000
0100
1000
0010
0000
0010
0100
,
0010
0000
0100
0001
1000
0000
1000
0010
1000
0000
0100
1000
0001
0000
0001
0010
,
0001
0000
1000
0100
0010
0000
1000
0000
0010
0001
1000
0010
0001
0000
1000
0000
,
1100
0000
0101
0000
0010
1001
1001
0000
,
0001
0000
1000
0000
0001
0000
0100
0000
0001
0000
0010
0100
1000
0000
0001
0000
,
1000
0010
0100
1000
0100
0001
0101
0100
,
0010
0000
1000
0001
0010
0000
1000
0000
0010
0000
0001
1000
0010
0000
0001
0000
,
0010
0000
1000
0001
0010
0000
1000
0000
0010
0000
0001
0000
1000
0000
1010
0000
,
0000
0010
0100
0101
0000
0001
0010
0110
,
0000
0000
0100
0000
1000
0000
0000
0000
1000
0000
0010
0100
0001
0000
0010
0000
,
0110
1000
1010
0001
0101
0010
0110
1000
,
0000
0000
0101
0000
0000
0000
0001
0000
0011
0000
1000
0000
1010
0000
0010
0100
,
0001
0000
1000
0000
0100
0000
0010
0001
1000
0000
0020
0000
0000
0000
0230
0000
,
0000
0000
0301
0000
0010
0000
0100
1000
0010
0000
0001
0000
1000
0000
0100
0000
,
0101
0000
1010
0110
0000
0001
0100
0010
,
0100
0000
0001
0010
0001
0000
1000
0100
1000
0000
0001
0010
0001
1000
0100
0010
,
0001
0000
1000
0000
1010
0000
0010
0100
0001
0000
0010
0000
0110
0000
0000
0000
,
1100
0000
0000
0000
1000
0000
0001
0100
0001
0000
1000
0000
0010
0000
0100
0000
,
0101
0000
0000
0000
0001
0000
0010
0100
0010
0000
0001
0000
1000
0000
0010
0000
,
0011
0000
2010
0000
3200
0010
0320
0031
,
1001
0000
1000
0010
0100
0000
0100
0000
1001
0000
1000
0100
0010
0000
0010
0000
,
0110
0000
0100
1000
0010
0000
0010
1000
0100
0000
0001
0000
0200
0000
0000
0000
,
1300
0000
0001
0100
0010
0000
0010
0000
1001
0000
0001
0010
0100
0000
0100
0000
,
0110
0000
0100
1000
0010
0000
0010
1000
0001
0000
0001
0100
0020
0000
0000
0000
,
0130
0000
1000
0100
1000
0000
0100
0010
0100
0000
0001
0100
0001
0000
1000
0001
,
1000
0000
0001
0010
0001
0000
0010
0100
0010
0000
1000
0010
1000
0000
0000
0000
,
1010
0000
0010
0001
0100
0000
0010
0000
0011
0000
0010
1000
0100
0000
0010
0000
,
1010
0000
0010
0001
1000
0000
0010
0000
0001
0000
0010
0000
1000
0000
0100
0000
,
0011
0000
1001
0000
1000
0010
0000
0110
,
0000
0101
0000
0001
0100
0010
0001
1000
,
0100
0000
0001
0010
0100
0000
1000
0010
0100
0000
1000
0100
0001
0000
0010
0000
,
1100
1100
0110
0110
0001
1000
0010
0000
,
0110
0000
0110
0000
0010
1100
1001
0000
,
0011
0000
0000
0000
1100
0000
0000
0000
1001
0000
1000
0100
1000
0000
0100
0000
,
0001
0000
0100
1000
0010
0000
0100
0001
0010
0000
0100
0000
1100
0000
0001
0010
,
0100
0000
1000
0000
0011
0000
1000
0010
0100
0000
0001
0000
1010
0000
0001
0010
,
0100
1000
1001
0000
1010
0101
0000
1000
,
1001
0000
0001
0100
0010
0000
0010
1000
0001
0000
0001
0010
0100
0000
1000
0100
,
0010
0000
0010
0001
1000
0000
1000
0010
0100
0000
0010
0000
0110
0000
0000
0000
,
1100
1100
0000
0101
0101
0000
1001
1001
,
0000
0010
0100
1000
0100
0101
1001
0000
,
1010
0000
0000
0000
0101
0000
0000
0000
1001
0000
0001
0100
0001
0000
0100
0000
,
1000
0000
0100
0001
0010
0000
0100
1000
0010
0000
0100
0000
0101
0000
1000
0010
,
0100
0000
0001
0000
1010
0000
0001
0010
0100
0000
1000
0000
0011
0000
1000
0010
,
0100
0001
1001
0000
0011
1100
0000
0010
,
1000
0000
0001
0010
0100
0000
0100
1000
0001
0000
0001
0100
0010
0000
1000
0010
,
0100
0000
0100
0001
1000
0000
1000
0100
0010
0000
0100
0000
1100
0000
0000
0000
,
0011
0011
0000
1100
1100
0000
1001
1001
,
0000
0000
0001
0000
1000
0100
1000
0100
0010
0000
0011
0000
0011
0000
0000
0000
,
0001
0100
1000
0100
0101
0000
1000
0100
,
0001
0100
1100
0000
0100
0010
1001
0000
,
0110
0000
0010
1000
0100
0010
0001
0010
,
0100
0000
1000
0000
0001
0000
1000
0010
0100
0010
0100
0010
0100
0010
0100
0001
,
0010
0100
1000
1000
0010
0100
0001
0001
,
0100
0000
0001
1000
0010
0000
0010
1000
0001
0010
0100
0010
0001
1000
0100
0010
,
0001
0100
0010
1010
0000
0010
0100
0101
,
0000
0000
0110
0000
0110
0000
0110
0000
1001
0000
1000
0100
0010
0000
0000
0000
;
