#TITLE:三原色;
#SUBTITLE:;
#ARTIST:YOASOBI;
#TITLETRANSLIT:sangenshoku;
#SUBTITLETRANSLIT:;
#ARTISTTRANSLIT:YOASOBI;
#GENRE:POP;
#CREDIT:;
#MUSIC:Sangenshoku (RGB).ogg;
#BANNER:Sangenshoku (RGB).png;
#BACKGROUND:Sangenshoku (RGB)-bg.jpg;
#CDTITLE:;
#SAMPLESTART:63.300;
#SAMPLELENGTH:15.000;
#SELECTABLE:YES;
#OFFSET:-0.018;
#BPMS:0.000=128.000;
#STOPS:;
#BGCHANGES:3.500=Sangenshoku (RGB).avi=1.000=0=0=0=StretchNoLoop====,
99999.000=-nosongbg-=1.000=0=0=0=StretchNoLoop====
;
#FGCHANGES:;

//--------------- dance-single - ----------------
#NOTES:
     dance-single:
     :
     Hard:
     12:
     0,0,0,0,0:
0000
0000
0000
0000
,
0000
0000
0000
0000
0000
0000
0000
1000
,
0001
0100
0000
0010
0000
1000
0000
0010
0000
0100
0001
0000
1000
0000
0001
0000
,
1000
0100
0000
0010
0000
0001
0000
0010
0000
0100
1000
0000
0001
0000
1000
0000
,
0010
0100
0000
0010
0000
1000
0000
0010
0000
0100
0001
0000
1000
0000
0001
0000
,
0010
0100
0000
1000
0000
0100
0000
0010
0001
0000
0100
0000
0100
0000
0100
0000
,
1001
0000
0010
0000
1000
0000
0100
0000
0010
0000
0000
0010
0000
0000
0001
0000
,
0100
0000
0000
0100
0000
0000
0010
0000
1000
0000
0001
0000
0100
0000
0010
0000
,
1001
0000
0000
0000
0100
0000
0001
0000
1000
0000
0000
1000
0000
0000
0001
0000
,
0100
0000
0000
0100
0000
0000
0010
0000
1000
0000
0001
0000
0010
0000
0100
0000
,
1001
0000
0000
0000
0100
0000
0010
0000
1000
0000
0000
1000
0000
0000
0100
0000
,
0010
0000
0000
0010
0000
0000
0001
0000
0100
0000
1000
0000
0100
0000
0001
0000
,
1001
0000
0000
0000
0010
0000
0100
0000
0101
0000
0000
1010
0000
0000
0110
0000
,
0010
0000
1000
0100
0000
1000
0001
0000
0100
0000
0001
0010
0000
0001
1000
0000
,
0010
0000
0100
0001
0000
0100
0010
0000
1000
0000
0100
0010
0000
0100
1000
0000
,
0010
0000
1000
0010
0000
0100
0010
0000
0001
0000
0010
0100
0000
0001
0100
0000
,
0010
0000
1000
0001
0000
0010
0001
0000
0200
0000
0001
0000
0301
0000
0010
0000
,
0100
0000
0000
0100
1000
0000
0010
0000
0100
0000
0110
0000
0000
0000
1000
0000
,
0010
0000
0100
0001
0000
0001
1000
0000
0100
0000
0011
0000
0000
0000
0010
0000
,
0001
0000
1000
0010
0000
0100
0000
0010
1000
0000
0001
0000
0010
0000
0100
0000
,
1000
0000
0001
0100
0000
0010
0000
0100
0000
0001
1000
0000
0001
0000
0010
0000
,
0100
0010
1001
0000
0001
0100
1001
0000
,
1000
0010
1001
0100
0010
0100
1001
0000
,
1000
0000
0001
0010
0000
0100
0000
0010
0000
0001
1000
0000
0010
0000
1000
0000
,
0100
0000
0001
0100
0000
0100
1000
0000
2001
0000
0000
0000
3001
0000
0100
0000
,
0010
0000
1000
0100
0000
0000
0010
0000
0001
0000
1000
0010
0000
0000
0100
0000
,
0001
0000
0000
1000
0100
0000
0100
0000
1001
0000
0000
0000
0110
0000
0010
0000
,
1000
0000
0010
0100
0000
0100
0000
0002
0000
0000
1003
0000
0100
0000
0010
0000
,
0001
0000
1000
0100
0000
0020
0000
0000
0130
0000
0000
0100
1000
0000
0001
0000
,
1000
0000
0001
0100
0000
0000
0010
0000
1000
0000
0001
0010
0000
0000
0100
0000
,
1000
0000
0000
0010
0100
0000
0100
0000
1001
0000
0000
0000
0001
0000
1000
0000
,
0100
0000
0000
0010
0001
0000
1000
0000
0001
0000
0000
0100
1000
0000
0100
0000
,
0001
0000
0001
0010
0100
1000
0010
0100
,
0001
0000
0010
0100
0000
1000
0000
0000
1002
0000
0000
0000
0103
0000
0010
0000
,
0110
0000
0010
0000
1000
0000
0100
0000
0001
0000
0100
1000
0000
0001
1000
0000
,
0010
0000
0100
0001
0000
1000
0001
0000
1001
0000
0000
0000
1000
0000
0010
0000
,
0001
0000
0010
0000
0100
0000
0001
0000
0100
0000
0010
1000
0000
0001
1000
0000
,
0100
0000
0010
0001
0000
1000
0001
0000
1001
0000
0000
0001
0010
0000
0001
0000
,
0100
0000
1000
0100
0000
0010
0100
0000
0001
0000
1000
0100
0000
0010
0200
0000
,
0320
0032
2003
3020
0230
0302
0023
0230
,
2300
0000
3010
0100
0000
0100
0010
1000
,
0001
0000
0010
0100
0000
1000
0001
0000
0200
0000
0010
0000
0310
0000
1000
0000
,
1001
0000
1000
0000
0001
0000
0100
0000
1000
0000
0100
0001
0000
0001
1000
0000
,
0100
0000
0010
0001
0000
0001
1000
0000
0101
0000
0000
0000
1000
0000
0010
0000
,
0001
0000
0010
0000
0100
0000
0001
0000
0010
0000
0100
1000
0000
1000
0001
0000
,
0100
0000
0010
1000
0000
1000
0001
0000
0010
0000
0000
0100
0010
0000
0001
0000
,
0100
0000
1000
0100
0000
0100
0001
0000
1000
0000
0001
0010
0000
0010
2000
0000
,
3020
0032
2003
3020
0230
0302
0023
0230
,
2300
0000
0000
0000
3100
0000
0010
0000
0011
0000
0000
0110
0000
0000
1200
0000
,
1000
0000
0301
0100
1000
0010
0100
0010
,
0110
0000
0000
0000
0100
0000
0001
0000
0010
0000
0100
0001
0000
0100
1000
0000
,
0010
0000
0100
1000
0000
0100
0001
0000
1000
0000
0001
0000
1000
0000
0001
0000
,
1001
0000
0001
0100
0000
0100
0010
0110
,
2001
0000
0000
0000
3100
0000
0000
0000
1010
0000
0000
0110
0000
0000
0102
0000
,
0000
0000
0103
0000
0120
0000
0000
0000
1030
0000
0000
2100
0000
0000
3100
0000
,
1002
0000
0000
0000
0103
0000
0000
0000
0011
0000
0000
0110
0000
0000
2100
0000
,
0000
0000
3100
0000
0120
0000
0000
0000
0031
0000
0000
0102
0000
0000
0103
0000
,
0110
0000
0100
0000
1000
0000
0100
0000
0001
0000
1000
0100
0000
0001
0100
0000
,
0010
0000
0001
0000
0100
0000
1000
0000
0100
0000
0010
1000
0000
0010
0001
0000
,
0010
0000
1000
0000
0100
0000
0010
0000
1000
0000
0001
0100
0000
0100
1000
0000
,
0110
0000
1001
0000
0000
1100
0000
1000
0200
0000
0010
0000
0010
0000
0310
0000
;

//--------------- dance-single - ----------------
#NOTES:
     dance-single:
     :
     Challenge:
     15:
     0.797206,0.712124,0.025996,0,1.135152,644,641,3,0,0,0,0.797206,0.712124,0.025996,0,1.135152,644,641,3,0,0,0:
0000
0000
0000
0000
,
0000
0000
0000
0000
0000
0000
0000
0000
0000
0000
0000
0000
0000
0000
0001
0010
,
0001
1000
0000
0100
0000
1000
0000
0001
0000
0100
0001
0000
0001
0010
0100
1000
,
0001
0100
0000
0001
0000
1000
0000
0001
0000
0100
0010
0000
0010
1000
0100
0010
,
0001
1000
0000
0001
0000
0100
0000
0010
0000
1000
0100
0000
0100
0010
0100
1000
,
0001
0000
0000
0000
0000
0000
0100
0000
0000
0000
0000
0000
0000
0000
0000
0000
0000
0000
0010
0000
0000
0000
0000
0000
0000
0000
0000
0000
0000
0000
1000
0000
0000
0000
0000
0000
0000
0000
0000
0000
0000
0000
0010
0000
0000
0100
0000
0000
0020
0000
0000
0000
0000
0000
0000
0000
0100
0000
0000
0000
0000
0000
0000
0000
0100
0000
0000
0000
0000
0000
0000
0000
0130
0000
0000
0000
0000
0000
0000
0000
0000
0000
0000
0000
0110
0000
0000
0000
0000
0000
0000
0000
0000
0000
0000
0000
,
1001
0000
1000
0000
0100
0000
0001
0000
0100
0000
1000
0010
0000
0010
0100
0001
,
1000
0000
0000
0100
0010
0000
0001
0000
1000
0000
0001
0100
0000
0100
0010
1000
,
0001
0000
0010
0000
1000
0000
0010
0000
0001
0000
1000
0010
0000
0010
0100
0001
,
1000
0000
0000
0000
0000
0000
0000
0000
0000
0100
0000
0000
0010
0000
0000
0000
0000
0000
0001
0000
0000
0000
0000
0000
1000
0000
0000
0000
0000
0000
0001
0000
0100
0000
0001
0000
0100
0000
0000
0000
0000
0000
0001
0000
1000
0000
0001
0000
,
1000
0000
0010
0000
0001
0000
0010
0000
1000
0000
0001
0100
0000
0100
0010
1000
,
0001
0000
0000
0010
0100
0000
1000
0000
0001
0000
1000
0010
0000
0010
0100
0001
,
1000
0000
0001
0000
0010
0000
0100
0000
1100
0000
0000
0011
0000
0000
0010
0100
,
0010
0000
0001
1000
0000
0001
0100
0010
1000
0000
0001
0010
0000
0100
1000
0100
,
0010
0000
0001
1000
0000
0010
0100
0010
1000
0000
0001
0010
0000
0100
1000
0100
,
0010
0100
1000
0001
0000
0100
0001
0100
0010
0000
1000
0010
0000
0100
0001
1000
,
0100
0000
1000
0001
0000
1000
0100
0010
0001
0000
0010
0100
0010
0000
0001
0000
,
1000
0000
0010
1000
0000
0001
0100
0001
0100
0001
1000
0001
0010
0000
0100
1000
,
0100
0000
0010
0001
0000
1000
0010
1000
0010
0000
0100
0001
0010
0001
0010
0100
,
1000
0000
0010
0100
0010
1000
0010
0100
0001
0000
1000
0000
0100
0010
0001
1000
,
0100
0000
0010
0001
0100
0010
0100
0010
0100
0000
0001
0000
1000
0000
0001
0010
,
0001
0000
0100
0001
1000
0000
0010
0100
0001
0100
0001
1000
0100
0000
0010
0001
,
0010
0000
0100
1000
0001
0000
0100
0001
0100
0000
0010
1000
0001
0000
1000
0100
,
1000
0000
0001
0010
0100
1000
0001
0100
0010
0000
0100
0000
0010
0000
1000
0001
,
1000
0000
0000
0000
0000
0000
0000
0000
0000
0000
0000
0000
0001
0000
0000
0000
0000
0000
0010
0000
0000
0000
0000
0000
0000
0000
0000
0000
0000
0000
0100
0000
0000
0000
0000
0000
0000
0000
0000
0000
0000
0000
1000
0000
0000
0100
0000
0000
2000
0000
0000
0000
0000
0000
0000
0000
0001
0000
0000
0000
0000
0000
0000
0000
0001
0000
0000
0000
0000
0000
0000
0000
3001
0000
0000
0000
0000
0000
0000
0000
0000
0000
0000
0000
0100
0000
0000
0000
0000
0000
0010
0000
0000
0000
0000
0000
,
0100
0000
1000
0000
0100
0000
0010
0000
1000
0000
0100
0010
0000
0001
0000
0010
,
0100
0000
0001
0000
0100
0000
1000
0000
0001
0000
0100
0010
0000
1000
0010
0100
,
0001
0000
0010
0000
1000
0000
0010
0000
0001
0000
1000
0010
0000
1000
0100
0010
,
0001
0000
1000
0100
0000
0010
0001
0000
1000
0000
0001
0100
0000
0001
0100
0010
,
1000
0000
0001
0000
0100
0000
1000
0000
0100
0000
0010
1000
0000
0100
0000
0010
,
0001
0000
1000
0000
0100
0000
0001
0000
0100
0000
1000
0010
0000
0100
0001
1000
,
0100
0000
0010
0000
0100
0000
1000
0000
0001
0000
0100
0010
0000
0100
0001
1000
,
0001
0000
0011
0000
0000
0110
0000
0000
1100
0000
0000
0110
0000
0000
1001
0000
,
0001
0000
0000
0000
0000
0000
0000
0000
0000
0000
0000
0000
0100
0000
0000
0000
0000
0000
0010
0000
0000
0000
0000
0000
0000
0000
0000
0000
0000
0000
1000
0000
0000
0000
0000
0000
0000
0000
0000
0000
0000
0000
0001
0000
0000
0100
0000
0000
0002
0000
0000
0000
0000
0000
0000
0000
1000
0000
0000
0000
0000
0000
0000
0000
1000
0000
0000
0000
0000
0000
0000
0000
1003
0000
0000
0000
0000
0000
0000
0000
0000
0000
0000
0000
0010
0000
0000
0000
0000
0000
0000
0000
0000
0000
0000
0000
,
0110
0000
0100
0000
0001
0000
1000
0000
0001
0000
0010
0100
0000
0100
1000
0100
,
0010
0000
0001
0100
0000
0010
1000
0000
0001
0000
0100
0010
0000
0100
0001
1000
,
0010
0000
0100
0000
1000
0000
0100
0000
0001
0000
0100
0010
0000
0010
0100
0001
,
1000
0000
0001
0010
0000
0100
1000
0000
0001
0000
0100
0010
0100
0010
1000
0010
,
0100
0000
0100
0001
0000
0001
0010
0100
1000
0000
1000
0010
0000
0010
0100
0001
,
1000
0000
1100
0000
0001
0000
0101
0000
0001
0000
1000
0100
0010
0100
1000
0010
,
0100
0000
0010
0000
1000
0000
0001
0000
0010
0000
0100
1000
0000
1000
0010
0100
,
0010
0000
0010
1000
0100
0010
0100
1000
0002
0000
0100
0000
0103
0000
0010
0100
,
0010
0000
1000
0000
0001
0000
1000
0000
0010
0000
0100
0001
0000
0001
0100
0010
,
1000
0000
0001
0010
0000
0100
1000
0000
0100
0000
0010
0001
0000
0001
0010
0100
,
1000
0000
0010
0000
0100
0000
0010
0000
1000
0000
0001
0100
0000
0100
0010
1000
,
0001
0000
1000
0100
0000
0010
0001
0000
1000
0000
0010
0100
0010
1000
0001
1000
,
0100
0000
0100
0010
0000
0010
0001
0100
0010
0000
0010
1000
0000
1000
0100
0010
,
0001
0000
0101
0000
1000
0000
1100
0000
1000
0000
0001
0100
0000
0100
0010
1000
,
0001
0000
0010
0000
0100
0000
0010
0000
0011
0000
0000
0110
0000
0000
0100
1000
,
0010
0000
0100
0000
0001
0000
0010
0000
0100
0000
1000
0100
1000
0100
0010
0001
,
1000
0000
0001
0000
0100
0000
1000
0000
0100
0000
0100
0001
0000
0001
0010
0100
,
1000
0000
0010
0100
0001
0000
0010
0000
0100
0000
1000
0001
1000
0001
0100
0010
,
1000
0000
0010
0100
0001
0010
0100
1000
0001
0000
0100
0000
0010
0000
0100
0001
,
1000
0000
0001
0010
0000
0001
0100
0010
1000
0000
0001
0100
0000
0001
0010
0100
,
1000
0000
0001
1000
0000
0001
0100
0010
0100
0001
0010
0100
0000
1000
0010
0100
,
0001
0010
0100
1000
0000
0001
0100
0010
1000
0000
0001
0010
0000
0001
0010
0100
,
1000
0000
0001
1000
0000
0001
0100
0010
1000
0000
0001
0100
0010
0100
0001
0010
,
0100
0000
1000
0100
0000
1000
0010
0100
0001
0000
1000
0010
0000
1000
0100
0010
,
0001
0000
1000
0001
0000
1000
0100
0010
0100
1000
0010
0100
0010
1000
0001
0010
,
0100
0010
0001
1000
0000
0001
0100
0010
1000
0000
0001
0010
0000
0001
0100
0010
,
1000
0000
0000
0000
0001
0100
0001
0000
0000
0000
1001
0000
0000
0000
1000
0000
0010
0000
0000
0000
0110
0000
0000
0000
0101
0000
0000
0000
1100
0000
0000
0000
;
