#TITLE:STAND-ALONE;
#SUBTITLE:;
#ARTIST:Aimer;
#TITLETRANSLIT:STAND-ALONE;
#SUBTITLETRANSLIT:;
#ARTISTTRANSLIT:Aimer;
#GENRE:POP;
#CREDIT:;
#MUSIC:STAND-ALONE.ogg;
#BANNER:STAND-ALONE.png;
#BACKGROUND:STAND-ALONE-bg.png;
#CDTITLE:;
#SAMPLESTART:64.587;
#SAMPLELENGTH:11.087;
#SELECTABLE:YES;
#OFFSET:-0.022;
#BPMS:0.000=184.000;
#STOPS:;
#BGCHANGES:;
#FGCHANGES:;

//--------------- dance-single - ----------------
#NOTES:
     dance-single:
     :
     Hard:
     14:
     0,0,0,0,0:
0000
0000
0000
0000
,
0000
0000
0000
0000
,
0002
0100
0013
0100
0001
0010
0100
0010
,
0001
0100
0010
1000
0001
0100
0010
1000
,
2000
0100
3010
0100
1000
0010
0100
0010
,
1000
0100
0010
0001
1000
0100
0010
0001
,
0002
0010
0103
0010
0001
0100
0010
0100
,
0001
0010
0100
1000
0001
0010
0100
1000
,
2000
0010
3100
0010
1000
0100
0010
0100
,
1000
0010
0100
0001
1000
0010
0100
0001
,
0010
0100
0010
0002
0203
0302
0203
0320
,
2030
3020
0230
0320
1030
0200
0320
0032
,
0013
0200
2300
3001
1000
0010
0100
0010
,
1000
0001
0010
0002
2003
3200
2300
3002
,
1003
0100
0010
0001
1000
0010
0100
0010
,
0001
1000
0100
0020
0032
2003
3200
0302
,
0013
0100
1000
0001
0100
1000
0001
0010
,
0100
1000
0001
0010
0001
0010
1000
0100
,
0002
0000
0103
2000
3002
2003
3200
0320
,
0032
0023
0230
0320
0031
0200
0320
2030
,
3010
0200
0302
1003
0001
0010
0100
0010
,
0001
1000
0010
2000
3002
0203
0302
2003
,
3001
0100
0010
1000
0001
0010
0100
0010
,
1000
0001
0100
0020
2030
3002
0203
2300
,
3010
0100
0001
1000
0100
0001
1000
0010
,
0100
0001
1000
0010
1000
0010
0001
0100
,
2000
0000
3000
0100
0010
0110
0000
1010
,
0000
1001
0001
0000
0010
0110
0000
0100
,
1100
0000
0000
1000
0010
0100
0001
1001
,
0000
0011
0100
1000
1001
0100
0000
0100
,
0001
1000
0001
0010
0100
0110
0000
1100
,
0000
0011
0001
0100
0010
1000
0000
1000
,
0010
0100
0001
1000
0100
0110
0010
0011
,
0000
0011
0000
0110
0100
1000
0001
0100
,
0110
0000
0010
1000
0100
0010
0100
1000
,
0001
0010
0100
1000
0001
0100
0001
1000
,
0010
0100
0001
0010
0100
0010
0001
0011
,
0000
1010
0000
1100
1000
0100
0010
0100
,
0010
0001
0100
0010
1000
0100
1000
1001
,
0000
0101
0100
0001
0100
0010
1000
0001
,
0010
0100
0010
0001
1000
0010
1000
1010
,
0000
0110
0000
0101
0100
0001
0100
0001
,
1001
0000
0010
0001
0100
0010
0100
0001
,
1000
0010
0100
0001
1000
0100
1000
0001
,
0010
0100
1000
0010
0100
0010
1000
1010
,
0000
0011
0000
0101
0001
0100
0010
0100
,
0010
1000
0100
0010
0001
0100
0001
1001
,
0000
1100
0100
1000
0100
0010
0001
1000
,
0002
0010
0103
0002
0010
0103
2000
0010
,
3100
2000
0010
3100
0001
1000
1001
0000
,
0001
0100
1000
0100
0010
1000
0100
0001
,
0100
0100
1000
1000
0001
0001
1010
0000
,
1000
0100
0001
0100
0010
0001
0100
1000
,
0100
0100
0001
0001
1000
0100
0011
0000
,
0001
0100
0010
0100
1000
0100
0110
0000
,
0010
1000
0100
0001
0100
1000
0010
0101
,
0000
0011
0000
1010
0000
1000
1100
0000
,
1000
0000
0100
0000
0010
0000
0100
0000
1000
0000
0001
0000
0100
0010
0100
0010
,
0100
0000
1000
0100
0001
0010
0110
0000
,
0110
0010
0001
0100
1000
0100
0110
0000
,
0010
1000
0101
0000
0010
0001
1100
0000
,
0001
1000
0110
0001
0101
1000
1001
0000
,
1000
0100
0100
0001
1000
0100
0110
0000
,
0001
0100
0100
1000
0001
0100
0110
0000
,
0100
0000
0110
0000
0110
0000
0000
0010
1000
0000
0001
1000
0001
0000
0010
0100
,
0010
0000
0100
1000
0100
0000
1000
0001
1000
0000
0010
0100
0010
0000
1000
0000
,
1001
0001
0010
0100
0010
0001
0100
1000
,
0100
0100
0001
0001
1000
1000
0011
0000
,
0001
0100
1000
0100
0010
1000
0100
0001
,
0100
0100
1000
1000
0001
0100
1010
0000
,
1000
0100
0010
0100
0001
0100
0110
0000
,
0010
0001
0100
1000
0100
0001
0010
1100
,
0000
1010
0000
0011
0000
0001
0101
0000
,
0001
0000
0100
0000
0010
0000
0100
0000
0001
0000
1000
0000
0100
0010
0100
0010
,
0100
0000
0001
0100
1000
0010
0110
0000
,
0110
0010
1000
0100
0001
0100
0110
0000
,
0010
0001
1100
0000
0010
1000
0101
0000
,
1000
0001
0110
1000
1100
0001
1001
0000
,
0001
0100
0100
1000
0001
0100
0110
0000
,
1000
0100
0100
0001
1000
0100
0110
0000
,
0100
0000
0110
0000
0110
0000
0000
0010
0001
0000
1000
0001
1000
0000
0010
0100
,
0010
0000
0100
0001
0100
0000
0001
1000
0001
0000
0010
0100
0010
0000
0001
0000
,
1001
1000
0001
0100
0010
1000
0001
0011
,
0000
0100
1000
0001
0100
0001
0010
0001
,
1100
0000
0100
0010
0001
0010
0100
1100
,
0000
0101
0000
1100
0100
1000
0100
0010
,
1001
0000
0100
0010
1000
0001
0010
0110
,
0000
1000
0001
0100
0001
0010
0100
1000
,
0110
0000
0100
0001
0100
0010
1000
1010
,
0000
0101
0100
0001
1000
0010
0100
0010
,
0110
0000
0000
0000
;

//--------------- dance-single - ----------------
#NOTES:
     dance-single:
     :
     Challenge:
     17:
     0,0,0,0,0:
0000
0000
0000
0000
,
0000
0000
0000
0000
,
0002
0000
2003
0000
3001
0010
0001
0200
,
0000
0310
1000
0100
0010
0100
1000
0001
,
0200
0000
0320
0000
2030
0000
3001
0100
,
0002
0000
0013
0100
1000
0001
0100
0001
,
2000
0000
3200
0000
0310
0001
0100
0010
,
0001
0010
0100
0001
1000
0100
0010
1000
,
0001
0100
2000
0000
3002
0000
0103
0010
,
0100
0001
1000
0100
0010
1000
0010
0001
,
2000
0000
3002
0000
1003
0010
1000
0200
,
0000
0310
0001
0100
0010
0100
0001
1000
,
0200
0000
0320
0000
0032
0000
1003
0100
,
2000
0000
3010
0100
0001
1000
0100
1000
,
0002
0000
0203
0000
0310
1000
0100
0010
,
1000
0010
0100
1000
0001
0100
0010
0001
,
1000
0100
0002
0000
2003
0000
3100
0010
,
0100
1000
0001
0100
0010
0001
0010
1000
,
0002
0000
2003
0000
3010
0100
0010
2000
,
0000
3001
0010
0001
1000
0100
1000
0001
,
0020
0000
0230
0000
2300
0000
3010
0100
,
0020
0000
1030
0100
0010
0100
0001
0100
,
2000
0000
3020
0000
0130
1000
0100
0010
,
1000
0100
0010
0100
1000
0001
0100
0010
,
1000
0100
0020
0000
0032
0000
0103
1000
,
0001
0010
1000
0100
0010
0100
1000
0001
,
2000
0000
0000
0000
0000
0000
3001
0100
0001
0000
0010
0000
0000
0000
1100
0000
,
0000
0000
0011
0000
0100
0000
0000
0000
1000
0000
1010
0000
0000
0000
0100
0001
,
0020
0000
0000
0130
1000
0100
0010
0110
,
0000
0000
0011
0000
0100
0000
1000
0001
1000
0000
0010
0000
0000
0000
1000
0010
,
1000
0000
0001
0100
0001
0000
0010
0000
0100
0000
0110
0000
0000
0000
1100
0000
,
0000
0000
0011
0000
0001
0000
0100
0000
0010
0000
1000
0000
0000
0000
0100
0010
,
0100
0000
1000
0001
1000
0000
0010
0000
0100
0000
0110
0000
0001
0000
0101
0000
,
0000
0000
1010
0000
0000
0000
0010
0100
0010
0000
1000
0010
1000
0000
0100
0000
,
0110
0000
0000
0000
0010
0000
0001
0010
0001
0000
1000
0000
0100
0000
0010
0000
,
0001
0000
0010
0000
0001
0000
0100
0000
0001
0000
0010
0000
0100
0000
1000
0010
,
1000
0010
0100
0001
0010
0100
1000
1100
,
0000
0000
1010
0000
0000
0000
0010
0100
0010
0000
1000
0000
0001
0000
1000
0100
,
1000
0000
0100
0010
0100
0000
0010
0000
0001
0000
0100
0000
0001
0000
0101
0000
,
0000
0000
0110
0000
1000
0000
0010
0000
0100
0000
0010
0000
1000
0000
0001
0010
,
0001
0000
0100
0000
0001
0000
1000
0100
1000
0000
0010
0000
1000
0000
1010
0000
,
0000
0000
0101
0000
0001
0000
1000
0100
1000
0000
0010
0000
0100
0000
0001
0000
,
1001
0000
0000
0000
0001
0000
0010
0100
0010
0000
1000
0000
0010
0000
0001
0000
,
0100
0000
0010
0000
0110
0000
0000
0000
0010
0000
1000
0000
0001
0000
0100
0010
,
0100
0000
1000
0000
0100
0000
0001
0000
0010
0000
0110
0000
0000
0000
0100
1000
,
0001
0000
0010
0000
0100
0000
0010
0001
1000
0000
0010
0000
0001
0000
0010
0100
,
0010
0000
1000
0000
0001
0100
0001
0000
0010
0000
1000
0000
0001
0000
0100
0000
,
0010
0001
0010
0100
1000
0001
1000
1000
,
0002
0010
0103
0002
0010
0103
2000
0010
,
3100
0000
2000
0000
0010
0000
3100
0000
0110
0000
0010
0100
0010
0000
1000
0000
,
0001
0000
0100
0001
1000
0000
0010
1000
0010
0000
0100
0001
1000
0000
0100
1000
,
0100
0000
0010
0001
0010
0000
0001
0100
0001
0000
1000
0010
1000
0000
0100
0000
,
1000
0000
0010
1000
0001
0000
0100
0001
0100
0000
0010
1000
0001
0000
0100
0001
,
0100
0000
0010
1000
0010
0000
1000
0100
1000
0000
0001
0010
0001
0000
0100
0000
,
0010
0000
0100
0001
1000
0000
0100
0000
0010
0000
0100
1000
0001
0000
0100
0000
,
0010
0000
1000
0100
0010
0000
0100
1000
0001
0000
1000
0010
0100
0000
0010
1000
,
0001
0011
0010
1100
0010
0101
0010
1100
,
0010
0000
0100
0001
0010
0000
0100
1000
0010
0000
0100
0001
0010
0100
1000
0010
,
0100
0000
1000
0000
0100
0000
0001
0000
0010
0000
0100
1000
0001
0000
0100
0000
,
0010
0000
0100
0001
0010
0000
0100
0000
1000
0000
0001
0100
0010
0000
0100
0000
,
0001
0000
0010
0100
1000
0000
0100
0010
0001
0000
1000
0010
0100
0000
0001
0100
,
0010
0000
1000
0010
1000
0000
0001
0100
0001
0000
1000
0100
1000
0000
0001
0000
,
1000
0000
0010
0100
0010
0000
0001
0000
1000
0000
0100
0010
0100
0000
0001
0000
,
1000
0000
0100
0010
0100
0000
0001
0000
1000
0000
0010
0100
0010
0000
0001
0000
,
1000
0000
1100
0000
0101
0000
0000
0001
0100
0010
0100
0001
0100
0000
0010
0100
,
0001
0000
1000
0100
0010
0000
0010
0100
1000
0100
0010
0100
1000
0010
0100
0010
,
1000
0000
0010
0100
0010
0000
0100
0001
0010
0000
0100
0010
0100
0000
0010
0001
,
0100
0000
0010
1000
0010
0000
0100
0010
0100
0000
0001
0100
0001
0000
1000
0000
,
0001
0000
0010
0100
0010
0000
0100
1000
0010
0000
0100
0010
0100
0000
0010
1000
,
0100
0000
0010
0001
0010
0000
0100
0010
0100
0000
1000
0100
1000
0000
0001
0000
,
1000
0000
0010
0100
0001
0000
0010
0000
0100
0000
0010
0001
0100
0000
0010
0000
,
1000
0000
0010
1000
0001
0000
0010
0001
0100
0000
0010
1000
0100
0000
0010
0001
,
1000
1010
0100
0011
0100
1001
0010
0110
,
0100
0000
0001
0010
0100
0000
1000
0100
0010
0000
0001
0010
0100
1000
0100
0010
,
0001
0000
0100
0000
1000
0000
0100
0000
0010
0000
0001
0010
0100
0000
0001
0000
,
0010
0000
1000
0010
0100
0000
0001
0000
0100
0000
1000
0001
0100
0000
0010
0000
,
0001
0000
0010
1000
0100
0000
0001
0100
0010
0000
1000
0010
0001
0000
1000
0010
,
0100
0000
1000
0100
0010
0000
1000
0100
0001
0000
0100
1000
0010
0000
0100
0000
,
0010
0000
1000
0100
1000
0000
0100
0000
0001
0000
0100
1000
0100
0000
1000
0000
,
0001
0000
0100
0001
0100
0000
1000
0000
0100
0000
0001
0100
0001
0000
1000
0000
,
0001
0000
0101
0000
1100
0000
0000
1000
0100
0010
0100
1000
0100
0000
1000
0010
,
0100
0000
0010
1000
0010
0100
0010
0001
0010
0100
1000
0100
0010
0100
0001
0010
,
1000
0000
0010
0000
0001
0000
0100
0010
0100
0000
0001
0000
1000
0000
0200
0000
,
0000
0000
1300
0000
0010
0000
0100
0000
0001
0000
0100
0000
0010
0000
1000
0010
,
2000
0000
0000
0000
3100
0000
0010
0000
0001
0000
0010
0000
0100
0000
1000
0001
,
1000
0000
0020
0000
0000
0000
0130
0000
0001
0000
1000
0000
0100
0000
0010
0001
,
0020
0000
0130
1000
0001
0100
0010
2000
,
0000
0000
3001
0000
0100
0000
0010
0000
0100
0000
0001
0000
1000
0000
0100
0010
,
0200
0000
0310
0001
0010
0100
1000
1100
,
0000
0000
0011
0000
0010
0000
0100
1000
0010
0000
0100
0001
0010
0000
0100
0000
,
0110
0000
0000
0000
;
