#TITLE:STAND PROUD;
#SUBTITLE:;
#ARTIST:橋本仁;
#TITLETRANSLIT:STAND PROUD;
#SUBTITLETRANSLIT:;
#ARTISTTRANSLIT:Hashimoto Jin;
#GENRE:ANIME;
#CREDIT:;
#MUSIC:STAND PROUD.ogg;
#BANNER:STAND PROUD.png;
#BACKGROUND:STAND PROUD-bg.png;
#CDTITLE:;
#SAMPLESTART:53.274;
#SAMPLELENGTH:11.541;
#SELECTABLE:YES;
#OFFSET:0.193;
#BPMS:0.000=165.158;
#STOPS:;
#DISPLAYBPM:165.000;
#BGCHANGES:1.500=STAND PROUD.avi=1.000=0=0=0=StretchNoLoop====,
99999.000=-nosongbg-=1.000=0=0=0=StretchNoLoop====
;
#FGCHANGES:;

//--------------- dance-single - ----------------
#NOTES:
     dance-single:
     :
     Hard:
     15:
     0.84262,1.023096,0.220911,0.331367,0.690348,534,514,20,30,0,0,0.84262,1.023096,0.220911,0.331367,0.690348,534,514,20,30,0,0:
0000
0000
0000
0000
,
0000
0000
0000
0000
,
2001
0000
0000
3020
0000
0000
0230
0000
,
0302
0000
0000
0000
0003
0000
1000
0000
0100
1000
0100
0000
0000
0000
2100
0000
,
0000
0000
0000
3200
0000
0000
0320
0000
,
0032
0000
0000
0000
0000
0000
1003
0000
0001
0100
0001
0000
0000
0000
1001
0000
,
0000
0000
0001
0000
1000
0100
1000
0000
0010
0000
0100
0001
0000
0100
0010
0000
,
1000
0000
0001
0100
0001
0000
1000
0100
1000
0000
0001
0100
0001
0000
0010
0000
,
0100
0000
0010
0001
0010
0000
0001
0000
1000
0100
1000
0000
0001
0100
0001
0100
,
0001
0000
1000
0010
1000
0000
0001
0000
1000
0010
1000
0000
0001
0010
0001
0000
,
1000
0100
1000
0100
0010
0001
0010
0001
1000
0010
1000
0010
0100
0001
0100
0001
,
2000
0000
0001
0000
0001
0000
0100
3100
,
0000
0000
1000
0000
0100
0010
0100
0000
1000
0000
0001
0000
0100
0000
1000
0000
,
0100
0000
0010
0000
1000
0010
1000
0000
0100
0000
0001
0000
0100
0000
1000
0000
,
0010
0000
0100
0000
0001
0010
0001
0000
0100
0000
0001
0000
1000
0000
0100
0000
,
0010
0000
0001
0000
1000
0010
1000
0000
0001
0000
1000
0000
0001
0100
0010
0000
,
0000
0000
1010
0000
1000
0010
1000
0000
0100
0000
0010
0000
0001
0000
0100
0000
,
1000
0000
0100
0000
0001
0010
0001
0000
0010
0000
1000
0000
0010
0000
0001
0000
,
0010
0000
0100
0000
1000
0100
1000
0000
0010
0000
0100
0000
0001
0000
1000
0000
,
0100
0000
1000
0000
0001
0100
0001
0000
1000
0000
0100
0000
1000
0100
0010
0000
,
0000
0000
1001
0000
0001
0100
0010
0000
0100
0000
0001
0010
0000
0001
0100
0000
,
0010
0000
1000
0000
0100
0010
0001
0000
0100
0000
0010
1000
0000
1000
0100
0000
,
0010
0000
0001
0000
0100
0010
1000
0000
0100
0000
1000
0010
0000
1000
0100
0000
,
0010
0000
0001
0000
1000
0100
1000
0000
0001
0000
0010
0000
0100
1000
0100
1000
,
0001
0000
0010
0000
0100
1000
0010
0000
0100
0000
0001
0100
0001
0100
0010
0000
,
1000
0100
0001
0100
1000
0100
0001
0100
,
1000
0000
0001
0100
0001
0100
0001
0100
0001
0000
1000
0100
1000
0100
1000
0100
,
2000
3002
2003
3002
,
0013
1100
0000
0100
1000
0010
2000
0100
,
0000
0100
0000
3001
0010
0100
1000
0010
,
0100
0002
0000
1000
0000
1003
0010
2000
,
0000
0001
0000
3001
0100
0010
1000
0100
,
0010
0001
0100
0001
0010
0001
0100
0001
,
1000
0010
0100
0010
1000
0010
0100
0010
,
1010
0000
0000
1001
0000
0000
1100
0000
1010
0000
0000
0110
0000
0000
0011
0000
,
1001
0000
0001
0100
0001
0100
0001
0100
0010
1000
0010
1000
0010
1000
0001
0000
,
0000
0000
0000
1001
1001
1001
0000
1001
,
0001
1000
0100
0000
0010
0001
0100
0000
0001
1000
0100
0010
0001
0000
0100
0000
,
0010
1000
0100
0000
0010
0001
0100
0000
0001
0010
0100
1000
0001
0000
1000
0000
,
0010
0100
0001
0000
0010
0100
1000
0000
0100
0010
0001
0010
0100
0000
1000
0000
,
0001
0100
0010
0000
0100
0010
1000
0000
0010
1000
0100
0000
0010
0001
0100
0010
,
1000
0100
0010
0000
0001
0100
0010
0000
1000
0100
0010
0001
1000
0000
0010
0000
,
0100
0001
0010
0000
0100
1000
0001
0000
0100
0001
1000
0001
0100
0000
0010
0000
,
0100
0001
1000
0000
0100
1000
0001
0000
0010
0001
0010
0100
1000
0001
0010
0100
,
1000
0100
0000
0001
0100
0000
1000
0100
,
1000
0000
0001
0100
0010
0100
0001
0000
0010
0000
0100
1000
0001
1000
0100
0000
,
1000
0000
0100
0010
0001
0010
0100
0000
1000
0100
1000
0000
0001
0010
0001
0000
,
1000
0100
1000
0001
0010
0000
0100
0010
0001
0010
0100
0000
1000
0100
1000
0001
,
0100
0001
1000
0010
1000
0001
0010
0001
0010
0100
0010
0100
1000
0000
0010
0000
,
0100
0000
0001
0000
1000
0100
1000
0001
1000
0100
1000
0001
0100
0001
1000
0001
,
0200
0320
2030
3002
,
1003
0010
0000
0001
0010
0000
1000
0020
,
0000
0000
0000
2030
0000
0000
3200
0000
,
0320
0000
0000
0031
0100
0020
0000
2030
,
0000
0000
0000
3020
0000
0000
0230
0000
,
0302
0000
0000
1003
0010
1000
0000
0110
,
0000
0001
0100
0001
1000
0100
1000
0010
,
0001
0010
1000
0001
0010
1000
0010
0000
,
1001
0000
0001
0010
0100
0000
0100
0000
1000
0100
1000
0000
0001
0100
0001
0000
,
1001
0000
1000
0010
0100
0000
0100
0000
0001
0100
0001
0000
1000
0100
2000
0000
,
0000
0000
0000
0000
,
0000
0000
0000
3000
;

//--------------- dance-single - ----------------
#NOTES:
     dance-single:
     :
     Challenge:
     17:
     0.9799,1.125406,0.541233,0.331367,1.005147,621,572,49,30,0,0,0.9799,1.125406,0.541233,0.331367,1.005147,621,572,49,30,0,0:
0000
0000
0000
0000
,
0000
0000
0000
0000
0000
0000
0000
0000
0000
0000
0000
0000
0100
0001
0100
0010
,
2000
0000
0000
3020
0000
0000
0230
0000
,
0302
0000
0000
0000
0003
0000
0100
0000
0010
1000
0010
0000
0000
0000
0102
0000
,
0000
0000
0000
0203
0000
0000
0320
0000
,
2030
0000
0000
0000
0000
0000
3001
0000
0010
0100
0010
0000
0000
0000
1001
0000
,
0000
0000
0001
0000
1000
0100
1000
0000
0010
0000
0100
0001
1000
0001
0100
0000
,
0010
0000
1000
0100
1000
0000
0001
0100
0001
0000
1000
0010
1000
0000
1100
0000
,
0011
0000
1000
0100
0010
0000
0001
0000
0010
0100
1000
0000
0001
0100
0010
0100
,
0001
0000
0100
0001
0010
0000
0100
0000
1000
0100
1000
0000
0001
0100
0001
0000
,
1000
0100
1000
0100
1000
0010
1000
0010
0100
0001
0100
0001
0010
0100
0010
0100
,
0020
0000
0001
0000
1000
0000
0100
0130
,
0000
0000
1100
0000
0100
0010
0001
0000
0100
0000
0001
0010
0000
0010
0001
0000
,
0100
0000
0010
0000
1000
0010
0100
0000
0010
0000
1000
0100
0000
0100
1000
0000
,
0010
0000
0100
0000
0001
0010
0100
0000
0010
0000
0100
1000
0000
1000
0100
0000
,
0010
0000
0001
0000
1000
0010
0100
0000
0001
0000
1000
0000
0010
0100
0010
0000
,
0000
0000
0110
0000
0001
0100
0010
0000
0100
0000
0010
1000
0000
1000
0010
0000
,
0100
0000
0001
0000
0010
0100
1000
0000
0100
0000
0010
0001
0000
0001
0100
0000
,
0010
0000
1000
0000
0100
0010
0001
0000
1000
0000
0010
0100
0000
0100
0001
0000
,
1000
0000
0001
0000
0010
0100
1000
0000
0001
0000
0100
0000
0010
0100
0001
0000
,
0000
0000
1001
0000
1000
0100
1000
0000
0100
0000
0010
0001
0010
0001
0100
0000
,
0101
0000
0010
0000
1000
0100
1000
0000
0001
0000
1000
0010
1000
0010
0100
0000
,
1010
0000
0100
0000
0001
0010
0001
0000
0100
0000
0010
1000
0010
1000
0100
0000
,
0110
0000
1000
0000
0001
0100
0001
0000
0101
0000
1000
0000
0100
1000
0100
1000
,
0001
0000
0010
0000
0100
0010
0001
0000
0100
0000
0010
1000
0100
0010
0001
0000
,
1000
0000
1100
0000
0001
0000
0101
0000
1000
0000
1010
0000
0010
0000
1000
0100
,
0010
0000
0001
0100
0001
0010
0001
0100
0001
0000
1000
0100
1000
0010
1000
0100
,
2000
3002
2003
3002
,
0013
0110
0000
0100
1000
0010
0200
0001
,
0000
0001
0000
0301
0010
0100
1000
0010
,
0100
0020
0000
1000
1000
1030
0010
0200
,
0000
0001
0000
0301
0010
1000
0010
0100
,
0011
0010
0100
1000
0011
0010
0100
1000
,
1010
0010
0100
0001
1010
0010
0100
0001
,
0011
0000
0000
1001
0000
0000
1000
0100
0010
0000
0000
0110
0000
0000
0001
0100
,
0010
0000
1000
0010
0100
0001
1000
0010
0100
0010
1000
0001
1000
0001
1000
0000
,
0000
0000
0000
1001
1001
1001
0000
1001
,
0001
1000
0100
1000
0010
0100
0001
1000
0100
1000
0010
0100
0001
1000
0100
1000
,
0010
0100
0001
1000
0001
0010
0100
0010
0100
1000
0010
1000
0010
0100
0001
0100
,
0010
1000
0001
0100
0010
0100
0001
1000
0100
0010
0001
0010
0100
1000
0001
0100
,
0010
1000
0100
0010
0001
0100
0001
0100
0010
1000
0100
1000
0001
0100
0010
1000
,
0100
0010
0100
0010
0001
0100
0010
1000
0100
0010
0100
0010
0001
0100
0010
1000
,
0100
0010
0100
0010
0001
0100
0010
1000
0001
0100
0010
0100
0001
1000
0100
0010
,
0100
1000
0010
1000
0001
0100
0010
1000
0001
0100
0001
0100
0010
1000
0001
0100
,
0001
0101
0000
1001
1001
0000
0011
0011
,
1000
0001
0010
0100
1000
0001
1000
0001
0010
0100
1000
0001
1000
0001
0010
0100
,
1000
0001
1000
0010
0100
0001
0100
0001
1000
0010
1000
0100
0010
0001
1000
0010
,
0100
0010
1000
0001
1000
0100
0010
0001
1000
0010
0100
0010
0100
0001
1000
0100
,
0010
0100
1000
0001
1000
0010
0100
0001
0010
0100
0010
0001
1000
0010
0100
0010
,
1000
0100
0010
0100
1000
0001
0100
0001
0100
0010
1000
0010
1000
0100
0010
0100
,
2000
3020
0230
0302
,
1003
1010
0000
0010
0110
0000
1001
2001
,
0000
0000
0000
3020
0000
0000
0230
0000
,
0302
0000
0003
1000
1100
1002
0000
0023
,
0000
0000
0000
0230
0000
0000
2300
0000
,
3020
0000
0000
0000
0000
0000
0130
0000
0001
0100
0010
0000
0000
0000
0110
0000
,
0000
0100
0011
1000
0110
0001
1010
0100
,
1001
0010
0101
1000
0011
0100
1010
0000
,
1001
0000
0100
1000
0010
0000
1001
0000
0010
0001
0100
0000
0010
1000
0100
0000
,
1001
0000
0001
0100
0010
0000
0110
0000
1000
0100
0010
0000
0001
0010
2000
0000
,
0000
0000
0000
0000
,
0000
0000
0000
3000
;
