#TITLE:すろぉもぉしょん;
#SUBTITLE:;
#ARTIST:ピノキオピー;
#TITLETRANSLIT:SLoWMoTIoN;
#SUBTITLETRANSLIT:;
#ARTISTTRANSLIT:PinocchioP;
#GENRE:POP;
#CREDIT:;
#MUSIC:SLoWMoTIoN.ogg;
#BANNER:SLoWMoTIoN.png;
#BACKGROUND:SLoWMoTIoN-bg.png;
#CDTITLE:;
#SAMPLESTART:72.938;
#SAMPLELENGTH:13.313;
#SELECTABLE:YES;
#OFFSET:0.000;
#BPMS:0.000=160.000;
#STOPS:;
#BGCHANGES:;
#FGCHANGES:;

//--------------- dance-single - ----------------
#NOTES:
     dance-single:
     :
     Edit:
     17:
     0,0,0,0,0:
0000
0000
0000
0000
,
0001
0000
1000
0100
1000
0000
0001
0100
0001
0000
1000
0100
1000
0000
0001
0100
,
0001
0000
1000
0100
1000
0000
0001
0100
0001
0000
1000
0100
1000
0001
0100
0001
,
1000
0000
0001
0100
0001
0000
1000
0100
1000
0000
0001
0100
0001
0000
1000
0100
,
1000
0000
0001
0100
0001
0000
1000
0100
1000
0000
0001
0100
0001
1000
0100
1000
,
0002
1000
0100
1000
,
0100
0000
1000
0000
0103
0010
0100
0010
,
1001
0000
0110
0000
1100
0101
0000
1001
,
0000
0000
0001
0100
0010
1000
0001
0100
0010
1000
0001
0100
0010
1000
0001
0100
,
0001
0000
0000
0010
0000
0000
0001
0000
0000
0010
0000
0000
0001
0000
0000
0010
0000
0000
0100
0000
0000
1000
0000
0000
0001
0000
0000
0100
0000
0000
0001
0000
0000
0100
0000
0000
0001
0000
0000
0000
0000
0000
1000
0000
0010
0000
0000
0000
,
0000
0000
0000
0000
0000
0000
0100
0000
0001
0000
0100
0000
0001
0000
0000
0000
0000
0000
1000
0000
0001
0000
1000
0000
0001
0000
0000
0000
0000
0000
0010
0000
0000
0100
0000
0000
0010
0000
0000
0000
0000
0000
0001
0000
0000
0000
0000
0000
,
1000
0010
1000
0010
1000
0010
0100
0001
1000
0100
1000
0100
1000
0000
0001
0000
,
0010
0000
0000
0100
0000
0000
0010
0000
0000
0000
0000
0000
0100
0000
1000
0000
0100
0000
1000
0000
0000
0000
0000
0000
0001
0000
0000
0100
0000
0000
0010
0000
0000
0100
0000
0000
0001
0000
0000
0100
0000
0000
0010
0000
0000
0100
0000
0000
,
0001
0000
1000
0100
0010
0000
0001
0000
1000
0000
0010
0100
0010
0000
0100
0001
,
1000
0000
0100
0010
0100
0000
1000
0000
0001
0000
1000
0000
0001
0100
0010
1000
,
0001
0000
0010
0000
0100
0010
0001
0010
0100
0000
1000
0000
0001
0000
0100
0010
,
1000
0000
1001
0000
1001
0000
1000
0100
0010
0000
0001
0000
1000
0000
0001
0100
,
0001
0000
1001
0000
0000
0000
0001
0000
0100
0000
0010
1000
0010
0000
0100
0000
,
0001
0000
1001
0000
0000
0000
1000
0100
1000
0000
0010
0000
0100
0000
0001
0000
,
1000
0000
1100
0000
0000
0000
0010
0000
0001
0000
1000
0001
1000
0000
0010
0000
,
0100
1001
0000
1000
0010
0100
0001
1000
,
0001
0000
0011
0000
0000
0000
0010
0000
0001
0000
1000
0010
1000
0000
0001
0100
,
0001
0000
1010
0000
0000
0000
1000
0010
0100
0000
0001
0010
0100
0000
1000
0000
,
0001
0000
0101
0000
0000
0000
0100
0000
0001
1000
0001
0000
0010
0000
0100
0000
,
1000
0000
1010
0000
0000
0000
0110
0000
1000
0000
0001
0000
1000
0000
0100
1000
,
0010
0000
1010
0000
1000
0000
0001
0000
0010
0000
0100
1000
0001
0000
0010
0000
,
0100
0000
0110
0000
0010
0000
0001
1000
0010
0000
0100
0000
0001
0000
0100
0000
,
0010
0000
1010
0000
1000
0000
0100
0000
0010
0000
0100
1000
0010
0000
0100
0000
,
0001
0000
1001
0000
1000
0000
0001
0000
0010
0000
0100
0000
0010
0001
1000
0000
,
0001
0000
0101
0000
0100
0000
0010
0000
1000
0000
0001
0010
0100
0000
1000
0100
,
0010
0000
0011
0000
0001
0000
1000
0001
0100
0000
0010
0000
0100
0000
0001
0000
,
0011
0000
0000
0000
0000
0000
0010
0000
0000
0000
0000
0000
0110
0000
0000
0000
0000
0000
0100
0000
0000
0000
0000
0000
1000
0000
0000
0010
0000
0000
0000
0000
0000
0100
0000
0000
0001
0000
0000
0000
1000
0000
0000
0000
0100
0000
0000
0000
,
1000
0000
0000
0000
0000
0000
0001
0000
0000
0000
0000
0000
0100
0000
0000
0000
0000
0000
0010
0000
0000
0000
0000
0000
1000
0000
0000
0000
0100
0000
0000
0000
0010
0000
0000
0000
0001
0000
0000
1000
0000
0000
0001
0000
0000
0100
0000
0000
,
0010
1000
0100
1000
0001
1000
0110
0001
,
0110
1000
0001
0110
1000
0000
0011
0000
,
1100
0000
1000
0100
0010
0100
1001
0010
,
1001
0100
0010
1001
0100
0000
1010
0000
,
0101
0000
0001
0100
0010
1000
0101
0010
,
1010
0100
0001
0011
0100
0000
0010
0100
,
1001
0000
0000
0000
0000
0000
0000
0000
0000
0000
0000
0000
1000
0100
1000
0000
,
0001
0000
0000
0000
0100
0000
0010
0000
0100
0000
0000
0000
0001
0000
0000
0000
1000
0000
0100
0010
0001
1000
0100
0010
0001
0000
0000
0000
1000
0000
0000
0000
,
1010
0000
0100
0001
0010
0000
0100
0000
1000
0000
0010
1000
0100
0000
1000
0000
,
0010
0000
0100
0001
0010
0000
0001
0000
0100
0000
0001
0000
0010
0001
1000
0001
,
0100
0000
0010
1000
0100
0000
1000
0000
0010
0000
0100
0000
0001
0000
0010
0000
,
0011
0000
0100
0000
1100
0000
0010
0000
0011
0000
0001
0000
0100
0010
0100
0010
,
1000
0001
0100
0100
1000
0100
0010
0010
,
1000
0001
0100
0100
1000
0001
0010
0010
,
1000
0000
0001
0100
0001
0000
1000
0100
1000
0001
0100
0001
1000
0100
1000
0001
,
0010
0000
0000
0000
0000
0000
0100
0000
1000
0000
0100
0000
2000
0000
0000
0000
0000
0000
0000
0000
0000
0000
0000
0000
0000
0000
0000
0000
0000
0000
3001
0000
0000
0000
0000
0000
0100
0000
0000
0010
0000
0000
1000
0000
0001
0000
1000
0000
,
0001
0000
0000
0100
0000
0000
0001
0000
0000
0100
0000
0000
0001
0000
0000
0100
0000
0000
0010
0000
0000
1000
0000
0000
0001
0000
0000
0010
0000
0000
0001
0000
0000
0010
0000
0000
0001
0000
0000
0000
0000
0000
1000
0000
0100
0000
0000
0000
,
0000
0000
0000
0000
0000
0000
0010
0000
0001
0000
0010
0000
0001
0000
0000
0000
0000
0000
1000
0000
0001
0000
1000
0000
0001
0000
0000
0000
0000
0000
0100
0000
0000
0010
0000
0000
0100
0000
0000
0000
0000
0000
0001
0000
0000
0000
0000
0000
,
1000
0100
1000
0100
1000
0100
0010
0001
1000
0010
1000
0010
1000
0000
0001
0000
,
0100
0000
0000
0010
0000
0000
0100
0000
0000
0000
0000
0000
0010
0000
1000
0000
0010
0000
1000
0000
0000
0000
0000
0000
0001
0000
0000
0010
0000
0000
0100
0000
0000
0010
0000
0000
0001
0000
0000
0010
0000
0000
0100
0000
0000
0010
0000
0000
,
0001
0000
1000
0100
0010
0100
1000
0100
0010
0001
0100
0001
1000
0001
0100
0010
,
0001
0010
0100
0010
0001
0010
0100
0001
0010
0001
0100
0001
0010
0001
0100
0001
,
1000
0000
0001
0010
0100
0000
1000
0100
0010
0000
0001
0010
0001
0010
0001
0010
,
0100
0000
0000
1000
0000
0000
0100
0000
0000
1000
0000
0000
0100
0000
0000
1000
0000
0000
0010
0000
0000
0100
0000
0000
0010
0000
0000
0000
0000
0000
0100
0000
0001
0000
0100
0000
0001
0000
0000
0010
0000
0000
0001
0000
1000
0000
0001
0000
,
1000
0000
0000
0100
0000
0000
1000
0000
0000
0100
0000
0000
1000
0000
0000
0100
0000
0000
0010
0000
0000
0001
0000
0000
1000
0000
0000
0010
0000
0000
1000
0000
0000
0010
0000
0000
1000
0000
0000
0000
0000
0000
0001
0000
0100
0000
0000
0000
,
0000
0000
0000
0000
0000
0000
0010
0000
1000
0000
0010
0000
1000
0000
0000
0000
0000
0000
0001
0000
1000
0000
0001
0000
1000
0000
0000
0000
0000
0000
0100
0000
0000
0010
0000
0000
0100
0000
0000
0000
0000
0000
1000
0000
0000
0000
0000
0000
,
0001
0100
0001
0100
0001
0100
0010
1000
0001
0010
0001
0010
0001
0000
1000
0000
,
0100
0000
0000
0010
0000
0000
0100
0000
0000
0000
0000
0000
0010
0000
0001
0000
0010
0000
0001
0000
0000
0000
0000
0000
1000
0000
0000
0010
0000
0000
0100
0000
0000
0010
0000
0000
1000
0000
0000
0010
0000
0000
0100
0000
0000
0010
0000
0000
,
1000
0000
0001
0000
0010
0000
0100
0000
1000
0010
1000
0000
0001
0100
0001
0000
,
1000
0010
0100
0001
1000
0010
0100
0001
1000
0100
0010
0001
1000
0100
0010
0001
,
1000
0000
0010
0100
0010
0000
1000
0000
0101
0000
1010
0000
0101
0000
1010
0000
,
0001
0000
0010
0100
0010
0000
0001
0000
1100
0000
0011
0000
1100
0000
0011
0000
,
1000
0000
0010
0100
0010
0000
1000
0000
1001
0000
0001
0010
0100
0000
1000
0000
,
0001
2002
0000
0000
0000
0000
0000
0000
,
0000
0000
0003
0001
0001
0010
0010
0100
,
3100
0000
1000
0000
0010
0000
0100
0010
0100
0010
1000
0100
1000
0001
0010
0100
,
0010
0000
0000
0100
0000
0000
1000
0000
0001
0000
1000
0000
0001
0000
0000
0000
0000
0000
0100
0000
0000
0000
0000
0000
0010
0000
0000
1000
0000
0000
0100
0000
0000
0000
0000
0000
0010
0000
0000
0000
0000
0000
0001
0000
0000
0100
0000
0000
,
0001
1000
0000
0001
0010
0000
0100
1000
0100
0000
1000
0000
0010
0100
0010
0100
,
0001
0000
1000
0100
1000
0000
0001
0000
1000
0000
0010
0100
0010
0000
1000
0000
,
0001
0000
0000
0000
0000
0000
1000
0000
0000
0100
0000
0000
0010
0000
0000
0000
0000
0000
0001
0000
0000
0000
0000
0000
1000
0000
0000
0100
0000
0000
0010
0000
0000
0000
0000
0000
0001
0000
0000
1000
0000
0000
0100
0000
0010
0000
0001
0000
,
1000
0000
0000
0000
0000
0000
0001
0000
0000
0100
0000
0000
0010
0000
0000
0000
0000
0000
1000
0000
0000
0000
0000
0000
0001
0000
0000
0100
0000
0000
0010
0000
0000
0000
0000
0000
1000
0000
0000
0001
0000
0000
0100
0000
0010
0000
1000
0000
,
0001
0100
0001
0100
0010
0000
1000
0100
0010
0000
0001
0000
1000
0010
2000
0000
,
0000
0000
0000
0000
0000
0000
3001
0000
0010
0000
0001
0000
0100
0000
0000
0000
0000
0000
0010
0000
1000
0000
0010
0000
0100
0000
0000
0000
0000
0000
0001
0000
0000
0010
0000
0000
0100
0000
0000
0000
0000
0000
1000
0000
0000
0000
0000
0000
,
2002
0000
0000
0000
0000
0000
3003
0220
,
0000
0000
0000
0000
0000
0000
0000
0330
,
0002
2000
0000
0000
0000
0000
0000
0000
0MM0
0000
0MM0
0000
0MM0
0000
0000
0000
,
0MM0
0000
0MM0
0MM0
3003
0000
0000
0000
;
