#TITLE:色彩;
#SUBTITLE:;
#ARTIST:yama;
#TITLETRANSLIT:SHIKISAI (Color);
#SUBTITLETRANSLIT:;
#ARTISTTRANSLIT:yama;
#GENRE:Anime;
#CREDIT:;
#MUSIC:SHIKISAI (Color).ogg;
#BANNER:SHIKISAI (Color).png;
#BACKGROUND:SHIKISAI (Color)-bg.png;
#CDTITLE:;
#SAMPLESTART:54.252;
#SAMPLELENGTH:16.923;
#SELECTABLE:YES;
#OFFSET:0.620;
#BPMS:0.000=117.000;
#STOPS:;
#BGCHANGES:1.250=SHIKISAI (Color).avi=1.000=0=0=0=StretchNoLoop====,
99999.000=-nosongbg-=1.000=0=0=0=StretchNoLoop====
;
#FGCHANGES:;

//--------------- dance-single - ----------------
#NOTES:
     dance-single:
     :
     Medium:
     11:
     0,0,0,0,0:
0000
0000
0000
0000
,
0000
0000
0000
0000
,
0000
0000
0000
0000
,
0000
0000
0000
0000
,
0001
0000
0100
0000
0001
0000
1000
0000
0100
0000
1000
0000
0001
0000
0000
1000
0000
0000
0100
0000
0000
0000
0000
0000
,
0100
1000
0001
0100
0010
1000
1100
0000
,
0001
1000
0010
0100
0010
1000
0100
0010
,
0011
0000
0001
0010
0100
1000
0001
0010
,
0110
0000
0000
0000
1001
0000
1000
0001
,
1000
0010
0100
0001
0010
0100
1000
0001
,
2000
0000
0000
0000
0000
3010
0000
0000
0000
0100
0000
0000
0002
0000
0000
0000
0000
0013
0000
0000
0000
0100
0000
0000
,
1000
0001
0100
0001
0100
1000
0000
1000
,
0100
0001
0010
0100
0010
0001
1000
0100
,
0010
0000
0001
1000
0000
0001
1000
0010
,
0100
1000
0100
0001
0010
1000
0010
0001
,
1000
0100
0010
0000
0001
0010
0100
0000
,
1100
0000
1000
0010
0001
1000
0100
0001
,
0010
0000
0100
1000
0010
0000
0100
0010
,
1001
0000
0001
0000
1000
0001
1000
0000
,
0110
0000
1001
0000
0001
1000
0100
0000
,
0010
0001
1000
0010
0100
0010
0000
1000
,
1000
0000
0000
0000
0000
0001
0000
0000
0000
0010
0000
0000
0010
0000
0000
0000
0000
0100
0000
0000
0000
1000
0000
0000
,
0001
0100
0001
0010
0100
1000
0010
1000
,
0100
0001
0100
0000
0100
1000
0001
0100
,
0101
0000
0001
1000
0001
1000
0010
0100
,
0100
0000
0000
0000
0000
0001
0000
0000
0000
0010
0000
0000
0010
0000
0000
0000
0000
0100
0000
0000
0000
1000
0000
0000
,
1001
0000
0000
0000
0110
0000
1010
0101
,
0001
0010
0001
1000
0100
0000
0011
1100
,
1000
0010
1000
0100
1000
0010
0100
0101
,
1100
0000
1000
0001
0000
0001
1000
0001
,
0101
0000
1010
0000
1001
0000
1000
0100
,
1100
1000
0001
0100
0001
0010
0110
0000
,
0100
1000
0001
1000
1010
0000
0100
0010
,
1001
0000
0001
0100
0000
0100
0001
1000
,
1100
0000
0011
0000
0101
0000
1010
0101
,
0001
0010
0100
1000
0001
0000
0011
1100
,
1000
0010
0100
0001
1000
0010
1010
0101
,
1001
0000
0001
0100
1000
0100
0001
0010
,
2000
0000
3020
0000
0031
0100
0010
0000
,
0010
1000
1100
0000
0010
0001
0101
0000
,
0100
0001
0011
0000
0100
1000
0010
0110
,
1001
0000
0001
1000
0100
0000
0100
1000
,
1010
1100
0101
0012
,
0103
0000
0000
0000
;

//--------------- dance-single - ----------------
#NOTES:
     dance-single:
     :
     Hard:
     14:
     0,0,0,0,0:
0000
0000
0000
0000
,
0000
0000
0000
0000
,
0000
0000
0000
0000
,
0000
0000
0000
0000
,
0001
0000
0010
0000
0100
0000
1000
0000
0010
0000
0100
0000
0101
0000
0000
0001
0000
1000
0100
0000
0010
0000
0000
0000
,
0001
0000
0100
0010
0000
0100
0001
0000
0001
0010
0000
0100
0000
0000
1100
0000
0000
1000
0020
0000
0000
0130
0000
0000
,
0100
0000
0001
0100
0000
0010
1000
0000
0001
0010
0000
0200
0000
0000
0000
0001
0000
0000
0010
0000
0000
1300
0000
0000
,
1100
0000
0000
0000
0000
1000
0001
0000
0001
0100
0000
0020
0000
0000
0000
1000
0000
0000
0100
0000
0000
1030
0000
0000
,
0110
0000
0000
0000
0000
0000
0000
0000
0000
0000
0000
0000
0110
0000
0100
0001
0000
0001
1000
0000
0000
1001
0000
0000
,
0002
0000
0000
0023
0000
0000
0230
0000
0000
2300
0000
3010
0100
0000
0010
0100
0000
0001
1000
0000
0000
0001
0000
0000
,
0020
0000
0000
0000
0000
0130
0000
0000
0100
1000
0000
0000
2000
0000
0000
0000
0000
3001
0000
0000
0001
0100
0000
0010
,
1000
0000
0010
1000
0000
0001
0010
0000
0000
0100
0000
1000
0010
0000
1000
0010
0000
0100
0000
0000
0100
0001
0000
1000
,
0001
0000
0001
0010
0000
0001
1000
0000
1000
0010
0000
0100
0000
0000
0100
0001
0000
0000
1000
0000
0001
0010
0000
0000
,
0100
0000
0100
2000
0000
0000
0001
0000
0000
0010
0000
0100
3000
0000
1000
0010
0000
0000
0010
0000
0100
0001
0000
0001
,
2000
0000
0000
3020
0000
0000
0230
0000
0000
0302
0000
0000
0023
0000
0000
2030
0000
0000
3010
0000
0010
0001
0000
1000
,
0001
0000
0001
0100
0000
0010
0100
0000
1000
0100
0000
0000
0001
0000
0001
0010
0000
0100
0000
0000
0100
1000
0000
0000
,
2100
0000
0000
0000
0000
0000
3002
0000
0000
0023
0000
0000
0230
0000
0000
2300
0000
0000
3001
0000
0001
0100
0000
0010
,
0000
0000
0010
0100
0000
0000
0200
0000
0000
0301
0000
1000
0010
0000
0010
0100
0000
0001
0010
0000
0010
0100
0000
0000
,
1001
0000
0000
0000
0000
0000
0001
0000
0000
0010
0000
0000
0100
0000
0000
0000
0000
0000
0001
0000
0000
0100
0000
0000
0000
0000
0000
1000
0000
0000
0100
0000
0000
0000
0000
0000
0010
0000
0000
0000
0100
0000
1000
0000
0000
0000
0100
0000
,
0000
0000
0010
0000
0000
0010
0001
0000
1000
0010
0000
1000
0010
0000
0100
0001
0000
0010
0000
0000
0100
1000
0000
0100
,
1000
0000
1000
0010
0000
0000
0100
0000
0100
0001
0000
0001
0010
0000
0100
1000
0000
0010
0000
0000
0000
0100
0000
0000
,
0100
0000
0000
0001
0000
2000
0000
0000
0000
3100
0000
0000
0100
0000
0000
1000
0000
0002
0000
0000
0000
2003
0000
0000
,
3020
0000
0000
0230
0000
0000
0302
0000
0000
0023
0000
0000
0230
0000
0000
2300
0000
0000
3002
0000
0000
1003
0000
0010
,
0100
0000
0100
0010
0000
0000
1000
0000
0000
0001
0000
0010
0100
0000
0100
0010
0000
0000
0001
0000
1000
0010
0000
0000
,
0101
0000
0002
0023
2030
3002
0203
2300
,
3010
0000
0000
0010
0000
0200
0000
0000
0000
0301
0000
0000
1000
0000
0000
1000
0000
0002
0000
0000
0000
0013
0000
0000
,
0110
0000
0000
0000
0000
0000
0000
0000
0000
0000
0000
0000
1001
0000
1000
0010
0000
0100
0001
0000
0000
1010
0000
0000
,
1000
0000
0001
0100
0000
0100
0001
0000
0001
1000
0000
0200
0000
0000
0310
0000
0000
0000
1100
0000
0000
0011
0000
0000
,
0001
0000
1000
0100
0000
0100
1000
0000
1000
0001
0000
0200
0000
0000
0000
0320
0000
0000
2030
0000
0000
3020
0000
0000
,
0230
0000
0000
0301
0000
1000
0100
0000
1000
0010
0000
0100
0000
0000
0100
0000
0000
0001
0010
0000
0001
0100
0000
0000
,
1000
0000
0000
0100
0000
0001
0010
0000
0200
0000
0000
2300
0000
0000
0000
3010
0000
0100
0010
0000
1000
0001
0000
1000
,
0100
0000
0100
0010
0000
0010
0100
0000
0100
1000
0000
0020
0000
0000
0230
0000
0000
0301
1000
0000
0000
1000
0000
0001
,
0100
0000
0100
0010
0000
0010
0100
0000
0100
0001
0000
0020
0000
0000
0000
0230
0000
0000
2300
0000
0000
3010
0000
0000
,
0110
0000
0000
0100
0000
0010
1000
0000
1000
0100
0000
0010
0000
0000
0010
0001
0000
0000
0001
0000
0100
0010
0000
0010
,
2000
0000
0000
0000
0000
3002
0000
0000
0000
0013
0000
0010
0002
0000
0000
0000
0000
0103
0010
0000
0000
1001
0000
0000
,
0001
0000
1000
0100
0000
0100
0001
0000
0001
0100
0000
0010
0000
0000
0110
0000
0000
0000
1001
0000
0000
1001
0000
0000
,
1000
0000
0001
0100
0000
0100
1000
0000
1000
0100
0000
0020
0000
0000
0000
2030
0000
0000
3002
0000
0000
0013
0000
0000
,
1001
0000
0000
0001
0000
0010
0100
0000
0010
0001
0000
0100
0000
0000
0010
1000
0000
1000
0001
0000
0001
0010
0000
0100
,
1000
0000
0000
1000
0000
0010
0100
0000
0100
0010
0000
1000
0000
0000
0001
0010
0000
0010
0100
0000
0100
1000
0000
0000
,
1000
0000
0010
0100
0000
1000
0100
0000
0001
1000
0000
0100
0000
0000
1100
0000
0000
1000
0010
0000
0100
0001
0000
0010
,
0100
0000
0001
0100
0000
1000
0001
0000
0100
0010
0000
2000
0000
0000
0000
3002
0000
0000
0023
0000
0000
0130
0000
0000
,
1001
0000
0000
0001
0000
1000
0100
0000
1000
0010
0000
0100
0000
0000
0001
0100
0000
0001
0010
0000
0000
0100
0000
0000
,
1100
0000
0000
0000
0000
1000
0100
0000
0010
0001
0000
0100
0000
0000
0000
0001
0000
0100
0010
0000
0000
1000
0000
0000
,
1001
0000
0000
0000
;

//--------------- dance-single - ----------------
#NOTES:
     dance-single:
     :
     Challenge:
     17:
     0.70843,0.906378,0.144222,0,0.62681,447,434,13,0,0,0,0.70843,0.906378,0.144222,0,0.62681,447,434,13,0,0,0:
0000
0000
0000
0000
0000
0000
0001
0100
,
1100
0000
0101
0000
1100
0000
1000
0100
,
0101
0000
0000
0000
1100
0000
0000
0000
1001
0000
0001
0000
0100
0010
0100
0010
,
1000
0000
0000
0001
0000
0000
1010
0000
1000
0010
0000
0101
0000
0000
0001
0010
0000
0000
0110
0000
1000
0001
0000
0000
,
0001
0000
0100
0000
0100
0000
1000
0000
0001
0000
0010
0000
0010
0000
0100
0001
0100
0001
0010
0100
1000
0100
1000
0010
,
0100
0000
0000
0000
0000
0000
0000
0000
0100
0000
0000
0000
0001
0000
0000
0000
0000
0000
0000
0000
0001
0000
0000
0000
0010
0000
0000
0000
0000
0000
0000
0000
0100
0000
0000
0000
1000
0000
0000
0000
0000
0000
0000
0000
1010
0000
0000
0000
0000
0000
0000
0000
0000
0000
0000
0000
0100
0000
0000
0000
0001
0000
0000
0000
0000
0000
0000
0000
0001
0000
0000
0000
0010
0000
0000
0000
0000
0000
0000
0000
0000
0000
0000
0000
0100
0000
0000
1000
0000
0000
0100
0000
0000
1000
0000
0000
,
0001
0000
0001
0100
0000
0100
0010
0000
1000
0001
0000
0021
0000
0000
0130
1000
0000
0000
1010
0000
0000
0101
0000
0000
,
1001
0000
0000
0000
0000
0000
0000
0000
0000
0000
0000
0000
1000
0000
0000
0000
0000
0000
0000
0000
0001
0000
0000
0000
0010
0000
0000
0000
0000
0000
0000
0000
0100
0000
0000
0000
1000
0000
0000
0000
0000
0000
0000
0000
0001
0000
0000
0000
0200
0000
0000
0000
0000
0000
0000
0000
0000
0000
0000
0000
0010
0000
0000
0000
0000
0000
0000
0000
0000
0000
0000
0000
0310
0000
0000
0000
0000
0000
0000
0000
0000
0000
0000
0000
0010
0000
0000
0100
0000
0000
0010
0000
0000
0100
0000
0000
,
0001
0000
0000
0000
0000
0000
0000
0000
0000
0000
0000
0000
0000
0000
0000
0000
0000
0000
0000
0000
0000
0000
0000
0000
0000
0000
0000
0000
0000
0000
0000
0000
0000
0000
0000
0000
0000
0000
0000
0000
0000
0000
0000
0000
0000
0000
0000
0000
0001
0000
0000
0000
0100
0000
0000
0000
0010
0000
0000
0000
1000
0000
0000
0000
0010
0000
0000
0000
1000
0000
0000
0000
0001
0000
0000
0010
0000
0000
0100
0000
0000
1000
0000
0000
0001
0000
0000
0010
0000
0000
0100
0000
0000
1000
0000
0000
,
0010
0000
0000
0000
0000
0000
0000
0000
0000
0000
0000
0000
0110
0000
0000
0000
0000
0000
0000
0000
0100
0000
0000
0000
0001
0000
0000
0000
0000
0000
0000
0000
0000
0000
0000
0000
0010
0000
0000
0000
0000
0000
0000
0000
0100
0000
0000
0000
1000
0000
0000
0000
0100
0000
0000
0000
0010
0000
0000
0000
0100
0000
0000
0000
1000
0000
0000
0000
0100
0000
0000
0000
0010
0000
0000
0000
0000
0000
0000
0000
0000
0000
0000
0000
0010
0000
0000
0100
0000
0000
1000
0000
0000
0100
0000
0000
,
1000
0000
0001
0100
0000
0110
0000
0000
1000
0010
0000
0100
0001
0100
0010
0100
0001
0100
0010
0000
0010
1000
0000
1000
,
0100
0000
0100
0010
0000
0100
1000
0000
0000
1000
0000
0001
0100
0000
0100
0001
0000
0101
0000
0000
0100
0010
0000
0010
,
1000
0000
1000
0010
0000
0010
0001
0000
1000
0100
0000
1100
0000
0000
0100
0001
0000
0000
0101
0000
0000
1000
0000
0000
,
1001
0000
0001
0010
0000
0000
0200
0000
0000
1000
0000
1300
0000
0000
1000
0010
0000
0000
0110
0000
0100
0001
0000
0001
,
0020
0000
0000
0230
0000
0000
2300
0000
0000
3020
0000
0000
0230
0000
0000
2300
0000
0000
3100
0000
0001
0010
0000
0100
,
1000
0000
1000
0001
0000
0001
0100
0000
0100
1000
0000
0000
0100
0000
0001
0010
0000
0011
0000
0000
0001
1000
0000
0000
,
1100
0000
0000
0001
0000
0100
0010
0000
0100
0020
0000
0000
2030
0000
0000
3200
0000
0000
1300
0000
0001
0100
0000
0100
,
0010
0000
0010
0100
0000
0000
0110
0000
0000
0110
0000
0100
0001
0000
0001
0010
0000
0010
1000
0000
0001
0100
0000
0100
,
1000
0001
1000
0001
1000
0000
0100
0000
0010
0000
0100
0000
0010
0000
0001
0000
0000
0000
0001
0000
0010
0000
0100
0000
1000
0000
0100
0000
0010
0000
0001
0000
,
0000
0000
0101
0000
0000
0100
0010
0000
0010
1000
0000
1000
0001
0000
0001
0010
0000
1100
0000
0000
1000
0001
0000
0100
,
0001
0000
1000
0020
0000
0000
0130
0000
0001
1000
0000
0010
1000
0000
0001
0010
0000
0011
0000
0000
0000
1100
0000
1000
,
0020
0000
0000
0100
0000
0230
0000
0000
0000
0301
0000
0001
0020
0000
0000
0100
0000
0230
0000
0000
1300
0010
0000
0100
,
0002
0000
0000
2003
0000
0000
3020
0000
0000
0130
0000
0000
0001
0000
0000
0101
0000
0000
1010
0000
0000
0101
0000
0001
,
0010
0000
0010
0100
0000
0000
1100
0000
1000
0010
0000
0010
0100
0000
0100
0001
0000
0000
0001
0000
1000
0100
0000
0000
,
1001
0000
0000
1000
0000
0000
0110
0000
0000
0110
0000
0000
0010
0000
0100
0010
0000
0000
0010
0000
0100
0010
0000
0000
,
0102
0000
0000
0013
0000
0020
0000
0000
0130
2000
0000
0000
3020
0000
0000
0100
0000
0230
0000
0000
0301
1000
0000
0010
,
1000
0000
0000
0000
0000
0000
0000
0000
0000
0000
0000
0000
1000
0000
0000
0000
0010
0000
0000
0000
1000
0000
0000
0000
0010
0000
0000
0000
0000
0000
0000
0000
0010
0000
0000
0000
0100
0000
0000
0000
0000
0000
0000
0000
0100
0000
0000
0000
0001
0000
0000
0000
0000
0000
0000
0000
0001
0000
0000
0000
0010
0000
0000
0000
0100
0000
0000
0000
0010
0000
0000
0000
0001
0000
0000
0010
0000
0000
0100
0000
0000
1000
0000
0000
0001
0000
0000
0010
0000
0000
0100
0000
0000
1000
0000
0000
,
0010
0000
0100
0010
0000
0001
0010
0000
0100
0010
0000
1000
0000
0000
1000
0100
0000
0000
1100
0000
0000
0011
0000
0000
,
0110
0000
0100
0010
0000
1000
0010
0000
0100
1000
0000
0020
0000
0000
0130
2000
0000
0000
3200
0000
0000
0301
0000
0000
,
1001
0000
0000
1000
0000
0001
0100
0000
0100
0010
0000
1010
0000
0000
0101
0000
0000
0001
0010
0000
0010
0100
0000
0100
,
2000
0000
0000
3001
0000
0001
0100
0000
0010
0000
0000
1010
0000
0000
1000
0010
0000
0010
0100
0000
0100
0001
0000
0001
,
0010
0000
0010
1000
0000
0001
0100
0000
0100
1000
0000
1010
0000
0000
0101
0000
0000
0001
0010
0000
0100
1000
0000
1000
,
0010
0000
0010
0001
0000
1000
0100
0000
0100
0001
0000
0012
0000
0000
1003
0200
0000
0000
0310
0000
0000
0010
0000
0000
,
0110
0000
0000
0100
0000
0100
1000
0000
1000
0010
0000
0200
0000
0000
0301
1000
0000
0000
0001
0000
0010
0100
0000
1000
,
0002
0000
0000
0000
0000
0103
0010
0000
0000
1000
0000
0001
0010
0100
0010
0100
0000
0100
1000
0010
1000
0010
0100
0001
,
0010
0000
0100
0010
0000
1000
0010
0000
0001
1000
0000
0002
0000
0000
0103
1000
0000
0100
0001
0010
0100
1000
0010
0100
,
1000
0000
0100
0010
0000
0100
0001
0000
1000
0100
0000
0020
0000
0000
0130
1000
0000
1000
0001
0000
0001
0010
0100
1000
,
0010
0000
0000
0000
0000
0000
0000
0000
0010
0000
0000
0000
0100
0000
0000
0000
0000
0000
0000
0000
0100
0000
0000
0000
0001
0000
0000
0000
0000
0000
0000
0000
0001
0000
0000
0000
1000
0000
0000
0100
0000
0000
1000
0000
0000
0100
0000
0000
0010
0000
0000
0000
0000
0000
0000
0000
0010
0000
0000
0000
0001
0000
0000
0000
0000
0000
0000
0000
1000
0000
0000
0000
0010
0000
0000
0000
0000
0000
0000
0000
0100
0000
0000
0000
0010
0000
0000
0000
0000
0000
0000
0000
1000
0000
0000
0000
,
0001
0000
0000
0100
0000
0000
0001
0000
0000
0100
0000
0000
0010
0000
0000
0000
0000
0000
0000
0000
0010
0000
0000
0000
1000
0000
0000
0000
0000
0000
0000
0000
0001
0000
0000
0000
0010
0000
0000
0100
0000
0000
0010
0000
0000
0100
0000
0000
1000
0000
0000
0000
0000
0000
0000
0000
1000
0000
0000
0000
0100
0000
0000
0000
0000
0000
0000
0000
0100
0000
0000
0000
0010
0000
0000
0000
0000
0000
0000
0000
0010
0000
0000
0000
0001
0000
0000
0000
0000
0000
0000
0000
0000
0000
0000
0000
,
1001
0000
0000
0000
0000
0000
0000
0000
1000
0000
0000
0000
0010
0000
0000
0000
0000
0000
0000
0000
0010
0000
0000
0000
0100
0000
0000
0001
0000
0000
0100
0000
0000
0001
0000
0000
0010
0000
0000
0000
0000
0000
0000
0000
0011
0000
0000
0000
0000
0000
0000
0000
0000
0000
0000
0000
1001
0000
0000
0000
0000
0000
0000
0000
0000
0000
0000
0000
0001
0000
0000
0000
0100
0000
0000
0000
0000
0000
0000
0000
0100
0000
0000
0000
0001
0000
0000
0000
0000
0000
0000
0000
0001
0000
0000
0000
,
0010
0000
0000
0000
0000
0000
0000
0000
0100
0000
0000
0000
1000
0000
0000
0010
0000
0000
1000
0000
0000
0010
0000
0000
0100
0000
0000
0000
0000
0000
0000
0000
0100
0000
0000
0000
0001
0000
0000
0000
0000
0000
0000
0000
1000
0000
0000
0000
0100
0000
0000
0010
0000
0000
0100
0000
0000
0010
0000
0000
0001
0000
0000
0000
0000
0000
0000
0000
0001
0000
0000
0000
1000
0000
0000
0000
0000
0000
0000
0000
1000
0000
0000
0000
0010
0000
0000
0100
0000
0000
0010
0000
0000
0100
0000
0000
,
0001
0000
0000
0000
0000
0000
0000
0000
0001
0000
0000
0000
1000
0000
0000
0000
0000
0000
0000
0000
1000
0000
0000
0000
0001
0000
0000
0010
0000
0000
0100
0000
0000
1000
0000
0000
0010
0000
0000
0000
0000
0000
0000
0000
0100
0000
0000
0000
0000
0000
0000
0000
0000
0000
0000
0000
0100
0000
0000
0000
0010
0000
0000
0000
0000
0000
0000
0000
0010
0000
0000
0000
1000
0000
0000
0100
0000
0000
0010
0000
0000
0001
0000
0000
1000
0000
0000
0000
0000
0000
0000
0000
0000
0000
0000
0000
,
0110
0000
0110
0000
0110
0000
0110
1000
,
0001
0000
0000
0000
;
