#TITLE:サムライコンプレックス;
#SUBTITLE:;
#ARTIST:yowanecity feat.初音ミク;
#TITLETRANSLIT:SAMURAI COMPLEX;
#SUBTITLETRANSLIT:;
#ARTISTTRANSLIT:yowanecity feat.Hatsune Miku;
#GENRE:POP;
#CREDIT:;
#MUSIC:SAMURAI COMPLEX.ogg;
#BANNER:SAMURAI COMPLEX.png;
#BACKGROUND:SAMURAI COMPLEX-bg.png;
#CDTITLE:;
#SAMPLESTART:32.127;
#SAMPLELENGTH:16.250;
#SELECTABLE:YES;
#OFFSET:2.623;
#BPMS:0.000=240.000;
#STOPS:;
#LASTBEATHINT:6.379968;
#BGCHANGES:10.250=SAMURAI COMPLEX.avi=1.000=0=0=0=StretchNoLoop====,
99999.000=-nosongbg-=1.000=0=0=0=StretchNoLoop====
;
#FGCHANGES:;

//--------------- dance-single - ----------------
#NOTES:
     dance-single:
     :
     Medium:
     13:
     0,0,0,0,0:
0000
0000
0000
0000
,
0000
0000
0000
0000
,
0000
0000
0000
0000
,
0000
0000
0000
0000
,
0000
0000
0000
0000
,
0000
0000
0000
0000
,
0000
0000
0000
0000
,
0110
0000
0001
0100
,
0101
0000
1000
0100
,
1100
0000
0000
0001
0000
0000
1000
0000
0010
0100
0000
0010
,
0200
0000
0000
0000
,
0310
0000
0000
1000
0000
0000
0001
0000
0010
0001
0000
0000
,
0010
0000
0000
0100
0000
1000
0000
0000
0001
1000
0000
0000
,
0010
0010
0100
0100
,
0001
0000
0000
1000
0000
0100
0000
0000
1000
0100
0000
0000
,
0010
0000
0000
0001
0000
0000
1000
0000
0010
1000
0000
0000
,
0001
0000
0000
1000
0000
0001
0000
0000
0100
0001
0000
0000
,
0010
0100
1000
0001
,
0110
0110
0110
0110
,
0001
0000
1000
0100
0000
0000
1000
0000
0001
0100
0000
0000
,
0001
0010
0100
1000
,
0001
0000
1000
0010
0000
0000
1000
0000
0001
0010
0000
0000
,
0100
0010
0100
0010
,
1001
0000
0000
0001
0000
0100
0010
0000
0000
0100
0000
0000
,
0001
0000
0000
1000
0000
0100
0010
0000
0000
0100
0000
0000
,
1000
1000
0001
0001
,
0100
0010
1000
0001
,
1000
0000
0100
1000
0000
0000
0001
0000
0100
0001
0000
0000
,
1020
0100
0100
1030
,
0001
0000
0010
0001
0000
0000
1000
0000
0010
1000
0000
0000
,
0021
0100
0001
0130
,
1001
1000
0010
0100
,
0101
0001
1100
1000
,
0110
0100
0010
0100
,
1001
1001
1001
0000
,
1001
0100
1001
0100
,
0101
1001
1100
0010
,
0102
0013
2100
3010
,
0120
1000
0100
1030
,
0001
0000
0100
0001
0000
0100
0001
0000
0100
0001
0000
0000
,
1000
0000
0100
1000
0000
0100
1000
0000
0100
1000
0000
0000
,
0010
1000
0100
0010
,
0011
1100
0011
0100
,
0110
1000
0110
0001
,
1010
0110
0101
0001
,
1020
0130
0021
0130
,
2001
0100
0010
3100
,
0110
0001
1000
0010
,
0101
1010
0101
1000
,
0010
0100
0001
1000
,
1100
0000
0101
0000
,
1001
0000
0000
1000
0000
0000
0001
0000
0100
0000
0000
0100
,
0000
0000
0000
0001
0000
1000
0000
0000
0100
0000
0000
0000
,
0010
0000
0000
0001
0000
0000
1000
0000
0100
0000
0000
0100
,
0000
0000
0000
1000
0000
0001
0000
0000
0100
0000
0000
0000
,
0110
0000
1000
0010
,
1010
0000
0001
0010
,
0011
0001
1000
0001
,
0120
0000
0000
0000
,
1030
0000
0000
0010
0000
0000
0100
0000
0001
0000
0000
0001
,
0000
0000
1000
0001
0000
0000
0020
0000
0000
0230
0000
0000
,
1300
0000
0000
0001
0000
0000
1000
0000
0100
0000
0000
0000
,
0110
0110
2000
3002
,
0203
0000
0000
0320
0000
0000
1030
0000
0100
0000
0000
0100
,
0000
0000
1000
0001
0000
0000
2000
0000
0000
3200
0000
0000
,
0320
0032
2003
3010
,
0100
1001
1001
0100
,
0120
0000
0000
0000
0000
0000
1030
0000
0100
0000
0000
0010
,
0000
0000
0010
0001
0000
1000
0000
0000
0010
0000
0000
0000
,
0200
0000
0000
0000
0000
0000
0301
0000
1000
0000
0000
0001
,
0020
0230
2300
3002
,
0103
0000
0000
0010
0000
0000
1000
0000
0001
0000
0000
0001
,
0000
0000
0010
0100
0000
0010
0200
0000
0000
2300
0000
0000
,
3001
0000
0000
0100
0000
0000
1000
0000
0100
0000
0000
0000
,
0001
0000
1000
0100
0000
0010
0100
0000
0001
0100
0000
0000
,
1000
0000
0001
0100
0000
0000
0001
0000
1000
0100
0000
0000
,
0001
0100
1000
0001
,
0100
0000
0001
0010
0000
0000
0100
0000
1000
0010
0000
0000
,
0100
1001
0010
1001
,
0110
0000
0000
1000
0000
0001
0100
0000
0000
0001
0000
0000
,
0010
0000
0000
0010
0000
0100
1000
0000
0000
0001
0000
0000
,
1000
0010
0100
0001
,
0100
0000
0000
0100
0000
0000
0001
0000
1000
0100
0000
0000
,
0011
0000
0001
0100
0000
0000
1010
0000
1000
0100
0000
0000
,
1002
0100
0100
1003
,
0101
0000
0001
0010
0000
0000
1100
0000
1000
0010
0000
0000
,
0100
0011
0100
1010
,
0110
0001
0010
0100
,
0012
0103
2010
3100
,
0010
0010
0001
0001
,
0110
0110
0110
0000
,
0001
0000
0000
0100
0000
0010
0000
0000
1000
0010
0000
0000
,
0200
0302
0013
0110
,
0200
0000
0000
2300
0000
0000
3001
0000
0100
0020
0000
0000
,
2030
0000
0000
3001
0000
0100
0010
0000
0000
1002
0000
0000
,
0013
0000
0000
0100
0000
0000
2000
0000
0010
3200
0000
0001
,
2300
0000
0000
0010
0000
3010
0000
0000
0100
0001
0000
0000
,
0020
0000
0000
0130
0000
1000
0000
0000
1000
0001
0000
0001
,
0100
0110
1001
0010
,
1000
0000
0001
0100
0000
0001
0100
0000
0001
0100
0000
0000
,
0001
0000
1000
0100
0000
1000
0100
0000
1000
0100
0000
0000
,
1000
0000
0001
0100
0000
0000
0001
0000
1000
0100
0000
0000
,
1000
0000
0000
0100
0000
0000
0010
0000
0001
1000
0000
0001
,
1000
1100
0010
0101
,
1000
0110
0001
0110
,
1000
0000
0001
0010
0000
0000
0001
0000
1000
0010
0000
0000
,
0110
1001
0110
1000
,
0010
0000
0100
0001
0000
0100
0010
0000
0100
0001
0000
0000
,
1000
0000
0100
0010
0000
0100
1000
0000
0100
0010
0000
0000
,
0001
0000
0100
0010
0000
0000
1000
0000
0100
0010
0000
0000
,
0001
0000
1000
0100
0000
0000
1000
0000
0001
0100
0000
0000
,
1000
0100
0001
0010
,
1000
0001
0100
1000
,
1100
0001
0011
1000
,
1010
0001
0011
1000
,
0110
0000
1000
0100
0000
0010
0100
0000
0001
0100
0000
0000
,
1100
0001
1010
0100
,
1001
0001
1000
0010
,
0100
0000
0010
0000
0000
1001
0000
0000
0000
0000
0000
0000
;

//--------------- dance-single - ----------------
#NOTES:
     dance-single:
     :
     Hard:
     15:
     0,0,0,0,0:
0000
0000
0000
0000
,
0000
0000
0000
0000
,
0000
0000
0000
0000
,
0000
0000
0000
0000
,
0000
0000
0000
0000
,
0000
0000
0000
0000
,
0000
0000
0000
0000
,
0001
0000
0000
1000
0000
0001
0100
0000
0001
0100
0000
0001
,
0010
0000
0000
0001
0000
1000
0100
0000
1000
0100
0000
1000
,
0010
0000
0000
0100
0000
0001
0100
0001
1000
0100
1000
0001
,
0100
0000
0010
0100
0000
0001
0010
0000
0001
1000
0000
0000
,
0010
0000
0000
0100
0000
0000
0001
0000
1000
0100
0000
1000
,
0001
0000
0000
0100
0000
0010
0000
0000
0100
0010
0000
1000
,
0100
0000
1000
0100
0000
0010
0001
0000
0010
0001
0000
1000
,
0010
0000
0000
0100
0000
0010
0000
0000
0010
0100
0000
0000
,
0001
0000
0000
1000
0000
0000
0001
0000
1000
0100
0000
1000
,
0010
0000
1000
0010
0000
0100
0000
0000
0001
0010
0000
0100
,
1000
0000
1000
0010
0000
0010
0100
0000
0100
0001
0000
0001
,
1000
1000
0001
0001
,
0010
0000
0100
1000
0000
0100
0010
0000
0100
1000
0000
0001
,
1000
0000
0000
0010
0000
0010
0000
0000
0100
0000
0000
0001
,
0000
0000
0010
0100
0000
0010
0001
0000
0010
0100
0000
1000
,
0001
0101
1000
1100
,
1001
0000
0000
0000
0000
0001
0100
0000
0010
0100
0000
0000
,
0001
0010
0100
1000
,
0001
0100
1000
0100
,
0101
0000
0000
1100
0000
0000
0001
0010
0100
1000
0001
0010
,
0100
0000
1000
0100
0000
1000
0001
0000
1000
0100
0000
1000
,
0001
0000
0000
0010
0000
0010
0000
0000
0100
0000
0000
1000
,
0000
0000
0001
0100
0000
0001
1000
0000
0001
0100
0000
0001
,
1000
1100
0001
0101
,
1000
0000
0000
0001
0000
0100
0001
0000
0000
0010
0000
0000
,
0100
0000
0000
1000
0000
0000
0001
0000
0000
0100
0000
0010
,
0100
0000
0000
0010
0000
0100
0010
0000
0000
0100
0000
0000
,
0110
0110
0110
0001
,
0100
0000
0001
1000
0000
0001
1000
0000
0001
1000
0000
0001
,
1000
0000
0001
1000
0000
0001
1000
0000
0001
1000
0000
0000
,
0010
0000
0100
0001
0000
0000
0010
0000
0100
1000
0000
0000
,
0010
0000
0100
0001
0000
0001
1000
0000
1000
0010
0000
0000
,
0100
0000
0100
0001
0000
0001
1000
0000
1000
0001
0000
0010
,
0000
0000
0100
1000
0000
1000
0010
0000
0010
0100
0000
0000
,
0001
0000
1000
0100
0000
0000
1000
0000
0001
0100
0000
0000
,
0010
0000
0100
0001
0000
1000
0100
0000
0000
0010
0000
0000
,
0001
0000
0100
0010
0000
0100
0010
0000
0100
0010
0000
0100
,
0010
0000
0100
0010
0000
0100
0010
0000
0100
0010
0000
0000
,
1000
0000
0001
0010
0000
0000
0100
0000
1000
0010
0000
0000
,
0100
0000
0001
1000
0000
0001
0010
0000
0001
0100
0000
0000
,
0010
0000
0010
1000
0000
1000
0001
0000
0001
0010
0000
0000
,
0100
0000
1000
0010
0000
0010
0100
0000
0100
0001
0000
0000
,
0010
0000
0100
0010
0000
1000
0010
0000
0100
0010
0000
0001
,
1000
0000
0101
0000
,
1100
0000
0000
0001
0000
0000
1000
0000
0010
0000
0000
0010
,
0000
0000
0000
0100
0000
0001
0000
0000
0010
0000
0000
0100
,
1000
0000
0000
0001
0000
0000
0100
0000
0010
0000
0000
0010
,
0000
0000
0000
1000
0000
0001
0000
0000
0010
0000
0000
0100
,
1000
0000
0001
0010
0000
0010
0100
0000
0010
0001
0000
0001
,
1000
0000
0000
0001
0000
0100
0010
0000
0010
1000
0000
0001
,
0010
0000
0000
0100
0000
1000
0001
1000
0010
0100
0010
1000
,
0001
0000
0010
0100
0000
0010
0001
0000
0010
0100
0000
0000
,
1000
0000
0000
0001
0000
0000
0100
0000
0010
0000
0000
0010
,
0000
0000
1000
0100
0000
1000
0020
0000
0000
0230
0000
0000
,
0301
0000
0000
1000
0000
0000
0001
0000
0010
0100
0000
0000
,
0110
0000
0000
0110
0000
0000
1000
0100
0010
0001
0010
0100
,
1000
0000
0000
0001
0100
0001
0100
0000
0010
1000
0000
0010
,
1000
0000
0001
0010
0000
0001
0020
0000
0000
0230
0000
0000
,
2300
3002
0203
0310
,
0110
0000
0000
1000
0001
1000
0001
0000
0000
0100
0000
0000
,
0220
0000
0000
0000
0000
0330
1000
0000
0100
0000
0000
0010
,
0100
0000
1000
0001
0000
0100
0010
0000
0100
0010
0000
0000
,
0100
0001
0100
0001
0100
0001
1000
0000
0100
0010
0000
0100
,
2000
0000
0000
3002
0000
0000
0103
0000
0010
1000
0010
1000
,
0001
0000
0000
0010
0000
0000
0100
0000
1000
0000
0000
1000
,
0000
0000
0001
0100
0000
0010
0200
0000
0000
0320
0000
0000
,
1030
0000
0000
1000
0000
0000
0001
0000
0010
0000
0000
0000
,
0100
0000
1000
0001
0000
1000
0010
0100
0010
0100
0010
0100
,
0010
0000
1000
0001
0000
0000
0010
0000
0100
0010
0000
0000
,
0001
0000
0000
1000
0000
1000
0000
0000
0010
0000
0000
0100
,
0000
0000
0001
1000
0000
0000
0010
0000
1000
0001
0000
0000
,
1000
1100
0001
0101
,
0100
0000
0000
0110
0000
0001
1000
0000
0000
0010
0000
0000
,
0100
0000
0000
0001
0000
1000
0100
0000
0000
0010
0000
0000
,
0100
0000
0000
0100
0000
1000
0001
0000
1000
0001
0000
0100
,
0010
0000
0000
0100
0000
0000
0001
0010
0100
1000
0001
0010
,
0100
0000
0010
0001
0000
0010
0100
0000
0010
0001
0000
0010
,
0100
0000
0000
1000
0000
1000
0000
0000
0001
0000
0000
0000
,
1000
0000
0010
0100
0000
0010
1000
0000
0010
0100
0000
0010
,
1000
0101
0010
1100
,
0001
0000
0000
1000
0000
0010
0100
0000
0000
0001
0000
0000
,
0101
0011
1010
1100
,
0010
0110
0100
0110
,
1001
1001
1001
0000
,
0001
0000
0000
1000
0000
0010
0000
0000
0100
0010
0000
0010
,
1000
0000
1000
0001
0000
0001
0010
0000
0000
0210
0000
0000
,
2000
3000
0000
2000
3000
0000
1300
0000
0010
0100
0000
0100
,
0001
0000
0001
1000
0000
1000
0200
0000
0000
0320
0000
0000
,
0032
0000
0000
2003
0000
0000
3010
0000
0010
0100
0000
0010
,
0100
0000
0001
1000
0000
0001
1000
0000
0100
0010
0000
0010
,
0200
0000
0000
1300
0000
0001
0100
0000
0100
0010
0000
1000
,
0100
0000
0100
0010
0000
0001
1000
0000
0000
0010
0000
0000
,
0100
0000
0001
1000
0000
0001
1000
0000
0001
1000
0000
0001
,
1000
0000
0001
1000
0000
0001
1000
0000
0001
1000
0000
0000
,
0001
0000
0010
0100
0000
0010
0001
0000
0010
0100
0000
1000
,
0010
0000
0100
0010
0000
1000
0010
0000
0100
0010
0000
0000
,
0100
0000
0001
0010
0000
0010
0100
0000
0100
0010
0000
0010
,
0001
0000
0001
0100
0000
0100
0010
0000
0010
0100
0000
0000
,
0010
0000
0010
1000
0000
1000
0100
0000
0100
0010
0000
0010
,
0100
0000
0100
1000
0000
1000
0001
0000
0000
0001
0000
0100
,
0010
0000
0100
0010
0000
0100
0010
0000
0100
0010
0000
0100
,
0010
0000
0100
0010
0000
0100
0010
0000
0000
1000
0000
0100
,
0010
0000
0100
1000
0000
0100
0010
0000
0100
1000
0000
0001
,
0010
0000
0100
0010
0000
0001
0010
0000
0100
0010
0000
0000
,
0001
0000
0001
0100
0000
0100
1000
0000
1000
0100
0000
0100
,
0001
0000
0001
0010
0000
0010
1000
0000
1000
0010
0000
0000
,
0001
0000
1000
0010
0000
0100
0010
0000
0001
0010
0000
1000
,
0100
0000
0010
0100
0000
0001
0100
0000
1000
0001
0000
0000
,
0001
0000
0100
0010
0000
0010
1000
0000
1000
0001
0000
0001
,
0010
0100
1100
0010
,
0101
0000
0001
0010
0000
0100
1000
0000
0001
0010
0000
0100
,
1000
0000
1001
0000
0000
0110
0000
0000
0000
0000
0000
0000
;

//--------------- dance-single - ----------------
#NOTES:
     dance-single:
     :
     Challenge:
     18:
     0.541857,0.437772,0,0,0,463,463,0,0,0,0,0.541857,0.437772,0,0,0,463,463,0,0,0,0:
0000
0000
0000
0000
,
0000
0000
0000
0000
,
0000
0000
0000
0000
,
0001
0000
0000
1000
0000
0000
0010
0000
0100
0000
0000
0100
,
0001
0000
0000
1000
0000
0100
0000
0000
1000
0001
0000
0100
,
0010
0000
0000
0100
0000
0000
0001
0000
1000
0000
0000
1000
,
0010
0000
0000
0000
0000
0000
0100
0000
0000
0000
0001
0000
0000
0000
0000
0000
1000
0100
1000
0000
0000
0000
0001
0000
,
0100
0000
0000
0001
0000
1000
0100
0000
0010
0100
0000
1000
,
0001
0000
0000
0100
0000
0010
0100
0000
0100
0001
0000
0001
,
1000
0000
0000
0000
0000
0000
0001
0000
0000
0000
1000
0000
0100
0000
0010
0000
0001
0000
1000
0100
1000
0100
1000
0100
,
1000
0000
0000
0000
1000
0000
0010
0000
0000
0000
0100
0001
0100
0000
0000
0000
0001
0000
1000
0000
0000
0000
0000
0000
,
0010
0000
0000
0100
0000
0000
0001
0000
0010
0100
0000
1000
,
0001
0000
0000
0000
0100
0010
0100
0000
0000
0000
0001
0000
1000
0000
0000
0000
0100
0000
0010
0000
0000
0000
0001
0000
,
0010
0000
0010
0100
0000
0100
1000
0000
1000
0001
0000
0001
,
1000
0000
0000
0010
0000
0100
0000
0000
0100
0010
0000
1000
,
0001
0000
0000
0010
0000
0000
0100
0000
0010
0001
0000
1000
,
0010
0000
0000
0000
1000
0001
1000
0000
0000
0000
0010
0000
0100
0000
0000
0000
0001
0000
1000
0000
0000
0000
0001
0000
,
0100
0000
0100
0010
0000
0010
1000
0000
1000
0001
0000
0001
,
0010
0000
0000
0000
0000
0000
0110
0000
0000
0000
0000
0000
0110
0000
0000
0000
0100
1000
0001
0000
0000
0000
1000
0000
,
0010
0000
0100
0010
0000
1000
0010
0000
0100
0010
0000
1000
,
0001
0000
0000
0010
0000
0010
0000
0000
0100
1000
0000
0001
,
0010
0000
0100
0010
0000
0001
0010
0000
0100
0010
0000
0001
,
1000
0110
0001
0110
,
1001
0000
0000
0001
0000
0100
0010
0000
1000
0001
0000
0000
,
0010
0000
0000
0100
0000
1000
0001
0000
0000
0100
0000
0000
,
1001
0000
0000
0010
0000
0000
1001
0000
0100
0010
0000
0100
,
0010
0000
0000
0110
0000
0000
0001
0010
0100
1000
0001
0010
,
0100
0000
0010
0001
0000
0010
0100
0000
0010
0001
0000
0010
,
0100
0000
0000
1000
0000
1000
0000
0000
0001
0100
0000
0010
,
1000
0000
0010
0100
0000
0010
1000
0000
0010
0100
0000
0001
,
0010
0000
0000
0100
0000
1000
0001
0000
0000
0100
0000
0001
,
1000
0000
0000
0100
0000
1000
0010
0000
0000
0100
0000
0000
,
0001
0010
0100
1000
0000
0000
0010
0000
0100
0001
0000
1000
,
0100
0000
0000
1001
0000
0000
0010
0000
0100
0010
0000
0000
,
0110
0110
0110
1001
,
0001
0000
1000
0100
0000
1000
0001
0000
0100
0010
0000
1000
,
0010
0000
0100
0001
0000
0010
0100
1000
0001
1000
0010
0100
,
0010
0000
1000
0001
0000
0010
0100
0000
0010
0001
0000
0100
,
0010
0000
0000
0000
1000
0000
0001
0000
0000
0000
1000
0000
0100
0000
0000
0000
1000
0001
1000
0000
0000
0000
0010
0000
,
0100
0000
0100
0001
0000
0001
0010
0100
0010
0001
0010
0100
,
1000
0000
0001
1000
0000
1000
0010
0100
0010
1000
0010
0100
,
0001
0000
1000
0100
0000
0010
0100
0000
1000
0100
0000
1000
,
0010
0000
0000
0000
0100
0000
0001
0000
0000
0000
1000
0000
0010
0000
0000
0000
1000
0001
1000
0000
0000
0000
0100
0000
,
0010
0000
0001
1000
0000
0010
0100
0000
0001
0010
0000
0100
,
1000
0000
0010
0100
0000
0010
1000
0100
0010
0001
1000
0010
,
0100
0000
0010
1000
0000
0010
0100
0000
0001
0010
0000
0100
,
0010
0000
0000
0000
0001
0000
1000
0000
0000
0000
0010
0000
0100
0000
0000
0000
0001
1000
0001
0000
0000
0000
0010
0000
,
0100
0000
0100
1000
0000
1000
0010
0100
0010
1000
0001
0100
,
0010
0000
1000
0001
0000
0001
0010
0100
0010
0001
1000
0100
,
0010
0100
1000
0010
0000
0100
0010
0000
1000
0001
0010
0100
,
1000
0000
0011
0000
,
1001
0000
0000
1000
0000
0000
0100
0000
0010
0000
0000
0001
,
1000
0000
0000
0001
0000
0100
0000
0000
0010
0100
0000
0100
,
0001
0000
0000
1000
0000
0000
0100
0000
0010
0000
0000
0001
,
0010
0000
0000
0000
0000
0000
0100
0000
0000
0000
1000
0000
0000
0000
0000
0000
0001
0100
0001
0000
0000
0000
1000
0000
,
0100
0000
0010
0100
0000
1000
0100
0000
1000
0001
0000
0100
,
0010
0000
0000
0100
0000
0001
0010
0000
0010
0100
0000
1000
,
0001
0000
0000
0000
0000
0000
0001
0000
0000
0000
1000
0000
0010
0000
1000
0000
0010
0000
0100
0001
0100
0001
0100
0001
,
1000
0000
0000
0000
0010
0000
0100
0000
0000
0000
0001
0100
0001
0000
0000
0000
1000
0000
0100
0000
0000
0000
0000
0000
,
1000
0000
0000
0001
0000
0000
0010
0000
0100
1000
0000
0001
,
1000
0000
0000
0000
0010
0000
0100
0000
0000
0000
0001
0000
1000
0100
1000
0100
1000
0100
2000
0000
0000
0000
0000
0000
,
3001
0000
0010
0100
0000
1000
0001
0000
0010
0100
0000
0000
,
1100
0000
0000
0011
0000
0000
0001
0010
0100
1000
0100
0010
,
0001
0000
0000
0001
1000
0100
1000
0000
1000
0010
0000
0010
,
0100
0000
0000
0000
0100
0000
0001
0000
0000
0000
1000
0000
0001
0100
0001
0100
0001
0100
0001
0000
0000
0000
0000
0000
,
1000
0001
0000
0000
1000
0001
0000
0000
0100
0000
0000
0010
0100
0000
0000
0000
,
0110
0000
0000
1000
0001
0100
0001
0000
0000
1000
0000
0000
,
0010
0100
0010
0100
0010
0100
0020
0000
0000
0000
0000
0000
1030
0000
0000
0000
0001
0000
0100
0000
0000
0000
0010
0000
,
0100
0000
0001
0010
0000
0100
1000
0000
1000
0001
0000
0000
,
0100
0001
0100
0001
0100
0001
0010
0000
0001
0010
0000
0001
,
2000
0000
0000
0000
0000
0000
3001
0100
0001
0100
0001
0100
0001
0000
0000
0000
1000
0000
0100
0000
1000
0000
0100
0000
,
1000
0000
0000
0010
0000
0000
0100
0000
0001
0100
0000
0100
,
0001
0000
0000
0000
1000
0000
0001
0000
0000
0000
1000
0000
0100
0010
0100
0010
0100
0010
0200
0000
0000
0000
0000
0000
,
1300
0000
0001
0100
0000
0010
0100
0000
0001
0010
0000
0000
,
0100
0000
0000
0000
1000
0001
1000
0000
0000
0000
0001
0000
0100
0000
0010
0000
0100
0000
0010
0000
0100
0000
0010
0000
,
1000
0000
1000
0100
0000
0100
1000
0000
1000
0010
0000
0010
,
0100
0000
0000
0001
0000
0001
0000
0000
1000
0100
0000
1000
,
0001
0000
0001
0010
0000
0010
0001
0000
0001
0100
0000
0100
,
0010
0000
0000
1001
0000
0000
0010
0000
0000
1001
0000
0010
,
0100
0000
0000
0001
0000
1000
0100
0000
0000
1000
0000
0001
,
0100
0000
0100
0010
0000
0010
1000
0000
1000
0001
0000
0000
,
0011
0000
0000
1100
0000
1000
0010
0000
0010
0100
0000
0100
,
0001
0000
0000
1001
0000
0000
0001
0010
0100
1000
0001
0010
,
0100
0000
1000
0100
0000
0001
0100
0000
1000
0100
0000
0001
,
0100
0000
0000
1000
0000
0001
0000
0000
0001
0100
0000
0000
,
0001
0000
1000
0010
0000
0001
0010
0000
1000
0010
0000
0001
,
0010
0000
0000
0000
0000
0000
0110
0000
0000
0000
0000
0000
0100
0000
0000
0000
0010
0100
0010
0000
0000
0000
1000
0000
,
0001
0000
0000
0000
0000
0000
0011
0000
0000
0000
0001
0000
1000
0000
0000
0000
0001
0100
0001
0000
0000
0000
0010
0000
,
0100
0010
0100
0010
0000
0001
1000
0000
1000
0010
0000
0010
,
0100
0000
0000
0000
0000
0000
1001
0000
0000
0000
0000
0000
1000
0000
0000
0000
0010
0100
0010
0000
0000
0000
0100
0000
,
0110
0110
0110
0001
,
1000
0000
0000
0100
0000
0000
0000
0000
0000
0000
0000
0000
1000
0000
0000
0000
0000
0000
0000
0000
0001
0000
0000
0000
0100
0000
0000
0000
0001
0000
0000
0000
1000
0000
0000
0000
0100
0000
0000
0000
1000
0000
0000
0000
0010
0000
0000
0000
,
0100
0010
1000
0001
0010
0100
1000
0000
0001
0010
0000
0000
,
0100
0000
0000
1000
0000
0000
0000
0000
0000
0000
0000
0000
0100
0000
0000
1000
0000
0000
0000
0000
0000
0000
0000
0000
0001
0000
0000
0000
0100
0000
0000
0000
0010
0000
0000
0000
0100
0000
0000
0000
0001
0000
0000
0000
1000
0000
0000
0000
,
0001
1000
0001
0100
0000
0001
0010
0100
1000
0001
0010
0100
,
1000
0000
0000
0000
0000
0000
0001
0100
0001
0100
0001
0100
0001
0000
1000
0000
0100
0000
1000
0000
0000
0000
0100
0000
,
1000
0000
0001
0100
0000
0010
0100
0010
1000
0001
0010
0100
,
1000
0001
1000
0001
1000
0001
1000
0000
0000
0000
0010
0000
0100
0000
0010
0000
0100
0000
0010
0000
0100
0000
0001
0000
,
1000
0000
0000
0001
0000
1000
0001
0000
0000
0010
0000
0100
,
1000
0000
0100
0010
0000
0001
1000
0000
0010
0100
0000
0010
,
1000
0001
0010
0100
1000
0010
0100
0001
0010
0100
0000
1000
,
0010
0000
1000
0001
0000
0100
0010
0000
0100
0001
0000
0010
,
0100
0000
0000
0000
0010
0000
0001
0000
0000
0000
1000
0000
0010
0000
0000
0000
0100
0010
0100
0000
0000
0000
0001
0000
,
1000
0000
0001
0010
0000
0100
1000
0010
0100
0010
1000
0100
,
0010
0000
0100
1000
0000
0001
0100
0010
0100
0001
0010
0100
,
0010
0000
0001
0100
0000
0010
1000
0000
0001
0010
0000
0100
,
1000
0000
0100
0000
1000
0000
0010
0000
0100
0000
0001
0000
1000
0000
0000
0000
0001
0100
0001
0000
0000
0000
0010
0000
,
0100
0000
1000
0010
0000
0100
0001
0010
0100
1000
0010
0100
,
0001
0000
0010
0100
0000
1000
0010
0100
0001
0010
0100
1000
,
0010
0000
0100
0001
0000
1000
0100
0000
1000
0010
0000
0100
,
0001
0000
0000
0000
0010
0000
0100
0000
0000
0000
0010
0000
0001
0000
0000
0000
1000
0100
1000
0000
0000
0000
0010
0000
,
0100
0000
0010
1000
0000
0010
0100
0010
1000
0100
0010
0100
,
1000
0000
0001
0010
0000
0100
0010
0001
0100
0010
0100
0001
,
0010
0000
0100
1000
0000
1000
0010
0000
0100
0001
0000
1000
,
0010
0000
0100
0000
0010
0000
0100
0000
0001
0000
0010
0000
0100
0000
0000
0000
1000
0001
1000
0000
0000
0000
0000
0000
,
0010
0000
0100
0001
0000
0001
0010
0000
0010
0100
0000
0100
,
1001
0001
0110
1000
,
1001
0000
0001
0100
0000
0010
0100
0000
1000
0100
0000
0001
,
0010
0000
0110
0000
0000
1001
0000
0000
0000
0000
0000
0000
;
