#TITLE:流星;
#SUBTITLE:;
#ARTIST:藍井エイル;
#TITLETRANSLIT:Ryusei;
#SUBTITLETRANSLIT:;
#ARTISTTRANSLIT:aoi eir;
#GENRE:ANIME;
#CREDIT:;
#MUSIC:Ryusei.ogg;
#BANNER:Ryusei.png;
#BACKGROUND:Ryusei-bg.png;
#CDTITLE:;
#SAMPLESTART:53.795;
#SAMPLELENGTH:14.266;
#SELECTABLE:YES;
#OFFSET:0.723;
#BPMS:0.000=143.000;
#STOPS:;
#BGCHANGES:1.500=Ryusei.avi=1.000=0=0=0=StretchNoLoop====,
99999.000=-nosongbg-=1.000=0=0=0=StretchNoLoop====
;
#FGCHANGES:;

//--------------- dance-single - ----------------
#NOTES:
     dance-single:
     :
     Hard:
     12:
     0,0,0,0,0:
0000
0000
0000
0000
0000
0000
0001
0100
,
0002
0000
0000
2003
0000
0000
0010
0000
3010
0000
0000
0000
1000
0000
0100
0000
,
2000
0000
0000
3002
0000
0000
0010
0000
0013
0000
0000
0000
0010
0000
0001
0000
,
1000
0000
0000
0020
0000
0000
0100
0000
0130
0000
0000
0000
1001
0000
0000
0000
,
1000
0000
0001
0100
0001
0000
1000
0001
1000
0000
0001
0100
0001
0000
1000
0001
,
2000
0000
0000
3200
0000
0000
1000
0000
1300
0000
0000
0000
0002
0000
0203
0000
,
0320
0000
0000
2030
0000
0000
0001
0000
3001
0000
0000
0000
2000
0000
3002
0000
,
0203
0000
0000
0000
0001
0000
0302
0000
0000
0000
1000
0000
1003
0000
0001
0100
,
0001
0000
0000
0100
0000
0000
1000
0000
0100
0000
0010
0000
1000
0000
0001
0000
,
2000
0000
0000
3200
0000
0000
0020
0000
0000
0000
0000
0000
0330
0000
0020
0000
,
0230
0000
0000
2300
0000
0000
0002
0000
0000
0000
3003
0000
0200
0000
0320
0000
,
2030
0000
0000
3002
0000
0000
0200
0000
0000
0000
0303
0000
0002
0000
0203
0000
,
2300
0000
0000
3200
0000
0000
0002
0000
0000
0000
0303
0000
1001
0000
0000
0000
,
1000
0000
0001
0100
0000
0001
0200
0000
0000
0000
0300
0000
0010
0000
1000
0000
,
0010
0000
1000
0100
0000
1000
0200
0000
0000
0000
0300
0000
0010
0000
0001
0000
,
1000
0000
0000
0110
0000
0000
2001
0000
0000
0000
0000
0000
3002
0000
1000
0000
,
1003
0000
0000
0010
0000
0000
0100
0000
0000
0000
0010
0000
1000
0000
0100
0000
,
0011
0000
0000
0001
0000
0000
0100
0000
0000
0100
0000
0000
1000
0000
0100
0000
,
0010
0000
0000
1000
0000
0000
1000
0000
0100
0000
0010
0000
0001
0000
1000
0000
,
1100
0000
0000
0100
0000
0000
0010
0000
0000
0010
0000
0000
0001
0000
0100
0000
,
1000
0000
0000
0100
0000
0000
0100
0000
0010
0000
1000
0000
0001
0000
0100
0000
,
1001
0000
0000
0001
0000
0000
0010
0000
0000
0010
0000
0000
0100
0000
1000
0000
,
1010
0000
0000
0010
0000
0000
1001
0000
0001
0000
1000
0000
0001
0000
0010
0000
,
1001
1000
0001
1000
1001
0001
1000
0001
,
1001
0000
0000
0110
0000
0000
1001
0000
0100
0000
0001
0000
0010
0000
1000
0000
,
0010
0000
0001
0100
0001
0000
0100
0001
0100
0000
0000
1010
0000
0000
0001
0000
,
0000
1000
0100
0000
0001
0000
0100
0000
1000
0000
0000
1100
0000
0000
1001
0000
,
0001
0000
1000
0010
2000
0000
0001
0000
3001
0000
0000
1000
0000
0000
0110
0000
,
0000
1000
0000
1000
0100
0010
0000
0001
1000
0000
0000
1010
0000
0000
0101
0000
,
0000
0000
0010
0000
0100
0000
1000
0000
0200
0000
0000
0001
0000
0000
0310
0000
,
0000
0000
0010
0000
1000
0000
0001
0000
1000
0000
0000
0100
0010
0000
0000
0000
,
1000
0001
0200
0000
0010
0000
0301
1000
0200
0000
0010
0000
1300
0001
0200
0000
,
0010
0000
0010
0001
,
0310
1000
0100
0010
0001
0100
1000
0100
,
0001
0001
0010
0010
1000
1000
0001
0001
,
0100
0000
1000
0010
0000
0010
1000
0000
0001
0000
0100
0010
0000
0010
0100
0000
,
0001
0000
1000
0001
0000
0001
1000
0000
1000
0000
0100
0000
0010
0000
0001
0000
,
1000
0010
0001
0010
1000
0010
0001
0010
,
1000
0100
0001
0100
1000
0100
0001
0100
,
1000
0000
0001
0010
0000
0010
0100
0000
1000
0000
0010
0100
0000
0100
0001
0000
,
1000
0000
0001
0010
0000
0010
1000
0000
0001
0000
0100
1000
0100
0000
0010
0100
,
0010
0001
0010
0100
0001
0100
1000
0010
,
0100
1000
0100
0010
0001
0010
0100
1000
,
0100
0000
0001
0100
0001
0000
0010
0000
0100
1000
0100
0000
0010
0000
0100
0010
,
0100
0001
0100
1000
0010
0100
0001
0100
,
0010
0000
0010
0000
1000
0000
1000
0000
0001
0000
1000
0000
0100
0010
0100
0000
,
0000
0000
0110
0000
1000
0000
0001
0000
0100
0000
0001
0100
0000
1000
0100
0000
,
0001
1000
0001
1000
0010
0100
0010
0100
,
0110
0000
0010
1000
0000
1000
0100
0000
0001
0000
0100
0000
1000
0000
0100
0000
,
0010
0000
0001
0000
0010
0000
0001
0000
1000
0001
1000
0001
1000
0001
1000
0000
,
0000
1001
0010
0100
1000
0001
1000
0001
,
1001
0000
0000
0200
0020
0000
0000
0000
,
0000
0000
0000
0000
0000
0000
0000
0330
;

//--------------- dance-single - ----------------
#NOTES:
     dance-single:
     :
     Challenge:
     16:
     0.125365,0.129967,0,0,0.149962,79,79,0,0,0,0,0.125365,0.129967,0,0,0.149962,79,79,0,0,0,0:
0000
0000
0000
0000
0000
0000
0000
0000
0000
0000
0000
0000
1000
0100
0010
0100
,
1000
0000
0000
0011
0000
0000
0100
0000
1001
0000
0000
0000
1001
0000
0001
0100
,
0010
0000
0000
1010
0000
0000
1000
0000
0101
0000
0000
0000
1010
0000
0010
1000
,
0100
0000
0000
0101
0000
0000
0100
0000
1010
0000
0000
0000
1001
0000
0000
0000
,
1000
0100
0010
0001
1000
0100
0010
0001
1000
0010
0100
0001
1000
0010
0100
0001
,
2000
0000
0000
3020
0000
0000
0100
0000
0130
0000
0000
0100
0001
0000
0001
1000
,
0200
0000
0000
0320
0000
0000
0001
0000
0031
0000
0000
0001
1000
0000
1000
0001
,
0200
0000
0000
0000
0010
0000
0320
0000
0000
0000
1000
0000
1030
0000
0001
0010
,
0100
0000
0100
1000
0000
1000
0001
0100
0001
0100
0010
1000
0010
1000
0001
0100
,
1000
0000
0100
0002
0000
0000
2000
0000
0000
0000
0000
0000
3003
0000
0001
0000
,
0011
0000
0000
1001
0000
0000
1100
0000
0000
0000
0000
0000
0001
0000
0100
0000
,
1020
0000
0000
0100
0000
0000
2030
0000
0000
0000
3100
0010
0001
0010
0100
1000
,
0100
0000
0000
0110
0000
0000
1001
0000
0000
0000
0000
0000
0101
0000
0000
0000
,
1010
0000
0100
0001
0000
0001
2000
0000
0000
0000
3000
0000
1002
0000
0100
0000
,
0103
0000
0010
1000
0000
1000
0002
0000
0000
0000
0003
0000
0011
0000
0001
0000
,
1100
0000
0000
0110
0000
0000
2001
0000
0000
0000
0000
0000
3002
0000
1000
0000
,
0013
0000
0010
0001
0000
0001
0100
0000
0000
0000
0010
0000
1000
0000
0100
0000
,
0110
0000
0010
0001
0010
0000
0100
0000
1000
0100
1000
0000
0001
0000
0100
0010
,
0100
0001
0011
0010
0110
0100
1100
1000
,
1001
0000
0001
0100
0010
0000
0001
0000
0010
1000
0100
0000
0010
0000
0001
1000
,
0100
0010
1100
0100
0110
0010
0011
0001
,
1001
0000
1000
0100
0001
0000
1000
0000
0001
0100
1000
0000
0001
0000
1000
0010
,
0001
0010
1010
0001
0101
1000
1100
0001
,
1001
0000
0001
0010
0100
0000
0001
0100
1000
0000
0010
0100
1000
0000
0001
0010
,
0100
0000
0000
0100
0001
0000
0001
0010
0100
0010
0001
0100
0010
1000
0001
0010
,
0100
0000
0000
0000
0000
0000
1000
0000
0100
0000
1000
0000
0100
0000
0000
0000
0000
0000
1000
0000
0001
0000
1000
0000
0001
0000
0000
0000
0000
0000
0000
0000
0000
0011
0000
0000
0000
0000
0000
0000
0000
0000
1100
0000
0000
0000
0000
0000
,
0000
0001
0100
0010
1000
0000
1010
0000
1001
0000
0000
0101
0000
0000
0001
0100
,
0010
0000
0000
0000
0000
0000
1000
0000
0010
0000
1000
0000
0001
0000
0000
0000
0000
0000
0011
0000
0000
0000
0000
0000
0011
0000
0000
0000
0000
0000
0000
0000
0000
1100
0000
0000
0000
0000
0000
0000
0000
0000
0110
0000
0000
0000
0000
0000
,
0000
0010
0100
0001
0100
0010
1000
0010
0001
0000
0000
0101
0000
0000
0011
0000
,
1001
0000
0020
0000
0230
0000
0302
0000
2003
0000
0001
3001
0000
0000
1100
0000
,
0000
0000
0100
0010
0001
0000
0001
0010
1000
0000
0000
0010
0001
0000
1001
0000
,
1001
0001
1000
0010
0001
0000
1001
0001
0010
1000
0001
0000
1001
0001
0010
0100
,
2000
0000
3200
0320
,
0031
0000
0001
0010
0100
0000
0100
1000
0001
1000
0100
1000
0010
0000
0100
0000
,
0100
0001
0010
0000
0100
0000
0010
0100
1000
0000
0001
0000
1000
0100
1000
0000
,
0010
0100
0001
0100
1000
0100
0001
0000
0001
0010
0100
0010
1000
0010
0001
0000
,
1000
0010
0100
0000
0100
0001
1000
0000
0001
0010
0001
1000
0100
1000
0010
0100
,
0001
0000
0001
0100
0010
0000
0001
0000
0010
1000
0100
0000
0010
0000
1000
0000
,
0001
0100
1000
0000
0001
0100
1000
0000
1000
0100
0001
0010
0001
0100
0001
0010
,
0100
0000
0100
1000
0010
0000
0100
0001
0010
0000
0010
0001
0100
0000
0010
1000
,
0100
0000
0000
0000
0000
0000
0010
0000
0000
0001
0000
0000
0000
0000
0000
0010
0000
0000
0100
0000
0000
0000
0000
0000
1000
0000
0000
0100
0000
0000
0010
0000
0000
0001
0000
0000
1000
0000
0000
0100
0000
0000
0010
0000
0001
0000
0010
0000
,
0100
0000
0010
0001
1000
0000
0010
0000
0100
0001
1000
0000
0100
0010
0100
0000
,
0001
0000
0100
1000
0001
0000
0100
0000
0010
1000
0010
0000
0100
0001
0100
0000
,
0011
0000
0000
0001
0010
0100
1000
0000
0000
1010
0000
0000
1000
0010
0100
0001
0000
0000
1001
0000
0000
1000
0100
0010
,
0100
0000
0100
1000
0001
0000
0001
0100
1000
0100
1000
0001
0010
1000
0100
0001
,
0100
0000
1000
0100
1000
0000
0001
0100
0001
0000
1000
0000
0001
0010
0100
0000
,
0000
0000
0110
0000
0110
0000
0110
0000
0010
0001
1000
0100
0010
0001
0100
0010
,
2000
3100
0002
0103
2000
3100
0002
0103
,
0011
0000
0001
0100
0000
0010
0100
0000
0001
0010
0100
1000
0001
0010
0100
0010
,
0001
0000
0000
0000
0000
0000
1000
0000
0000
0100
0000
0000
0010
0000
0000
1000
0000
0000
0010
0000
0000
0100
0000
0000
1000
0000
0000
0010
0000
0000
0001
0000
0010
0000
1000
0000
0200
0000
0000
0000
0000
0000
0020
0000
0000
0000
0000
0000
,
0330
0011
1010
1100
0101
1010
0110
1001
,
0011
0000
0000
0000
0000
0000
0001
2000
0002
0000
0000
0000
0000
0000
0000
0000
,
0000
0000
0000
0000
0000
0000
0000
3003
;
