#TITLE:Roki (English Rap Cover);
#SUBTITLE:;
#ARTIST:Calliope Mori;
#TITLETRANSLIT:Roki (English Rap Cover);
#SUBTITLETRANSLIT:;
#ARTISTTRANSLIT:Calliope Mori;
#GENRE:POP;
#CREDIT:;
#MUSIC:Roki (English Rap Cover).ogg;
#BANNER:Roki (English Rap Cover).png;
#BACKGROUND:Roki (English Rap Cover)-bg.png;
#CDTITLE:;
#SAMPLESTART:60.825;
#SAMPLELENGTH:12.800;
#SELECTABLE:YES;
#OFFSET:-0.025;
#BPMS:0.000=150.000;
#STOPS:;
#BGCHANGES:4.000=Roki (English Rap Cover).avi=1.000=0=0=0=StretchNoLoop====,
99999.000=-nosongbg-=1.000=0=0=0=StretchNoLoop====
;
#FGCHANGES:;

//--------------- dance-single - ----------------
#NOTES:
     dance-single:
     :
     Hard:
     13:
     0,0,0,0,0:
0000
0000
0000
0000
,
0000
0000
0000
0000
,
0011
1100
1010
0101
,
2002
0000
0003
0000
3001
0001
0010
0100
,
1000
0000
0001
0100
0000
0001
1000
0000
0020
0000
0000
0000
0230
0000
0000
0000
,
0310
0000
1000
0100
0000
1000
0001
0000
0020
0000
0000
0000
0130
0000
1000
0000
,
0001
0000
0100
0010
0000
0100
0001
0000
0020
0000
0000
0000
0230
0000
0000
0000
,
1300
0000
0001
0100
0000
0010
1000
0000
0002
0000
0023
0000
0230
0000
2300
0000
,
3001
0000
1000
0010
0000
1000
0001
0000
0200
0000
0000
0000
0320
0000
0000
0000
,
0130
0000
0001
0010
0000
0001
1000
0000
0020
0000
0000
0000
0130
0000
0001
0000
,
0101
1100
0101
1100
,
0110
0000
0000
0000
0010
0100
0010
0100
,
0001
0000
0010
0000
0100
0000
1000
0000
0001
0000
0100
0010
0000
0000
0100
0000
,
0001
0000
1000
0000
0001
0000
0010
0100
0010
0000
0001
1000
0000
0000
0010
0000
,
1000
0100
0001
0100
1000
0010
0001
0010
,
1000
1000
0010
0010
0101
1001
0000
1000
,
0010
0100
0001
1000
0200
0020
0330
0001
,
0010
0100
1000
0001
0200
0020
0330
1000
,
0001
0000
1000
0100
1000
0000
0001
0100
0001
0000
1000
0100
1000
0000
0001
0000
,
0010
0100
0010
0001
2000
0000
3010
0100
,
0001
0000
0000
0011
0000
0100
1000
0000
0010
0000
0001
0000
0010
0000
1000
0000
,
0001
0100
0010
0100
1000
0110
0000
0110
,
1001
0000
0001
0010
0000
0000
0100
0000
1000
0000
1000
0010
0000
0000
0100
0000
,
0001
0000
0001
0010
0000
0000
1000
0000
0010
0000
0010
0001
0000
0000
0100
0000
,
0110
0000
0001
1000
0000
0001
1000
0000
1001
0000
0100
0010
0000
0100
0010
0000
,
0110
0000
0000
1010
0000
0000
0101
0000
2001
0000
0000
0000
3010
0000
0100
0000
,
0010
1000
0001
0010
0200
0010
0310
0000
,
0010
0000
0100
0000
1000
0000
0010
0000
0110
0000
0000
0000
1001
0000
0010
0100
,
0010
0000
0100
0010
0100
0000
0010
0100
0010
0000
0100
0010
0000
0000
1000
0000
,
0001
0010
0100
1000
0010
0100
0001
0010
,
0100
1000
0002
0000
0100
0000
0103
0000
,
1010
0000
1020
0000
0100
0100
0100
0100
,
0230
0000
0002
0003
0301
0020
0000
0130
,
1100
0000
2100
0000
0001
0001
0001
0001
,
3001
0100
1000
0100
0001
0100
1000
0100
,
0001
0010
1000
0010
0001
0010
1000
0010
,
0001
0100
1000
0001
0010
1000
0001
0010
,
1100
0000
0101
0000
1001
0010
0100
0010
,
1010
0000
0101
0000
1010
0000
0010
1000
,
1100
0000
0011
0000
0001
0010
0100
1000
,
0001
0000
0000
0100
0000
0000
0001
0000
1000
0000
0100
0000
0010
0000
0001
0000
,
0011
0000
1100
0000
1010
0000
0101
0002
,
0000
0013
0010
0100
0100
1000
1000
0020
,
0000
0130
0100
0001
0001
0100
0010
1000
,
1100
0000
0011
0000
1100
0000
0100
0010
,
1001
0000
0110
0000
1001
0010
0200
0000
,
0301
0010
1000
0010
0002
0000
0103
1010
,
0000
0101
0000
0011
0000
1100
0100
0010
,
0100
1000
0002
2000
3003
0001
0100
0010
,
0110
0000
1001
0000
0110
0000
1001
1000
,
0100
0010
0002
0203
0320
2030
3002
0023
,
0230
2300
3002
0203
0000
0320
2030
0002
,
3000
0000
0103
0000
0010
0000
0100
0000
0110
0000
0000
1010
0000
0000
0102
0000
,
0000
0000
0013
0000
0100
0000
0010
0000
0110
0000
0000
0011
0000
0000
2100
0000
,
0000
0000
3100
0000
0001
0000
0100
0000
1000
0000
0001
0100
0000
0000
0010
0000
,
1000
0001
1000
0001
2002
3000
1003
0001
,
0100
0010
0100
0010
0100
0010
0100
0010
0100
0000
0001
0100
0000
0001
1000
0000
,
0020
0000
0000
0000
0230
0000
0000
0000
0310
0000
1000
0100
0000
1000
0001
0000
,
0020
0000
0000
0000
0130
0000
1000
0000
0001
0000
0100
0010
0000
0100
0001
0000
,
0020
0000
0000
0000
0230
0000
0000
0000
1300
0000
0001
0100
0000
0010
1000
0000
,
0002
0000
0023
0000
0230
0000
2300
0000
3001
0000
1000
0010
0000
1000
0001
0000
,
0200
0000
0000
0000
0320
0000
0000
0000
0130
0000
0001
0010
0000
0001
1000
0000
,
0200
0000
0310
0001
1100
0000
0011
0000
,
0101
0000
0000
1000
0010
0000
0100
0000
0002
0000
0000
0000
0000
0000
0000
0000
,
0013
0100
1000
0001
0200
0000
0000
0000
,
0000
0302
2000
0000
,
3003
0000
0000
0000
;

//--------------- dance-single - ----------------
#NOTES:
     dance-single:
     :
     Challenge:
     15:
     0.647822,0.496244,0,0,0,501,501,0,0,0,0,0.647822,0.496244,0,0,0,501,501,0,0,0,0:
0000
0000
0000
0000
,
0000
0000
0000
0000
,
0101
1100
1010
0011
,
2002
0000
0000
0000
0003
0000
0000
0000
3001
0100
0001
0100
0010
1000
0100
1000
,
0001
0000
1000
0100
1000
0100
0010
0000
0001
0000
0000
0100
0010
0000
1000
0000
,
0100
0000
0010
0001
0010
0001
1000
0000
0010
0000
0000
0100
0001
0000
1000
0000
,
0001
0000
0010
0100
0010
0100
1000
0000
0001
0000
0000
1000
0100
0000
0010
0000
,
0001
0000
1000
0010
0000
0100
0001
0100
0002
0000
0023
0000
0230
0000
0310
0001
,
1000
0000
0001
0100
0001
0100
0010
0000
1000
0000
0000
0001
0010
0000
0100
0000
,
0010
0000
0100
1000
0100
1000
0010
0000
0100
0000
0000
0001
1000
0000
0100
0000
,
0110
0000
0100
1000
0001
0000
0100
0001
0010
0000
0100
1000
0010
0000
0100
0000
,
0110
0000
0000
0000
0000
0000
0000
0000
0010
0100
0010
0100
0001
0010
0100
1000
,
0001
0000
0100
0010
0100
0001
0010
0000
0100
0000
1000
0010
0000
0000
0100
0000
,
0001
0000
1000
0100
1000
0001
0100
0001
1000
0000
0010
0100
0000
0000
0100
0000
,
0001
0000
0010
0100
1000
0000
0010
0000
0001
0000
1000
0100
0001
0000
0010
0100
,
1000
0000
0000
0100
0000
0000
0010
0000
0000
0100
0000
0000
1000
0000
0000
0000
0000
0000
0001
0000
0000
0000
0000
0000
0101
0000
0000
0000
0000
0000
1010
0000
0000
0000
0000
0000
0000
0000
0000
0000
0000
0000
1000
0000
0100
0000
0010
0000
,
0001
0000
0100
0010
0100
0000
0001
0000
0011
0000
0101
0000
0000
0000
0001
0000
,
0010
0000
0100
0010
0100
1000
0010
0000
1010
0000
1100
0000
0000
0000
1000
0000
,
0001
0000
0010
0100
1000
0000
0010
0100
0001
0000
0010
0100
1000
0000
0001
0000
,
0110
0000
0000
1000
0000
0000
0110
0000
0000
0001
0000
0000
0120
0000
0000
0000
0000
0000
1030
0000
0000
0001
0100
0001
,
0100
0000
0000
0110
0000
0010
1000
0000
0100
0000
0001
0000
0100
0000
1000
0000
,
1010
0010
0101
0010
1100
1001
0000
0110
,
1001
0000
0001
0010
0000
0010
0100
1000
0010
0000
0010
0100
0000
0100
0001
0010
,
0100
0000
0100
1000
0000
1000
0010
0000
0001
0000
0010
0100
0000
0100
0001
0000
,
1001
0000
1000
0100
0000
1000
0100
0010
0001
0000
0001
0100
0000
0001
0100
0010
,
1000
0000
0000
0000
0000
0000
1000
0000
0000
0100
0000
0000
0000
0000
0000
0001
0000
0000
0100
0000
0000
0000
0000
0000
2001
0000
0000
0000
0000
0000
0010
0000
0000
0000
0000
0000
3010
0000
0000
0000
0000
0000
0010
0000
1000
0000
0001
0000
,
0100
0000
0010
0000
1000
0100
0010
0001
1000
0000
0110
0000
1001
0000
0000
0000
,
0001
0000
1000
0000
0110
0000
0010
0100
0010
0000
1000
0000
0001
0000
0010
0100
,
0010
0000
1000
0010
0001
0000
0100
0010
0100
0000
1000
0100
0000
0100
0001
0000
,
0010
0000
0000
0000
0000
0000
0100
0000
0000
1000
0000
0000
0010
0000
0000
0000
0000
0000
0100
0000
0000
0001
0000
0000
0010
0000
0000
0000
0000
0000
0100
0000
0000
1000
0000
0000
0010
0000
0000
0000
0000
0000
0100
0000
0010
0000
0100
0000
,
0010
0100
0002
0000
1000
0000
1003
0010
,
0110
0000
0000
0000
0110
0000
0000
0000
0010
1000
0010
0100
0010
1000
0010
0100
,
0002
0000
0010
0000
0013
0200
0000
1300
,
1010
0000
0000
0000
1010
0000
0000
0000
0010
1000
0010
1000
0001
0100
0001
0100
,
0010
0000
0010
1000
0100
0000
0010
0100
0010
0000
0010
0001
0100
0000
0010
0100
,
0010
0000
0010
1000
0100
0000
0010
0100
0010
0000
0010
0001
0100
0000
0010
0000
,
1010
0000
0001
0000
0101
0000
1000
0000
0010
0100
0010
0100
0001
0010
0100
1000
,
0001
0000
1100
0000
0101
0001
0010
0100
,
1100
0001
1010
0001
1100
0000
0010
0001
,
1001
0000
0100
0000
1001
0000
0010
1000
0001
0000
0010
0000
0100
0000
1000
0000
,
0001
0000
0100
1000
0000
0100
0001
0000
0010
0000
0100
0000
1000
0000
0001
0000
,
0011
0000
0000
0010
0000
0000
1100
0000
0000
0100
0000
0000
1010
0000
0000
0010
0000
0000
0101
0000
0000
0100
0010
1000
,
0001
0000
0010
0100
0010
0000
0001
0100
0010
0000
1000
0001
1000
0000
0020
0000
,
0000
0000
0130
0001
1000
0000
0100
0010
0100
0000
0010
0001
1000
0000
0100
0000
,
0011
1000
0101
1000
0011
0000
0100
0010
,
1001
0000
0100
0000
1001
0000
0010
0000
1001
0000
0010
0100
0020
0000
0000
0000
,
0130
0000
0001
1000
0100
0000
0010
0001
1000
0000
0001
0000
0100
0000
1010
0000
,
2000
0000
3001
0100
0002
0000
1003
0100
2000
0000
3001
0010
0002
0000
1003
0010
,
2000
3100
0001
1000
0010
0001
0100
0010
,
0110
0000
1000
0010
0001
0000
0010
0000
0110
0000
0100
0001
0010
0100
1000
0100
,
0010
0000
1000
0010
0002
0000
0203
0000
2300
0000
3200
0000
0320
0000
2030
0000
,
3002
0023
0230
2300
0000
3002
0023
2030
,
3020
0000
0130
1000
0010
0000
0100
0001
0010
0000
0100
1000
0000
0000
1010
0000
,
0000
0000
0100
0001
0010
0000
0100
1000
0010
0000
0100
0001
0000
0001
0010
0000
,
0000
0000
0100
1000
0001
0000
0100
1000
0100
0000
0001
0010
0000
0000
0100
0000
,
1100
1000
0101
0001
0120
0000
1030
0001
,
0010
0100
0010
0100
0010
0100
0010
0001
1000
0000
0001
0100
0001
0100
0010
0000
,
1000
0000
0000
0100
0010
0000
0001
0000
0100
0000
0010
1000
0010
1000
0001
0000
,
0010
0000
0000
0100
1000
0000
0001
0000
1000
0000
0010
0100
0010
0100
0001
0000
,
1000
0000
0000
0001
0010
0000
0100
0000
1000
0000
0001
0100
0000
0010
1000
0010
,
2000
0000
0000
0000
0000
0000
3020
0000
0000
0000
0000
0000
0230
0000
0000
0000
0000
0000
0301
0000
0010
0000
0100
0000
1000
0000
0000
0000
0000
0000
0001
0000
0000
0010
0000
0000
0001
0000
0000
0010
0000
0000
0100
0000
0000
0000
0000
0000
,
1000
0000
0000
0001
0100
0000
0010
0000
0100
0000
0010
1000
0010
1000
0100
0000
,
0010
0000
0000
0001
1000
0000
0010
0000
0101
0000
0010
0000
1100
0000
0010
0000
,
1001
0000
0000
0100
0001
0000
0010
0000
0220
0000
0000
0000
0000
0000
0300
0000
,
0130
1000
0010
0001
2000
0000
0000
0000
,
0000
3200
0002
0000
,
0303
0000
0000
0000
;
