#TITLE:リヴァーサル;
#SUBTITLE:;
#ARTIST:syudou;
#TITLETRANSLIT:Reversal;
#SUBTITLETRANSLIT:;
#ARTISTTRANSLIT:syudou;
#GENRE:POP;
#CREDIT:;
#MUSIC:Reversal.ogg;
#BANNER:Reversal.png;
#BACKGROUND:Reversal-bg.png;
#CDTITLE:;
#SAMPLESTART:50.565;
#SAMPLELENGTH:9.746;
#SELECTABLE:YES;
#OFFSET:0.603;
#BPMS:0.000=197.000
,32.000=98.500
,34.000=197.000
,130.000=98.500
,138.000=197.000
,153.000=394.000
,154.000=197.000
;
#STOPS:153.000=0.038
,153.250=0.038
,153.500=0.038
,153.750=0.038
;
#DISPLAYBPM:98.500:197.000;
#BGCHANGES:2.500=Reversal.avi=1.000=0=0=0=StretchNoLoop====,
99999.000=-nosongbg-=1.000=0=0=0=StretchNoLoop====
;
#FGCHANGES:;

//--------------- dance-single - ----------------
#NOTES:
     dance-single:
     :
     Medium:
     13:
     0,0,0,0,0:
0000
0000
0000
0000
,
0000
0000
0011
0000
1100
0000
1000
0100
,
1000
0001
0100
1000
0100
0001
1000
0100
,
0010
0000
0110
0000
1001
0000
0001
0100
,
0001
1000
0100
0001
0100
1000
0001
0010
,
0100
0000
0110
0000
1001
0000
0001
0100
,
1000
0001
0010
0100
0010
1000
0001
0010
,
0100
0100
1000
1000
0001
0010
0100
1000
,
0002
0003
0000
0000
0000
0000
0000
0000
0000
0000
0000
0000
0000
0000
0000
0000
0000
0000
0000
0000
0000
0000
0000
0000
0010
0000
0000
0000
0000
0000
0000
0000
0000
0000
0000
0000
0000
0000
0000
0000
0000
0000
0000
0000
0000
0000
0000
0000
0100
0000
0000
0000
0000
0000
0000
0000
0000
0000
0000
0000
0000
0000
0000
0000
0000
0000
0000
0000
0000
0000
0000
0000
1000
0000
0000
0000
0000
0000
0000
0000
0000
0000
0000
0000
0000
0000
0000
0000
0000
0000
0000
0000
0000
0000
0000
0000
2200
3300
0000
0000
0000
0000
0000
0000
0000
0000
0000
0000
0000
0000
0000
0000
0000
0000
0000
0000
0000
0000
0000
0000
0000
0000
0000
0000
0000
0000
0000
0000
0000
0000
0000
0000
0000
0000
0000
0000
0000
0000
0000
0000
0000
0000
0000
0000
0011
0000
0000
0000
0000
0000
0000
0000
0000
0000
0000
0000
0000
0000
0000
0000
0000
0000
0000
0000
0000
0000
0000
0000
0000
0000
0000
0000
0000
0000
0000
0000
0000
0000
0000
0000
0000
0000
0000
0000
0000
0000
0000
0000
0000
0000
0000
0000
,
1000
0001
0000
0101
0000
1100
0000
1000
,
0000
0000
0001
1000
0001
0000
0100
0000
0101
0000
0000
0000
1010
0000
0000
0000
,
0001
1000
0000
1100
0000
1100
0000
0101
,
0000
1000
0001
0010
0011
0000
1100
0000
,
0001
1000
0000
1100
0000
0101
0000
0001
,
0000
0000
1000
0001
1000
0000
0010
0000
1010
0000
0000
0000
0101
0000
0000
0000
,
1000
0001
0000
0011
0000
0011
0000
1100
,
0000
1000
0100
1000
0100
0001
0100
1000
,
0001
0000
0001
0100
0010
0001
0010
1000
,
0000
0001
0010
0100
1000
0001
0010
1100
,
0000
0011
0000
0001
2000
3020
0230
0302
,
0023
0230
2300
0000
0000
3010
0100
0000
,
0010
0100
0000
0001
1000
0010
0100
0001
,
0000
0001
0010
0100
1000
0000
0001
1000
,
0000
0010
0000
0100
0101
0000
1100
0000
,
1001
0000
0001
1000
1100
0000
0011
0000
,
1100
0000
1000
0001
0101
0000
1010
0000
,
0101
0000
0100
0001
1000
0001
0010
1000
,
0001
0100
1000
0010
0002
0000
0023
0000
,
2030
0000
3001
0010
0110
0000
1001
0000
,
0110
0000
1000
0001
1001
0000
0110
0000
,
1001
0000
0002
0000
0013
0100
1000
0001
,
0100
0000
0100
0001
2000
0000
3002
0000
,
0023
0000
0000
0000
0000
0000
0000
0000
0000
0000
0000
0000
0000
0000
0000
0000
0000
0000
0000
0000
0000
0000
0000
0000
0000
0000
0000
0000
0000
0000
0000
0000
0000
0000
0000
0000
0000
0000
0000
0000
0000
0000
0000
0000
0000
0000
0000
0000
0000
0000
0000
0000
0000
0000
0000
0000
0000
0000
0000
0000
0000
0000
0000
0000
0000
0000
0000
0000
0000
0000
0000
0000
0000
0000
0000
0000
0000
0000
0000
0000
0000
0000
0000
0000
0000
0000
0000
0000
0000
0000
0000
0000
0000
0000
0000
0000
0230
0300
0000
0000
0000
0000
0000
0000
0000
0000
0000
0000
0000
0000
0000
0000
0000
0000
0000
0000
0000
0000
0000
0000
0000
0000
0000
0000
0000
0000
0000
0000
0000
0000
0000
0000
0000
0000
0000
0000
0000
0000
0000
0000
0000
0000
0000
0000
2000
0000
0000
0000
0000
0000
0000
0000
0000
0000
0000
0000
0000
0000
0000
0000
0000
0000
0000
0000
0000
0000
0000
0000
0000
0000
0000
0000
0000
0000
0000
0000
0000
0000
0000
0000
0000
0000
0000
0000
0000
0000
0000
0000
0000
0000
0000
0000
,
3001
0100
1000
0100
0001
0000
0002
0000
,
1003
0000
0000
0000
0000
0000
0000
0000
0000
0000
0000
0000
0000
0000
0000
0000
0000
0000
0000
0000
0000
0000
0000
0000
0100
0000
0000
0000
0000
0000
0000
0000
0000
0000
0000
0000
0000
0000
0000
0000
0000
0000
0000
0000
0000
0000
0000
0000
0001
0000
0000
0000
0000
0000
0000
0000
0000
0000
0000
0000
0000
0000
0000
0000
0000
0000
0000
0000
0000
0000
0000
0000
0100
0000
0000
0000
0000
0000
0000
0000
0000
0000
0000
0000
0000
0000
0000
0000
0000
0000
0000
0000
0000
0000
0000
0000
2000
3000
0000
0000
0000
0000
0000
0000
0000
0000
0000
0000
0000
0000
0000
0000
0000
0000
0000
0000
0000
0000
0000
0000
0000
0000
0000
0000
0000
0000
0000
0000
0000
0000
0000
0000
0000
0000
0000
0000
0000
0000
0000
0000
0000
0000
0000
0000
0010
0000
0000
0000
0000
0000
0000
0000
0000
0000
0000
0000
0000
0000
0000
0000
0000
0000
0000
0000
0000
0000
0000
0000
0000
0000
0000
0000
0000
0000
0000
0000
0000
0000
0000
0000
0000
0000
0000
0000
0000
0000
0000
0000
0000
0000
0000
0000
,
0100
0001
1000
0001
1010
0000
1000
0000
,
0100
1000
0001
1000
0011
0000
1100
0000
,
1010
0101
0220
0000
,
0000
0330
0001
1000
,
0001
0000
1000
0000
0110
0000
0010
1000
,
0001
0000
0010
0001
1000
0000
1001
0000
,
0001
0100
0010
0000
0110
0000
1000
0001
,
0100
0000
0001
1000
0100
0000
0120
0000
,
0031
0010
0100
1000
0001
0010
0100
1000
,
0001
0100
0100
1000
0010
1000
0100
0010
,
0001
1000
0100
0100
0001
0010
0001
1000
,
0010
0100
0100
1000
0010
1000
0100
0010
,
0001
1000
0010
0000
0200
0001
0310
0100
,
0020
0001
0130
0010
0200
0000
0301
0000
,
0001
0100
0010
1000
0200
1000
0310
0100
,
0020
1000
0130
0010
0200
0000
1300
0000
,
1000
0010
0100
0001
1000
0100
0001
0100
,
1000
0001
0010
1000
0010
0001
1000
0100
,
0010
0001
2000
0000
0001
0000
3001
0000
,
0010
0000
0100
1000
0001
0000
0001
1000
,
0100
0000
0010
0000
0001
0100
0000
1000
,
0100
0000
0001
0100
0000
1000
0100
0000
,
1001
0000
0010
0000
1000
0010
0000
0001
,
0010
0000
1000
0010
0000
0001
0010
0000
,
0110
0000
1000
0001
0020
0000
0000
0130
,
1000
0000
1000
0010
0100
0000
0010
0000
,
0100
0010
1010
0101
,
1000
0001
0000
0101
0000
1100
0000
1000
,
0000
0000
0001
1000
0001
0000
0010
0000
0011
0000
0000
0000
1100
0000
0000
0000
,
0001
1000
0000
1010
0000
1010
0000
0101
,
0000
0001
0010
0100
1100
0000
0011
0000
,
1000
0001
0000
0011
0000
1010
0000
1000
,
0000
0000
0001
1000
0001
0000
0100
0000
0101
0000
0000
0000
1010
0000
0000
0000
,
0001
1000
0000
1100
0000
1100
0000
0011
,
0000
0001
1000
0001
0000
0000
0000
0000
;

//--------------- dance-single - ----------------
#NOTES:
     dance-single:
     :
     Hard:
     16:
     0,0,0,0,0:
0000
0000
0000
0000
,
0000
0000
0110
0000
1001
0000
0001
0100
,
1000
0100
0010
1000
0100
0001
0100
1000
,
0001
0000
0110
0000
1001
0000
1000
0100
,
0001
0100
0010
0001
0100
1000
0100
0001
,
1000
0000
0110
0000
1001
0000
0001
1000
,
0001
0000
0100
0010
0100
0000
0001
0000
1000
0000
0001
0010
0100
0000
0010
0001
,
1000
0010
0100
0001
0010
0100
1000
0001
,
0200
0300
0000
0000
0000
0000
0000
0000
0000
0000
0000
0000
0000
0000
0000
0000
0000
0000
0000
0000
0000
0000
0000
0000
0001
0000
0000
0000
0000
0000
0000
0000
0000
0000
0000
0000
0000
0000
0000
0000
0000
0000
0000
0000
0000
0000
0000
0000
1000
0000
0000
0000
0000
0000
0000
0000
0000
0000
0000
0000
0000
0000
0000
0000
0000
0000
0000
0000
0000
0000
0000
0000
0100
0000
0000
0000
0000
0000
0000
0000
0000
0000
0000
0000
0000
0000
0000
0000
0000
0000
0000
0000
0000
0000
0000
0000
2002
3003
0000
0000
0000
0000
0000
0000
0000
0000
0000
0000
0000
0000
0000
0000
0000
0000
0000
0000
0000
0000
0000
0000
0001
0000
0000
0000
0000
0000
0000
0000
0000
0000
0000
0000
1000
0000
0000
0000
0000
0000
0000
0000
0000
0000
0000
0000
0100
0000
0000
0000
0000
0000
0000
0000
0000
0000
0000
0000
0000
0000
0000
0000
0000
0000
0000
0000
0000
0000
0000
0000
0100
0000
0000
0000
0000
0000
0000
0000
0000
0000
0000
0000
1000
0000
0000
0000
0000
0000
0000
0000
0000
0000
0000
0000
,
0001
0100
0010
0110
0000
0110
1000
0001
,
0000
0000
1000
0100
1000
0000
0001
0000
1001
0000
1000
0001
0100
0000
0100
0001
,
1000
0100
0010
0011
0000
0011
1000
1100
,
0000
0000
1000
0000
0001
0100
0001
0100
0001
0000
1000
0001
0010
0000
0010
0001
,
1000
0010
0100
0110
0000
0110
1000
0001
,
0000
0000
0001
0010
0001
0000
1000
0000
1001
0000
0001
1000
0010
0000
0010
1000
,
0001
0010
0100
1100
0000
1100
1000
0101
,
0000
0000
0001
0000
1000
0100
1000
0100
1000
0000
0010
0000
0100
0000
0001
0000
,
1000
0000
1000
0100
0001
0100
1000
0010
,
0000
0100
0001
1000
0100
1000
0001
0101
,
0000
1010
0000
1000
0002
0023
0230
2300
,
3002
2003
3020
0030
0000
0110
1000
0001
,
0110
1000
0001
1000
0010
1000
0001
0010
,
0000
0010
0100
1000
0001
0100
0001
0101
,
0000
1100
0001
1000
0110
0000
1001
0000
,
0110
0001
1000
0010
0101
0000
1010
0000
,
0101
0000
0001
0010
1100
0000
0011
0000
,
1100
0000
0100
1000
0001
0100
1000
0001
,
0010
1000
0100
0010
0011
0000
1001
0000
,
1100
0000
1000
0001
1010
0000
0101
0000
,
1010
0000
0001
1000
0011
0000
1100
0000
,
0011
1000
0020
0000
1030
0010
0100
0001
,
1000
0100
0010
0001
0101
1000
1100
0100
,
1000
0000
0000
0000
0000
0000
0000
0000
0000
0000
0000
0000
0000
0000
0000
0000
0100
0000
0000
0000
0000
0000
0000
0000
0000
0000
0000
0000
0000
0000
0000
0000
1000
0000
0000
0000
0000
0000
0000
0000
0000
0000
0000
0000
0000
0000
0000
0000
0001
0000
0000
0000
0000
0000
0000
0000
0000
0000
0000
0000
0000
0000
0000
0000
0100
0000
0000
0000
0000
0000
0000
0000
0000
0000
0000
0000
0000
0000
0000
0000
0001
0000
0000
0000
0000
0000
0000
0000
0000
0000
0000
0000
0000
0000
0000
0000
2000
3000
0000
0000
0000
0000
0000
0000
0000
0000
0000
0000
0000
0000
0000
0000
0000
0000
0000
0000
0000
0000
0000
0000
0000
0000
0000
0000
0000
0000
0000
0000
0000
0000
0000
0000
0000
0000
0000
0000
0000
0000
0000
0000
0000
0000
0000
0000
0002
0000
0000
0000
0000
0000
0000
0000
0000
0000
0000
0000
0000
0000
0000
0000
0000
0000
0000
0000
0000
0000
0000
0000
0000
0000
0000
0000
0000
0000
0000
0000
0000
0000
0000
0000
0000
0000
0000
0000
0000
0000
0000
0000
0000
0000
0000
0000
,
1003
0100
1000
0001
0100
0001
1000
0000
0000
0100
0000
0000
0110
0000
0000
0000
0000
0000
2001
0000
0000
0000
0000
0000
,
3001
0000
0000
0000
0000
0000
0000
0000
0100
0000
0000
0000
0000
0000
0000
0000
0001
0000
0000
0000
0000
0000
0000
0000
1000
0000
0000
0000
0000
0000
0000
0000
0100
0000
0000
0000
0000
0000
0000
0000
1000
0000
0000
0000
0000
0000
0000
0000
0001
0000
0000
0000
0000
0000
0000
0000
0000
0000
0000
0000
0000
0000
0000
0000
0000
0000
0000
0000
0000
0000
0000
0000
0100
0000
0000
0000
0000
0000
0000
0000
0000
0000
0000
0000
0000
0000
0000
0000
0000
0000
0000
0000
0000
0000
0000
0000
2002
3003
0000
0000
0000
0000
0000
0000
0000
0000
0000
0000
0000
0000
0000
0000
0000
0000
0000
0000
0000
0000
0000
0000
0000
0000
0000
0000
0000
0000
0000
0000
0000
0000
0000
0000
0000
0000
0000
0000
0000
0000
0000
0000
0000
0000
0000
0000
0001
0000
0000
0000
0000
0000
0000
0000
0000
0000
0000
0000
0000
0000
0000
0000
0000
0000
0000
0000
0000
0000
0000
0000
0100
0000
0000
0000
0000
0000
0000
0000
0000
0000
0000
0000
0000
0000
0000
0000
0000
0000
0000
0000
0000
0000
0000
0000
,
1000
0000
0100
0010
0100
0000
0001
1000
0001
0000
0000
0000
1000
0000
0100
0000
,
0001
0000
0100
0010
0100
0000
1000
0001
1000
0000
0001
0100
0010
0000
0100
0001
,
1000
0000
0001
0010
0100
1000
0100
1000
0002
0000
0000
0000
0000
0000
0000
0000
,
0000
0000
0000
0000
1003
0100
0010
0100
,
1000
0000
0010
0000
0100
0000
0000
0000
0110
0000
0100
0001
0010
0000
0100
0000
,
0010
0000
0001
0100
0010
0000
0100
0000
0001
0000
0000
0000
1010
0000
0000
0000
,
0001
0000
0010
0000
0100
0000
1000
0000
0010
0000
0100
0010
1000
0000
0100
0000
,
0010
0000
0100
1000
0010
0000
0100
0000
0010
0000
1000
0000
1020
0000
0000
0000
,
0130
0000
0001
0000
0100
0000
1000
0000
0100
0000
0001
0010
0100
0000
0010
0001
,
1000
0000
0010
0100
0001
0000
0100
0000
0100
0000
1000
0100
0010
0000
0100
1000
,
0001
0000
0010
0100
1000
0000
0100
0000
0100
0000
0001
0010
0100
0000
0010
0001
,
1000
0000
0010
0100
0001
0000
0100
0000
0100
0000
1000
0100
0010
0000
0100
0010
,
0001
1000
0100
0010
0001
1000
0001
0010
0100
0000
1000
0001
0100
0000
1000
0000
,
0100
0000
0001
1000
0100
0000
0001
0000
0200
0000
0000
0000
1000
0000
0000
0000
,
0310
0000
0100
0000
1000
0000
0001
0100
0020
0000
0130
0000
0100
0000
1000
0100
,
0020
0000
0130
0000
0100
0000
0001
0010
0200
0000
0310
0000
0110
0000
0001
0000
,
1000
0000
0100
0000
0010
0000
0001
0000
1000
0000
0001
0100
0001
0000
0010
0100
,
0010
0000
0001
1000
0001
0000
1000
0010
1000
0000
0010
0100
0010
0000
0100
0001
,
1000
0001
1000
0001
0020
0000
0000
0000
0100
0000
0000
0000
0130
0000
0000
0100
,
1000
0000
0001
0000
0100
0000
1000
0100
0010
0000
1000
0000
0001
0000
0010
0000
,
0100
1000
0100
1000
0001
0100
0001
0100
0010
0000
1010
0000
0000
0000
0100
0000
,
0101
0000
0010
1010
0000
0100
0101
0000
,
1001
0000
0110
0000
0010
0011
0000
0100
,
1100
0000
0010
0011
0000
0100
1100
0000
,
1001
0000
0000
0000
0001
0010
0100
1000
0020
0000
0000
0000
0000
0000
1030
0000
,
0001
0000
0001
0010
0110
0110
0110
0000
,
0000
0000
0000
0000
1001
0000
0000
0000
1001
0000
0001
1000
0100
0000
0100
1000
,
0001
0100
0010
0110
0000
0110
1000
0001
,
0000
0000
1000
0100
1000
0000
0001
0000
1001
0000
1000
0001
0100
0000
0100
0001
,
1000
0100
0010
0011
0000
0011
1000
1100
,
0000
0000
0001
0000
1000
0100
1000
0100
1000
0000
0001
1000
0010
0000
0010
1000
,
0001
0010
0100
0110
0000
0110
1000
0001
,
0000
0000
1000
0100
1000
0000
0001
0000
1001
0000
1000
0001
0010
0000
0010
0001
,
1000
0010
0100
0101
0000
0101
0001
1100
,
0000
0000
0100
1000
0001
1000
0001
1000
0000
0000
0000
0000
0000
0000
0000
0000
;

//--------------- dance-single - ----------------
#NOTES:
     dance-single:
     :
     Challenge:
     18:
     0.901312,0.678598,0,0,0,569,569,0,0,0,0,0.901312,0.678598,0,0,0,569,569,0,0,0,0:
0000
0000
0000
0000
,
0010
0000
0100
0000
0110
0000
0000
0000
1001
0000
0000
0000
0001
0010
0100
0000
,
1000
0000
0001
0000
1001
0000
1000
0010
0100
0000
0001
0000
0010
0000
0100
0000
,
1000
0000
0010
0000
0110
0000
0000
0000
1001
0000
0000
0000
1000
0100
0010
0000
,
0100
1000
0001
0100
0010
1000
0001
1000
,
0010
0000
0100
0000
0110
0000
0000
0000
1001
0000
0000
0000
0001
1000
0100
1000
,
0001
0000
0100
0010
0100
0000
0001
0000
1000
0000
0100
0000
0010
0100
1000
0000
,
0001
0100
1000
0001
1000
0100
0001
0010
,
0200
0300
0000
0000
0000
0000
1000
0000
0000
0000
0000
0000
0000
0000
0000
0000
0000
0000
0000
0000
0000
0000
0000
0000
0001
0000
0000
0000
0000
0000
0010
0000
0000
0000
0000
0000
0000
0000
0000
0000
0000
0000
0000
0000
0000
0000
0000
0000
0100
0000
0000
0000
0000
0000
1000
0000
0000
0000
0000
0000
0000
0000
0000
0000
0000
0000
0000
0000
0000
0000
0000
0000
0110
0000
0000
0000
0000
0000
0000
0000
0000
0000
0000
0000
0000
0000
0000
0000
0000
0000
0000
0000
0000
0000
0000
0000
2002
3003
0000
0000
0000
0000
0000
0000
0000
0000
0000
0000
0000
0000
0000
0000
0000
0000
0000
0000
0000
0000
0000
0000
1000
0000
0000
0000
0000
0000
0000
0000
0000
0000
0000
0000
0010
0000
0000
0000
0000
0000
0000
0000
0000
0000
0000
0000
0100
0000
0000
0000
0000
0000
0000
0000
0000
0000
0000
0000
0000
0000
0000
0000
0000
0000
0000
0000
0000
0000
0000
0000
0100
0000
0000
0000
0000
0000
0000
0000
0000
0000
0000
0000
0010
0000
0000
0000
0000
0000
0000
0000
0000
0000
0000
0000
,
1000
0010
0100
0001
0010
0000
0011
0000
0000
0000
0011
0000
0001
0010
0100
0000
,
0000
0000
0000
0000
0000
0000
1000
0000
0100
0000
0010
0000
0001
0000
0000
0000
0000
0000
1000
0000
0000
0000
0000
0000
1001
0000
0000
0000
0000
0000
0001
0000
0000
0010
0000
0000
0100
0000
0000
0000
0000
0000
0100
0000
0000
0010
0000
0000
,
0001
0010
0100
1000
0010
0000
1010
0000
0000
0000
1010
0000
0001
0000
0101
0000
,
0000
0000
1000
0000
0001
0100
0001
0100
0001
0000
1000
0100
0010
0000
0010
0100
,
1000
0100
0010
0001
0100
0000
0101
0000
0000
0000
0101
0000
0001
0100
0010
0000
,
0000
0000
0000
0000
0000
0000
1000
0000
0010
0000
0100
0000
0001
0000
0000
0000
0000
0000
1000
0000
0000
0000
0000
0000
1001
0000
0000
0000
0000
0000
0001
0000
0000
0100
0000
0000
0010
0000
0000
0000
0000
0000
0010
0000
0000
0100
0000
0000
,
0001
0100
0010
1000
0100
0000
1100
0000
0000
0000
1000
0001
0100
0000
0110
0000
,
0000
0000
0010
0100
0001
1000
0001
1000
0001
0000
0010
0000
0100
0000
1000
0001
,
0100
0000
1000
0000
0100
0000
0010
0000
0100
0000
0001
0000
0010
0000
0001
1000
,
0100
0000
0001
0000
0100
0000
1000
0010
0100
0000
0001
0100
0010
0000
1010
0000
,
0000
0101
0001
1000
0020
0230
0302
0023
,
0230
0000
2300
0000
3200
0000
0310
0001
1000
0000
0010
0000
0100
0000
1000
0100
,
0010
0000
1000
0000
0001
0000
0010
0000
0100
0000
0010
0000
0001
0000
0100
0010
,
1000
0000
0001
0000
0100
0000
1000
0000
0100
0000
0010
0000
0100
0000
0001
0010
,
0100
1000
0001
1000
1100
0001
0101
1000
,
0110
0000
0000
0000
0000
0000
0001
0000
0000
1000
0000
0000
0001
0000
1000
0000
0100
0000
0010
0000
0001
0000
1000
0000
0100
0000
0000
0000
0000
0000
0000
0000
0000
0000
0000
0000
0110
0000
0000
0000
0000
0000
0000
0000
0000
0000
0000
0000
,
1001
0000
0000
0000
0001
0100
0010
0000
0110
0000
0000
0000
1010
0000
0000
0000
,
0101
0000
0000
0000
0100
0010
0100
0000
0001
0000
1000
0010
0001
0000
0010
0000
,
0100
0000
0001
0010
1000
0000
0010
0000
0011
0000
0000
0000
0110
0000
0000
0000
,
1100
0000
0000
0000
1000
0100
0010
0001
1000
0000
0001
0000
0101
0000
1000
0000
,
1010
0000
0010
0000
0100
0001
0010
0000
0011
0000
0100
0000
1100
0000
0010
0000
,
0011
1000
0002
0100
1003
0010
0001
0010
,
0100
0010
0001
0010
0110
1000
1001
0001
,
0010
0000
0000
0000
0000
0000
0000
0000
0000
0000
0000
0000
0000
0000
0000
0000
0100
0000
0000
0000
0000
0000
0000
0000
0000
0000
0000
0000
0000
0000
0000
0000
1000
0000
0000
0000
0000
0000
0000
0000
0000
0000
0000
0000
0000
0000
0000
0000
0001
0000
0000
0000
0000
0000
0000
0000
0000
0000
0000
0000
0000
0000
0000
0000
0010
0000
0000
0000
0000
0000
0000
0000
0000
0000
0000
0000
0000
0000
0000
0000
0100
0000
0000
0000
0000
0000
0000
0000
0000
0000
0000
0000
0000
0000
0000
0000
2000
3000
0000
0000
0000
0000
0000
0000
0000
0000
0000
0000
0000
0000
0000
0000
0000
0000
0000
0000
0000
0000
0000
0000
1000
0000
0000
0000
0000
0000
0000
0000
0000
0000
0000
0000
0000
0000
0000
0000
0000
0000
0000
0000
0000
0000
0000
0000
0002
0000
0000
0000
0000
0000
0000
0000
0000
0000
0000
0000
0000
0000
0000
0000
0000
0000
0000
0000
0000
0000
0000
0000
0100
0000
0000
0000
0000
0000
0000
0000
0000
0000
0000
0000
0000
0000
0000
0000
0000
0000
0000
0000
0000
0000
0000
0000
,
1003
0010
0100
0010
1000
0100
0010
0000
0000
0010
0100
1000
0001
0000
0000
0100
0000
0000
0200
0000
0000
0001
0000
0000
,
0301
0000
0000
0000
0000
0000
0000
0000
0010
0000
0000
0000
0000
0000
0000
0000
0100
0000
0000
0000
0000
0000
0000
0000
0010
0000
0000
0000
0000
0000
0000
0000
0001
0000
0000
0000
0000
0000
0000
0000
1000
0000
0000
0000
0000
0000
0000
0000
0100
0000
0000
0000
0000
0000
0000
0000
0000
0000
0000
0000
0000
0000
0000
0000
0000
0000
0000
0000
0000
0000
0000
0000
0010
0000
0000
0000
0000
0000
0000
0000
0000
0000
0000
0000
0000
0000
0000
0000
0000
0000
0000
0000
0000
0000
0000
0000
2002
3003
0000
0000
0000
0000
0000
0000
0000
0000
0000
0000
0000
0000
0000
0000
0000
0000
0000
0000
0000
0000
0000
0000
0000
0000
0000
0000
0000
0000
0000
0000
0000
0000
0000
0000
0001
0000
0000
0000
0000
0000
0000
0000
0000
0000
0000
0000
0010
0000
0000
0000
0000
0000
0000
0000
0000
0000
0000
0000
0000
0000
0000
0000
0000
0000
0000
0000
0000
0000
0000
0000
0100
0000
0000
0000
0000
0000
0000
0000
0000
0000
0000
0000
0000
0000
0000
0000
0000
0000
0000
0000
0000
0000
0000
0000
,
1000
0000
0001
0100
0010
0000
0010
1000
0001
0000
0000
1000
0010
0000
0100
0000
,
0001
0000
1000
0100
0010
0000
0010
0100
1000
0010
0100
0010
0100
0000
0010
1000
,
0001
0000
0010
0000
0100
1000
0100
1000
0002
0000
0000
0000
0000
0000
0000
0000
,
0000
0000
0000
0000
0103
0010
0100
0010
0100
0000
0001
0000
0010
0000
0100
0000
,
1000
0000
0001
0000
0100
0000
0000
0000
0110
0000
0100
0001
0010
0000
0100
0010
,
0001
0000
0100
0001
0010
0000
0100
0010
0001
0000
0100
0000
0101
0000
0000
0000
,
0100
0000
0001
0000
1000
0000
0100
1000
0010
0000
0100
0010
1000
0000
0100
1000
,
0010
0000
0100
0010
1000
0000
0100
1000
0010
0000
0100
0000
0201
0000
0000
0000
,
0301
0000
0010
0000
0100
0000
1000
0000
0001
1000
0100
1000
0010
1000
0100
1000
,
0001
1000
0100
1000
0010
1000
0100
0100
0001
1000
0001
0100
0001
0010
0001
0100
,
0001
1000
0001
0100
0001
0010
0001
0100
0100
1000
0001
1000
0100
1000
0010
1000
,
0001
1000
0100
1000
0010
1000
0100
0100
0001
1000
0001
0100
0001
0010
0001
1000
,
0001
0000
0000
0100
0000
0000
0001
0000
0000
0010
0000
0000
0001
0000
1000
0000
0100
0000
0010
0000
0001
0000
1000
0000
0020
0000
0000
0000
0000
0000
1000
0000
0000
0000
0000
0000
0100
0000
0000
0000
0000
0000
1030
0000
0000
0001
0000
0000
,
0200
0000
0001
0000
0010
0000
0301
1000
0020
0000
0100
0000
1000
0000
0130
0000
,
0101
0000
0110
0000
1010
0000
1000
0100
0020
0000
0001
0000
0100
0000
0031
1000
,
0200
0000
1000
0000
0010
0000
1300
0001
0020
0000
0100
0000
0001
0000
0130
0000
,
1000
0010
0100
0000
0001
0000
0010
0000
0001
0100
0010
1000
0100
1000
0010
0100
,
0001
0010
0001
0100
0010
1000
0100
1000
0010
0100
0001
0010
0001
0100
0010
1000
,
0001
0000
0000
1000
0000
0000
0100
0000
0010
0000
0001
0000
2000
0000
0000
0000
0000
0000
0000
0000
0000
0000
0000
0000
0100
0000
0000
0000
0000
0000
0000
0000
0000
0000
0000
0000
3001
0000
0000
0000
0000
0000
0000
0000
0000
0100
0000
0000
,
0001
0000
0010
0000
0100
0000
0010
0001
1000
0000
0010
0000
0100
0000
0001
0000
,
0010
0000
0100
0000
1000
0000
0001
0000
0010
0000
0100
0000
1000
0000
0000
0001
0000
0000
1000
0000
0000
0001
0000
0000
1000
0000
0000
0000
0000
0000
1100
0000
0000
0000
0000
0000
0001
0000
0000
0000
0000
0000
1000
0000
0000
0000
0000
0000
,
0101
1000
0001
1100
0001
1000
0110
0000
,
1001
0100
0010
0000
1000
0011
1000
0001
,
1010
0000
0001
0000
1000
0000
0011
0000
1000
0000
0001
0000
0110
0000
0000
0001
,
1000
0000
0000
0001
0000
0000
1000
0000
0000
0001
0000
0000
1000
0000
0010
0000
0100
0000
0001
0000
1000
0000
0010
0000
0200
0000
0000
0000
0000
0000
0000
0000
0000
0000
0000
0000
0000
0000
0000
0000
0000
0000
0301
0000
0000
0010
0000
0000
,
0100
1000
0001
0000
0110
0110
0110
0000
,
0000
0000
0000
0000
1001
0000
0000
0000
1001
0000
0001
0010
0100
0000
0100
0010
,
0001
0010
0100
1000
0010
0000
1010
0000
0000
0000
1010
0000
1000
0010
0100
0000
,
0000
0000
0000
0000
0000
0000
0001
0000
0100
0000
0010
0000
1000
0000
0000
0000
0000
0000
0001
0000
0000
0000
0000
0000
1001
0000
0000
0000
0000
0000
1000
0000
0000
0010
0000
0000
0100
0000
0000
0000
0000
0000
0100
0000
0000
0010
0000
0000
,
1000
0010
0100
0001
0010
0000
0011
0000
0000
0000
0011
0000
1000
0000
1100
0000
,
0000
0000
0001
0000
1000
0100
1000
0100
1000
0000
0001
0100
0010
0000
0010
0100
,
0001
0100
0010
1000
0100
0000
1100
0000
0000
0000
1100
0000
1000
0100
0010
0000
,
0000
0000
0000
0000
0000
0000
0001
0000
0010
0000
0100
0000
1000
0000
0000
0000
0000
0000
0001
0000
0000
0000
0000
0000
1001
0000
0000
0000
0000
0000
1000
0000
0000
0100
0000
0000
0010
0000
0000
0000
0000
0000
0010
0000
0000
0100
0000
0000
,
1000
0100
0010
0001
0100
0000
0101
0000
0000
0000
0001
1000
0100
0000
0110
0000
,
0000
0000
0010
0001
1000
0001
1000
0001
0000
0000
0000
0000
0000
0000
0000
0000
;
