#TITLE:恋愛脳;
#SUBTITLE:;
#ARTIST:ナナヲアカリ;
#TITLETRANSLIT:RenaiNou;
#SUBTITLETRANSLIT:;
#ARTISTTRANSLIT:Nanawo Akari;
#GENRE:Anime;
#CREDIT:;
#MUSIC:RenaiNou.ogg;
#BANNER:RenaiNou.png;
#BACKGROUND:RenaiNou-bg.png;
#CDTITLE:;
#SAMPLESTART:57.592;
#SAMPLELENGTH:12.308;
#SELECTABLE:YES;
#OFFSET:0.870;
#BPMS:0.000=156.000;
#STOPS:;
#BGCHANGES:2.500=RenaiNou.avi=1.000=0=0=0=StretchNoLoop====,
99999.000=-nosongbg-=1.000=0=0=0=StretchNoLoop====
;
#FGCHANGES:;

//--------------- dance-single - ----------------
#NOTES:
     dance-single:
     :
     Hard:
     12:
     0,0,0,0,0:
0000
0000
0000
0000
,
0001
1000
0001
1000
0000
0010
0100
0000
,
0010
1000
0100
0020
0000
0130
0000
1000
,
0001
0000
0001
0000
1000
0000
1000
0010
,
0100
0010
0100
0001
0000
0001
1000
0000
,
1000
0100
0010
0001
0000
1000
0010
0100
,
0001
1000
0100
0002
0000
0103
1000
0001
,
1001
0000
1001
0000
1000
0010
0001
0010
,
1000
0100
0010
0001
0101
0000
1001
0000
,
1100
0000
0110
0000
0011
0000
0001
0010
,
1000
0020
0000
0230
0000
1000
0000
1300
,
0010
0000
0100
0010
1000
0001
1000
0020
,
0000
0230
0000
0001
0301
0000
0101
0000
,
1001
0000
0000
1000
0100
1000
0100
0010
,
0110
0000
0000
0001
0100
0001
0100
1000
,
0200
0000
0301
1000
0100
0010
0100
1000
,
0001
0100
1000
0002
0000
0013
1000
0100
,
1100
0000
0000
1000
0001
1000
0001
0100
,
0110
0000
0000
0010
1000
0001
1000
0001
,
0010
0100
1000
0001
1000
0100
0010
0002
,
0000
0103
0010
0100
0020
0000
1030
0000
,
0101
0000
0100
0001
0010
0001
0100
0010
,
1010
0000
1000
0100
0010
0100
1000
0001
,
0010
1000
0010
1000
0001
0100
1000
0002
,
0000
1003
0010
1000
0010
0000
0101
0000
,
0011
0000
0010
0001
1000
0100
0010
0100
,
1100
0000
1000
0010
0100
1000
0100
0001
,
0020
0000
0100
0000
1030
0010
0001
0100
,
0210
0000
0000
0000
0000
0310
1001
0000
,
0100
0000
0110
0000
1001
0000
0001
0100
,
1000
0001
0010
1000
0002
0000
0013
0100
,
0010
0001
1000
0001
0200
0000
1300
0000
,
0100
0001
0100
0002
0000
1003
0100
0000
,
1100
0000
1000
0001
0101
0000
0110
0000
,
1000
0001
0000
1100
0000
1000
0010
0100
,
0101
0001
0010
0000
1100
1000
0010
0000
,
1001
0001
0200
0000
1000
0000
0001
0000
,
0301
0010
0100
2000
0000
3001
0101
0000
,
0100
0001
0010
2000
0000
3001
0200
0000
,
1300
0000
0010
0000
0001
0000
0020
0000
0000
0000
0130
0000
0000
0000
0001
0100
,
0001
0000
1000
0100
1000
0000
0001
0100
0001
0000
0000
0000
0001
0000
1000
0000
,
0100
1000
0100
0020
0000
0001
0031
0000
,
1000
0010
1000
0010
0000
0100
0001
0010
,
0100
1000
0100
2000
0000
3001
0100
0001
,
0101
1001
1100
0110
,
1001
0000
0101
0000
0110
0000
0001
1000
,
0002
0000
0010
0013
0100
1000
0001
0100
,
0010
1010
1001
1200
,
0320
0000
0001
0031
1000
0010
0100
0001
,
0020
0001
1000
0031
,
1001
0000
1000
0010
0100
1000
0001
0010
,
2000
0100
3001
0110
,
1001
0000
1000
0010
0001
1000
0100
0001
,
0020
0032
2003
3100
,
1100
0000
1010
0000
1001
0000
0100
0010
,
0100
0001
0000
0011
0000
1000
0100
0010
,
0001
0000
1000
0010
0100
0001
0010
0100
,
0000
1100
0000
1000
0002
0000
0103
0000
;

//--------------- dance-single - ----------------
#NOTES:
     dance-single:
     :
     Challenge:
     15:
     0.71672,0.544854,0,0,0,452,452,0,0,0,0,0.71672,0.544854,0,0,0,452,452,0,0,0,0:
0000
0000
0000
0000
,
0002
0000
2003
0000
,
3020
0000
0230
0000
,
0301
0001
1000
1000
,
0010
0100
0010
0100
0000
0001
1000
0000
,
0002
0010
0203
1000
0320
0100
0032
0023
,
0100
2030
3002
2003
3001
0200
0320
0230
,
0301
0000
1000
0010
1000
0000
0001
1000
0001
0000
0010
0001
0010
0000
0100
0000
,
1100
1000
0110
0010
0102
0013
2001
3100
,
0110
0000
1010
0000
0101
0001
0010
0100
,
1000
1100
0000
0011
0000
0001
0100
0010
,
0110
0000
1010
1000
0001
1000
0001
0011
,
1000
0000
1100
0000
0001
0000
0100
0010
0100
0000
0010
1000
0001
0010
0001
0010
,
0200
0000
0000
0000
0310
0000
0001
0000
1000
0000
1000
0010
0100
0000
0001
0000
,
0101
0000
0000
0000
0001
0000
0001
1000
0100
0000
0010
0001
1000
0000
0010
0000
,
0100
0000
0100
0001
0010
0000
0100
0000
0010
0000
0010
0001
0100
0000
1000
0000
,
0100
0000
0001
0000
0010
0000
2000
0000
0000
0000
3010
0000
0001
0100
0001
0100
,
0010
0000
0100
0000
1000
0000
0100
0001
1000
0000
0100
1000
0001
0000
0100
0000
,
0110
0000
0000
0000
0110
0000
0010
1000
0100
1000
0010
0000
0100
0000
0001
0000
,
1000
0000
1000
0001
0100
0000
1000
0000
0100
0000
0100
0001
0010
0000
0010
0001
,
1000
0000
0001
0000
0001
0010
0100
1000
0001
1000
0100
0010
0001
1000
0001
0010
,
0100
0000
1000
0000
0100
0000
0001
0000
0100
1000
0010
0000
0100
0000
0010
1000
,
0100
0000
1000
0000
0001
0000
0001
0100
1000
0100
0010
0000
0001
0000
0010
1000
,
0100
0000
0010
0100
0010
0000
0100
1000
0001
0010
0100
0000
1000
0000
0011
0000
,
0000
0000
0011
0000
1100
0000
1000
0010
0100
0010
0100
0000
0010
1000
0001
1000
,
0001
0000
0010
0000
1000
0000
0010
0001
0100
0000
1000
0000
0100
0000
0010
0100
,
0010
0000
1000
0000
0001
0000
1000
0100
0010
0000
0100
0000
0100
0000
1000
0001
,
0100
0000
0010
0000
0110
0000
0100
0001
0000
1000
0100
0000
0010
0000
0001
0000
,
1002
0000
0000
0000
0000
0000
0000
0000
0000
0000
1003
0000
0001
0100
0001
0100
,
0020
0000
1030
0000
1020
0000
0230
0000
0301
0010
2000
0000
3001
0000
0100
0000
,
1000
0000
0001
0100
0001
0000
1000
0100
1000
0000
0010
0000
0100
0000
0010
0000
,
1000
0000
0001
0010
0100
0000
1000
0100
0010
0000
0001
0010
0100
0000
1000
0000
,
0102
0000
1000
0000
0100
0000
2003
0000
0000
0000
3010
0000
0100
0001
1000
0001
,
1000
0000
0001
0100
0010
0000
1000
0010
0100
0000
0001
0100
0010
0000
1000
0000
,
0001
1100
0000
1001
0000
1000
0001
0100
,
2010
0001
3100
0000
0012
1000
0103
0000
,
2001
0000
0010
0000
0001
0000
3001
0010
0100
0000
0010
0000
0001
1000
0001
1000
,
0020
0000
0230
0000
0302
0000
2003
0000
0000
0000
3100
0000
0010
0001
0010
0001
,
1000
0000
0001
0100
2000
0000
3200
0000
0000
0000
0301
0010
2000
0000
0010
0000
,
3010
0000
0001
1000
0001
0000
0102
0000
0000
0000
0103
0000
0010
0000
0100
0010
,
0200
0000
0301
0010
2000
0000
3010
0001
0200
0000
1000
0000
0302
0000
1003
0100
,
0020
0001
0130
2100
0000
0001
3001
0000
,
0011
0000
0010
0001
2000
0000
3020
0000
0000
0000
0130
0001
2000
0000
0010
0000
,
3020
0001
0100
2030
0000
3002
0023
0130
,
0210
0000
0010
0001
2300
0000
0010
0100
3002
0000
1000
0100
0013
0000
0100
0000
,
1100
0000
0010
0000
0101
0000
0010
0000
0110
0000
0001
0000
1000
0100
1000
0100
,
0020
0000
0001
0000
0130
0000
0100
1000
0001
0000
0100
0000
1000
0000
0100
0001
,
0010
0000
0100
0000
1100
0000
1000
0000
1001
0000
1000
0000
1010
0000
1000
0010
,
0200
0000
1000
0000
0301
0000
0001
0010
0100
0000
1000
0000
0100
0000
0001
0100
,
0010
0000
0001
0000
0011
0000
0001
0000
1001
0000
0001
0000
0101
0000
0100
0001
,
0020
0000
0001
0000
0130
0000
0100
1000
0010
0000
0001
0000
1000
0000
0100
0001
,
0010
0000
0100
0000
1100
0000
0100
0000
0110
0000
0100
0000
0101
0000
0001
0100
,
2000
0000
0001
0100
3020
0000
0100
0001
2030
0000
0100
0010
3002
0000
0100
0010
,
0103
0000
0010
0000
1010
0000
0010
0000
0110
0000
0010
0000
0011
0000
0001
0010
,
0100
0000
0000
0000
0101
0000
0000
0000
0011
0000
0001
0010
0100
0000
0010
0000
,
0011
0000
1100
0000
0000
0000
1001
0000
0000
0000
1000
0010
0100
0000
0010
0000
,
0110
0000
0100
0001
1000
0000
0100
0000
0011
0000
0001
1000
0010
0100
0010
0000
,
0000
1020
0130
2001
3200
0000
0310
0000
;
