#TITLE:恋愛脳 -Aiobahn Remix-;
#SUBTITLE:;
#ARTIST:ナナヲアカリ;
#TITLETRANSLIT:RenaiNou -Aiobahn Remix-;
#SUBTITLETRANSLIT:;
#ARTISTTRANSLIT:Nanawo Akari;
#GENRE:POP;
#CREDIT:;
#MUSIC:RenaiNou -Aiobahn Remix-.ogg;
#BANNER:RenaiNou -Aiobahn Remix-.png;
#BACKGROUND:RenaiNou -Aiobahn Remix--bg.png;
#CDTITLE:;
#SAMPLESTART:92.334;
#SAMPLELENGTH:12.308;
#SELECTABLE:YES;
#OFFSET:-0.026;
#BPMS:0.000=156.000
,290.750=128.000
,291.000=120.000
,291.250=100.000
,291.500=85.000
,291.750=69.000
,292.000=56.000
,292.250=53.000
,292.500=34.000
;
#STOPS:72.000=1.154
,73.000=1.154
,82.000=1.154
,83.000=1.154
,220.000=1.154
,221.000=0.192
,221.500=0.192
;
#DISPLAYBPM:156.000;
#BGCHANGES:3.000=RenaiNou -Aiobahn Remix-.avi=1.000=0=0=0=StretchNoLoop====,
99999.000=-nosongbg-=1.000=0=0=0=StretchNoLoop====
;
#FGCHANGES:;

//--------------- dance-single - ----------------
#NOTES:
     dance-single:
     :
     Hard:
     13:
     0,0,0,0,0:
0000
0000
0000
0000
,
0000
0000
0000
0000
,
0100
1000
0010
0002
0000
1003
0200
0000
,
0301
0000
0010
0000
0100
0000
2000
0000
0000
0000
3001
0000
0000
0000
1000
0100
,
1000
0000
0001
0100
0001
0000
0100
0010
0200
0000
0000
0000
0301
0000
1000
0000
,
0100
0010
0001
2000
0000
0010
3010
0000
,
0100
0001
0100
0001
0000
1000
0001
0100
,
0010
0100
0010
1000
0000
0001
0010
0100
,
1100
0000
0101
0000
0001
1000
0000
1000
,
0000
0001
0100
0001
0101
0000
1100
0000
,
1001
0000
1000
0000
0001
0100
0000
0001
0100
0000
0000
0010
0100
0000
0010
0000
,
1000
0000
0001
0000
0010
0100
0000
0010
0100
0000
0000
1000
0001
0000
0010
0000
,
0100
0000
1000
0000
0001
0100
0000
0001
0100
0000
0000
0010
1000
0000
0001
0000
,
0010
0000
0010
0000
0100
0000
0100
0000
0110
0000
0000
0001
1000
0000
0010
0000
,
0200
0000
0302
0000
2003
0000
3010
0100
,
1000
0100
0001
0010
1000
0000
1000
0010
,
0001
0100
0001
0010
0001
1000
0010
1000
,
0100
1000
0001
0010
0100
1000
0001
1000
,
2002
3003
0000
0000
0000
0000
0000
0000
0000
0000
0000
0000
0000
0000
0000
0000
0000
0000
0000
0000
0000
0000
0000
0000
0000
0000
0000
0000
0000
0000
0000
0000
0000
0000
0000
0000
0000
0000
0000
0000
0000
0000
0000
0000
0000
0000
0000
0000
2002
3003
0000
0000
0000
0000
0000
0000
0000
0000
0000
0000
0000
0000
0000
0000
0000
0000
0000
0000
0000
0000
0000
0000
0000
0000
0000
0000
0000
0000
0000
0000
0000
0000
0000
0000
0000
0000
0000
0000
0000
0000
0000
0000
0000
0000
0000
0000
1001
0000
0000
0000
0000
0000
0000
0000
0000
0000
0000
0000
0000
0000
0000
0000
0000
0000
0000
0000
0000
0000
0000
0000
0001
0000
0000
0000
0000
0000
0000
0000
0000
0000
0000
0000
0100
0000
0000
0000
0000
0000
0000
0000
0000
0000
0000
0000
0001
0000
0000
0000
0000
0000
0000
0000
0000
0000
0000
0000
0000
0000
0000
0000
0000
0000
0000
0000
0000
0000
0000
0000
1000
0000
0000
0000
0000
0000
0000
0000
0000
0000
0000
0000
0000
0000
0000
0000
0000
0000
0000
0000
0000
0000
0000
0000
,
0100
0010
0100
1000
0001
0100
1000
0100
,
0001
0000
0000
0000
0000
0000
0000
0000
0000
0000
0000
0000
0000
0000
0000
0000
0000
0000
0000
0000
0000
0000
0000
0000
0000
0000
0000
0000
0000
0000
0000
0000
0000
0000
0000
0000
0001
0000
0000
0000
0000
0000
0000
0000
0000
0000
0000
0000
0100
0000
0000
0000
0000
0000
0000
0000
0000
0000
0000
0000
0000
0000
0000
0000
0000
0000
0000
0000
0000
0000
0000
0000
0100
0000
0000
0000
0000
0000
0000
0000
0000
0000
0000
0000
0000
0000
0000
0000
0000
0000
0000
0000
0000
0000
0000
0000
2002
3003
0000
0000
0000
0000
0000
0000
0000
0000
0000
0000
0000
0000
0000
0000
0000
0000
0000
0000
0000
0000
0000
0000
0000
0000
0000
0000
0000
0000
0000
0000
0000
0000
0000
0000
0000
0000
0000
0000
0000
0000
0000
0000
0000
0000
0000
0000
2002
3003
0000
0000
0000
0000
0000
0000
0000
0000
0000
0000
0000
0000
0000
0000
0000
0000
0000
0000
0000
0000
0000
0000
0000
0000
0000
0000
0000
0000
0000
0000
0000
0000
0000
0000
0000
0000
0000
0000
0000
0000
0000
0000
0000
0000
0000
0000
,
1000
0001
0001
0100
0100
0010
1000
0100
,
0000
0000
0100
0000
1000
0000
0010
0000
0100
0000
0000
0100
0001
0000
1000
0000
,
1001
0001
0010
0001
0010
0100
1000
0100
,
1100
1000
0010
1000
0010
0100
0001
0100
,
0110
0010
1000
0001
0010
1000
0010
0011
,
0000
1100
1000
0001
0101
0000
1001
0000
,
1000
0100
1000
0100
1000
0000
0010
0000
0100
0000
0100
0000
0001
0000
0001
0000
,
0011
0000
0000
0000
1000
0000
0001
0100
0001
0000
0010
0000
0100
0000
1000
0000
,
0001
0100
0020
0000
0130
0001
0010
0100
,
1000
0010
0001
0010
0110
0000
1001
0000
,
0100
0000
0000
0000
0110
0000
0010
0100
0020
0000
0000
0000
1030
0000
0100
0000
,
0002
0203
2300
3020
0230
0000
0301
1000
,
0100
0010
0100
1000
1010
0000
0101
0000
,
1000
0000
0001
0000
1000
0000
0010
0100
0010
0100
0010
0100
0010
0000
0000
0000
,
1010
0000
0000
1000
0010
0000
0000
0100
0001
0000
0000
0000
0011
0000
0000
0000
,
0010
0100
0000
1001
0000
1000
0010
0100
,
0001
1000
0001
0000
1000
0001
1000
0000
,
0010
0100
0020
0000
2030
0000
3002
0000
,
0013
0000
0100
0000
1000
0001
0000
0100
0000
0010
0000
0100
0001
0000
0010
0000
,
0100
0000
1000
0000
0010
0100
0000
0001
0000
1000
0000
0100
0010
0000
0100
0000
,
1000
0000
0001
0000
0100
0010
0000
0100
0000
1000
0000
0100
0001
0000
0010
0000
,
0200
2300
3020
0032
0000
0010
0023
0000
,
1030
0100
0001
0100
1000
0100
0001
0100
,
1000
0010
0001
0010
1000
0010
0001
0010
,
1000
0001
0100
0001
0100
0010
1000
0010
,
1010
0101
0110
1001
,
0001
0010
0100
1000
0000
0001
1000
0000
,
1000
0000
0010
0000
0100
0000
0001
0000
0000
0000
1000
0000
0000
0000
0001
0100
,
0001
0000
1000
0100
1000
0000
0010
0100
0010
0000
0000
0000
0110
0000
1000
0000
,
0001
0100
0001
0020
0000
0100
0130
0000
,
1000
0100
1000
0010
0100
0010
1000
0001
,
0010
0100
0010
0001
1000
0100
0100
0100
,
1000
0010
0100
1000
0001
0010
1000
0100
,
0001
0100
1000
0010
0110
0000
1000
0001
,
1001
0000
0000
0000
0000
0000
0000
0000
0000
0000
0000
0000
0000
0000
0000
0000
0000
0000
0000
0000
0000
0000
0000
0000
0000
0000
0000
0000
0000
0000
0000
0000
0000
0000
0000
0000
0000
0000
0000
0000
0000
0000
0000
0000
0000
0000
0000
0000
0220
0330
0000
0000
0000
0000
0000
0000
0000
0000
0000
0000
0000
0000
0000
0000
0000
0000
0000
0000
0000
0000
0000
0000
0220
0330
0000
0000
0000
0000
0000
0000
0000
0000
0000
0000
0000
0000
0000
0000
0000
0000
0000
0000
0000
0000
0000
0000
0110
0000
0000
0000
0000
0000
0000
0000
0000
0000
0000
0000
0000
0000
0000
0000
0000
0000
0000
0000
0000
0000
0000
0000
0010
0000
0000
0000
0000
0000
0000
0000
0000
0000
0000
0000
0100
0000
0000
0000
0000
0000
0000
0000
0000
0000
0000
0000
0010
0000
0000
0000
0000
0000
0000
0000
0000
0000
0000
0000
0100
0000
0000
0000
0000
0000
0000
0000
0000
0000
0000
0000
0010
0000
0000
0000
0000
0000
0000
0000
0000
0000
0000
0000
0100
0000
0000
0000
0000
0000
0000
0000
0000
0000
0000
0000
,
0010
0000
1000
0000
0000
1000
0000
0000
0001
0000
0000
0001
0010
0000
0100
0000
,
1000
0001
0101
0000
1100
0000
1001
0000
,
1000
0000
0001
0000
0000
0001
0000
0000
1000
0000
0000
1000
0100
0000
0001
0000
,
0100
1000
1100
0000
0101
0000
1001
0000
,
1010
0000
0010
0000
0000
0010
0000
0000
1000
0000
0000
1000
0001
0000
0010
0000
,
0100
1000
1010
0000
0011
0000
1001
0000
,
1000
0000
0001
0000
0000
0100
0000
0000
0010
0000
0000
1000
0001
0000
0010
0000
,
0100
0010
0011
0000
1100
0000
1001
0000
,
0001
1000
1100
0000
0011
0000
0001
0100
,
0110
0110
0000
1001
0000
1000
0000
0001
,
0101
0000
0001
0010
0100
1000
0000
1100
,
0000
0011
0000
0101
1000
1100
0001
0000
,
0001
0100
1000
0100
0001
0100
1000
0100
,
0001
0010
0100
1000
0001
0010
0100
1000
,
0001
0100
0001
0010
0001
1000
0100
1000
,
0010
0000
1000
0000
0100
0000
0010
0000
0001
0000
0100
0000
0001
1000
0100
0000
,
0020
0000
0000
0000
,
0000
0000
0000
0030
0000
0000
0000
0000
0000
0000
0000
0000
0000
0000
0000
0000
;

//--------------- dance-single - ----------------
#NOTES:
     dance-single:
     :
     Challenge:
     17:
     0.965306,1.082931,0.863139,0.279493,0.900131,822,717,105,34,20,0,0.965306,1.082931,0.863139,0.279493,0.900131,822,717,105,34,20,0:
0000
0000
0000
0000
,
0000
0000
0000
0000
,
0110
0000
1001
0000
0110
0000
1000
0001
,
0000
0001
0010
0100
0000
1000
0001
1000
,
0001
0000
0100
0010
0100
0001
0010
0100
,
0000
1000
0000
1000
1000
0100
0010
0001
,
1000
0010
0100
0001
1000
0010
0100
0001
0010
0100
1000
0001
0010
0100
1000
0001
,
0100
0010
1000
0001
0100
0010
1000
0001
0010
0100
1000
0001
0010
0100
1000
0010
,
0100
0001
0100
0001
1000
0100
1000
0100
0010
0001
0010
0001
1000
0010
1000
0010
,
0100
0000
0000
0001
0000
0000
0010
0000
0000
0100
0000
0000
1000
0000
0000
0001
0000
0000
0100
0000
0000
0010
0000
0000
0110
0000
0000
0000
0000
0000
0000
0000
0000
0000
0000
0000
0001
0000
1000
0000
0001
0000
1000
0000
0001
0000
1000
0000
,
0001
0000
0010
0000
0100
1000
0000
0100
1000
0000
0000
0001
0100
0000
0010
0000
,
1000
0000
0010
0000
0100
0001
0000
0100
0001
0000
0000
0010
0100
0000
1000
0000
,
0001
0000
0100
0000
0010
1000
0000
0010
1000
0000
0000
0100
0010
0000
0001
0000
,
0011
0000
0011
0000
1100
0000
1100
0000
0101
0000
0000
0001
0100
0000
0010
1000
,
0100
0000
0000
0100
0010
0000
0010
0001
0100
0000
0000
0100
0010
0000
0010
1000
,
0100
0000
0010
0001
1000
0000
0001
0100
0010
0000
0000
0010
1000
0000
0100
0000
,
0001
0000
0100
0010
0001
0000
1000
0010
0100
0000
1000
0100
0010
0000
1000
0000
,
0100
0000
0010
0001
1000
0000
0010
0100
0001
0000
0010
0100
1000
0100
1000
0001
,
2002
3003
0000
0000
0000
0000
0000
0000
0000
0000
0000
0000
0000
0000
0000
0000
0000
0000
0000
0000
0000
0000
0000
0000
0000
0000
0000
0000
0000
0000
0000
0000
0000
0000
0000
0000
0000
0000
0000
0000
0000
0000
0000
0000
0000
0000
0000
0000
2002
3003
0000
0000
0000
0000
0000
0000
0000
0000
0000
0000
0000
0000
0000
0000
0000
0000
0000
0000
0000
0000
0000
0000
0000
0000
0000
0000
0000
0000
0000
0000
0000
0000
0000
0000
0000
0000
0000
0000
0000
0000
0000
0000
0000
0000
0000
0000
0101
0000
0000
0000
0000
0000
0000
0000
0000
0000
0000
0000
0000
0000
0000
0000
0000
0000
0000
0000
0000
0000
0000
0000
0010
0000
0000
0000
0000
0000
0000
0000
0000
0000
0000
0000
1000
0000
0000
0000
0000
0000
0000
0000
0000
0000
0000
0000
0100
0000
0000
0000
0000
0000
0000
0000
0000
0000
0000
0000
0000
0000
0000
0000
0000
0000
0000
0000
0000
0000
0000
0000
0010
0000
0000
0000
0000
0000
0000
0000
0000
0000
0000
0000
0000
0000
0000
0000
0000
0000
0000
0000
0000
0000
0000
0000
,
0100
1000
0100
1000
0010
0000
0100
0000
0101
0000
0010
0000
1100
0000
0010
0000
,
0101
0000
0000
0000
0000
0000
0000
0000
0000
0000
0000
0000
0000
0000
0000
0000
0000
0000
0000
0000
0000
0000
0000
0000
0100
0000
0000
0000
0000
0000
0000
0000
0000
0000
0000
0000
0010
0000
0000
0000
0000
0000
0000
0000
0000
0000
0000
0000
0110
0000
0000
0000
0000
0000
0000
0000
0000
0000
0000
0000
0000
0000
0000
0000
0000
0000
0000
0000
0000
0000
0000
0000
0110
0000
0000
0000
0000
0000
0000
0000
0000
0000
0000
0000
0000
0000
0000
0000
0000
0000
0000
0000
0000
0000
0000
0000
2002
3003
0000
0000
0000
0000
0000
0000
0000
0000
0000
0000
0000
0000
0000
0000
0000
0000
0000
0000
0000
0000
0000
0000
0000
0000
0000
0000
0000
0000
0000
0000
0000
0000
0000
0000
0000
0000
0000
0000
0000
0000
0000
0000
0000
0000
0000
0000
2002
3003
0000
0000
0000
0000
0000
0000
0000
0000
0000
0000
0000
0000
0000
0000
0000
0000
0000
0000
0000
0000
0000
0000
0000
0000
0000
0000
0000
0000
0000
0000
0000
0000
0000
0000
0000
0000
0000
0000
0000
0000
0000
0000
0000
0000
0000
0000
,
1100
0000
0010
0001
0100
0000
1000
0000
0100
0001
0100
0001
1000
0000
0100
0000
,
0011
0000
0100
1000
0010
0000
0100
0000
1001
0000
0001
0010
0001
0010
0100
1000
,
1001
0000
0001
0000
0110
0000
0100
0000
1001
0000
1000
0100
0110
0000
0010
0000
,
1001
0000
1000
0000
0110
0000
0100
0000
1001
0000
0001
0010
0110
0000
1000
0000
,
1001
0000
0001
0100
1000
0000
0100
0001
0010
0000
1000
0010
0001
0000
0011
0000
,
1000
0000
1100
0000
0001
0000
0011
0000
1001
0000
0000
0110
0110
0000
0110
0000
,
1001
0100
0010
0100
1001
0000
0001
0000
0110
0000
0100
0000
1001
0000
1000
0000
,
0110
0000
0010
0100
1001
0000
1000
0000
0110
0000
0100
0000
1001
0000
0001
0000
,
0110
0000
0010
0000
1001
0000
1000
0100
0010
0100
1000
0010
0100
0010
1000
0000
,
1010
0001
0101
1000
1010
0001
0110
0000
,
1000
0000
0000
0000
1001
0000
0001
0010
0100
0000
1000
0000
0010
0000
0100
0000
,
0002
0023
0230
2300
3002
0000
0103
0010
,
0100
0001
1000
0001
0011
0000
1100
0000
,
1000
0000
0010
0000
0100
0000
0001
0100
0001
0100
0001
0100
0010
0000
0000
0000
,
1010
0000
0000
0100
0001
0000
0000
0001
0010
0000
0000
0000
1100
0000
0000
0000
,
1001
0100
0000
1001
0000
1000
0010
0100
,
0101
0001
1001
0000
1100
1000
1001
0000
,
0110
0100
1001
0000
0110
0000
1001
0000
,
0001
0000
0010
0000
0100
1000
0010
1000
0000
0100
0000
1000
0001
0000
0100
0000
,
0010
0000
1000
0000
0001
0100
0010
0100
0000
0010
0000
1000
0001
0000
0010
0000
,
0100
0000
1000
0000
0001
0100
0010
1000
0000
0001
0000
0010
0100
0000
1000
0000
,
2000
3200
0320
0032
0000
1000
2003
0000
,
3001
0100
0010
0100
0001
0010
0100
1000
0010
0100
0010
1000
0100
0010
0001
1000
,
0100
1000
0001
0010
0100
1000
0001
0100
0001
1000
0100
0010
0001
1000
0010
1000
,
0001
0100
1000
0100
0001
0100
1000
0100
0001
0010
1000
0010
0001
0010
1000
0010
,
0001
0000
0000
0000
0000
0000
0011
0000
0000
0000
0000
0000
1100
0000
0000
0000
0000
0000
0001
0000
0000
0010
0000
0000
0100
0000
0000
0000
0000
0000
1000
0000
0100
0000
0010
0000
0001
0000
0000
1000
0000
0000
0010
0000
0000
1000
0000
0000
,
0010
0100
0001
1000
0000
1000
0100
0000
,
0100
0000
0010
0000
0001
0000
1000
0000
0000
0000
0010
0000
0000
0000
0010
0100
,
0001
0000
0010
0100
1000
0000
0010
0100
0001
0000
0000
0000
1001
0000
1000
0000
,
0010
0100
0001
2000
0000
0001
3002
0000
,
0103
0010
0100
0010
1000
0100
0010
0001
0010
0100
0010
0100
1000
0010
0100
0010
,
1000
0001
1000
0001
0010
0100
1000
0010
0100
0001
0100
0001
0010
0100
1000
0001
,
0100
0001
0010
0100
1000
0010
0100
0001
0010
0100
1000
0010
0100
0001
0010
0100
,
1000
0000
0000
0000
0000
0000
1100
0000
0000
0000
0000
0000
0100
0000
0000
1000
0000
0000
0001
0000
0000
1000
0000
0000
0010
0000
0100
0000
0010
0000
0100
0000
0010
0000
0100
0000
0010
0000
0100
0000
0010
0000
0100
0000
0010
0000
0100
0000
,
0020
0030
0000
0000
0000
0000
0000
0000
0000
0000
0000
0000
0000
0000
0000
0000
0000
0000
0000
0000
0000
0000
0000
0000
0000
0000
0000
0000
0000
0000
0000
0000
0000
0000
0000
0000
0000
0000
0000
0000
0000
0000
0000
0000
0000
0000
0000
0000
0220
0330
0000
0000
0000
0000
0000
0000
0000
0000
0000
0000
0000
0000
0000
0000
0000
0000
0000
0000
0000
0000
0000
0000
0220
0330
0000
0000
0000
0000
0000
0000
0000
0000
0000
0000
0000
0000
0000
0000
0000
0000
0000
0000
0000
0000
0000
0000
0110
0000
0000
0000
0000
0000
0000
0000
0000
0000
0000
0000
0000
0000
0000
0000
0000
0000
0000
0000
0000
0000
0000
0000
0100
0000
0000
0000
0000
0000
0000
0000
0000
0000
0000
0000
0001
0000
0000
0000
0000
0000
0000
0000
0000
0000
0000
0000
1000
0000
0000
0000
0000
0000
0000
0000
0000
0000
0000
0000
0001
0000
0000
0000
0000
0000
0000
0000
0000
0000
0000
0000
1000
0000
0000
0000
0000
0000
0000
0000
0000
0000
0000
0000
0001
0000
0000
0000
0000
0000
0000
0000
0000
0000
0000
0000
,
0010
0000
0110
0000
0000
1100
0000
0000
1001
0000
0000
0001
0100
0000
1000
0000
,
0100
0001
0101
1000
1100
0001
1001
0100
,
0010
0000
0110
0000
0000
1100
0000
0000
1001
0000
0000
1000
0100
0000
0001
0000
,
0100
0000
1000
0000
1100
0000
0001
0000
0101
0000
1000
0000
1001
0000
0010
0100
,
0010
0000
1001
0000
0000
0011
0000
0000
1100
0000
0000
1000
0010
0000
0001
0000
,
0010
1000
1010
0001
0011
1000
1001
0001
,
0100
0000
0110
0000
0000
1010
0000
0000
0101
0000
0000
0001
0010
0000
1000
0000
,
0010
0000
0001
0000
0011
0000
1000
0000
1010
0000
0001
0000
1001
0000
1000
0010
,
0110
0001
1001
0010
0110
1000
0001
0011
,
1100
0001
1000
1001
0010
0100
0001
0101
,
1010
1000
0101
0011
1100
1010
0100
0101
,
0010
0000
0011
0000
1001
0000
1100
0000
0110
0000
1001
0000
0001
0010
0100
1000
,
0002
0100
0013
0100
2000
0100
3010
0100
0002
0100
0013
0100
2000
0100
3020
0100
,
0032
0010
0203
1000
0302
0010
0203
1000
0302
0100
0023
1000
0032
0100
0023
1000
,
0032
0010
0203
0010
0302
0010
2003
0010
3002
0100
0023
0100
0032
0100
2003
0100
,
3002
0000
0000
0010
0000
0000
0203
0000
0000
1000
0000
0000
0302
0000
0000
0100
0000
0000
0023
0000
0000
1000
0000
0000
0031
0000
0000
0010
0000
0000
0200
0000
0000
1000
0000
0000
0301
0000
0010
0000
0100
0000
1000
0000
0001
0000
0010
0000
,
M200
000M
00M0
00M0
M000
000M
00M0
00M0
M000
000M
00M0
00M0
M000
000M
00M0
00M0
,
M000
000M
00M0
03M0
0000
0000
0000
0000
0000
0000
0000
0000
0000
0000
0000
0000
;
