#TITLE:Red Breeze;
#SUBTITLE:;
#ARTIST:水樹奈々;
#TITLETRANSLIT:Red Breeze;
#SUBTITLETRANSLIT:;
#ARTISTTRANSLIT:Nana Mizuki;
#GENRE:POP;
#CREDIT:;
#MUSIC:Red Breeze.ogg;
#BANNER:Red Breeze.png;
#BACKGROUND:Red Breeze-bg.png;
#CDTITLE:;
#SAMPLESTART:72.011;
#SAMPLELENGTH:14.069;
#SELECTABLE:YES;
#OFFSET:-0.011;
#BPMS:0.000=145.000;
#STOPS:;
#BGCHANGES:4.250=Red Breeze.avi=1.000=0=0=0=StretchNoLoop====,
99999.000=-nosongbg-=1.000=0=0=0=StretchNoLoop====
;
#FGCHANGES:;

//--------------- dance-single - ----------------
#NOTES:
     dance-single:
     :
     Medium:
     12:
     0,0,0,0,0:
0000
0000
0000
0000
,
0000
0000
0000
0000
,
1001
0000
0001
0100
0000
0001
1010
0000
,
1001
0000
1000
0100
0000
1000
0011
0000
,
0110
0000
0100
1000
0000
0001
0110
0000
,
0100
0000
0001
0000
1000
0100
0010
0001
,
1000
0000
0001
0100
0000
0010
0100
0000
,
1001
0000
1000
0100
0000
0010
0110
0000
,
0011
0000
0010
0001
0000
1000
0010
0000
,
1001
0000
1000
0010
0000
0100
0101
0000
,
1010
0000
1000
0001
0000
0010
0100
0000
,
1100
0000
0010
0001
0000
1000
1010
0000
,
1001
0000
0001
0100
0000
0010
1000
0000
,
1100
0000
0010
0001
0000
1000
1001
0000
,
0001
0000
0000
0100
0000
0000
0001
0000
0000
0100
0000
0000
0001
0000
0010
0000
,
0100
0000
0000
1000
0000
0000
0100
0000
0000
1000
0000
0000
0100
0000
0010
0000
,
0100
0000
0000
1000
0000
0000
0100
0000
0000
0001
0000
0000
0100
0000
0010
0000
,
0100
0000
0000
1000
0000
0000
0010
0000
0000
0001
0000
0000
0010
0000
1000
0000
,
0001
0000
1000
0100
1000
0000
0001
0010
,
0001
0000
0010
0100
1000
0001
0100
0000
,
0110
0000
0001
0100
0001
0000
1000
0010
,
1000
0000
0010
0100
0001
1000
0010
0000
,
1010
0000
0101
0000
0100
0001
0010
0000
,
0011
0000
1100
0000
0100
1000
0010
0000
,
0100
0000
0000
0010
0000
0000
0100
0000
0000
0010
0000
0000
1000
0000
0001
0000
,
0010
0000
0000
0001
0000
0000
1000
0000
0000
0001
0000
0000
0010
0000
0100
0000
,
0010
0000
0001
0010
0100
0000
0100
1000
,
0010
0000
0100
0000
0010
0100
0010
1000
,
0001
0000
0010
0100
1000
0000
1000
0010
,
0100
0000
0010
0000
0100
0001
0010
0100
,
1000
0000
0100
0000
0001
0100
1000
0000
,
0010
0000
0100
0000
1000
0100
0001
0010
,
0100
0000
0000
1000
0000
0000
0100
0000
0000
1000
0000
0000
0100
0000
0010
0000
,
0001
0000
1000
0000
0001
0100
0001
0100
,
0110
0000
1001
0000
0001
0100
1000
0000
,
1100
0000
0101
0000
0001
0010
1000
0000
,
1010
0000
0011
0000
0010
0001
0100
0000
,
1001
0000
1000
0010
0000
0001
0010
0000
,
0100
0010
1000
0001
0010
0100
1000
0000
,
0001
0100
0010
1000
0001
0010
0100
0000
,
1000
0010
0001
0000
1000
0100
0001
0000
,
1000
0100
0010
0100
1000
0001
0100
0010
,
1000
0000
0010
0100
0010
0100
0010
0100
,
0010
0000
0000
0110
0000
0000
1001
0000
0000
0000
0000
0000
0000
0000
0000
0000
,
1001
0000
0001
0000
1000
0100
0001
0100
,
0010
0000
0100
0000
1000
0010
0001
0010
,
1010
1100
0011
0101
,
1001
0000
0001
0010
0100
0000
1100
0000
,
1000
0100
0010
0000
0010
0001
1000
0000
,
1000
0010
0100
0000
0100
0001
1000
0100
,
0020
0000
0000
0030
,
1100
0000
0000
0011
0000
0000
0101
0000
0000
1010
0000
0000
1001
0000
0000
0000
,
0001
0100
1000
0100
0010
0100
0001
0000
,
1000
0100
0001
0100
0010
0100
1000
0000
,
0001
0100
1000
0000
0001
0010
1000
0000
,
0001
0010
1000
0001
0100
1000
0010
0000
,
0100
0010
0100
0001
0100
1000
0100
0000
,
0010
0100
0010
1000
0010
0001
0010
0000
,
0100
0001
0010
0000
0100
1000
0010
0000
,
0100
0001
0010
0100
1000
0001
0100
0000
,
0010
1000
0100
0000
0010
0001
0100
0010
,
1000
0000
0000
0100
0000
0000
0110
0000
0000
0000
0010
0000
0001
0000
0010
0000
,
0100
0000
0000
1000
0000
0000
0001
0000
0100
0000
0000
1000
0000
0000
0001
0000
,
0020
0000
0000
0100
0000
0000
1030
0000
0002
0000
0000
0010
0000
0000
1000
0000
,
0013
0100
0001
1000
0001
0010
0100
1000
,
0001
0000
0000
0100
0000
0000
1000
0000
0100
0000
0000
0000
0110
0000
0000
0000
,
1000
0100
0010
0001
1000
0001
0100
0010
,
1000
0000
0000
0010
0000
0000
0001
0000
0010
0000
0000
0000
0110
0000
0000
0000
,
0100
0001
0010
0100
0010
0001
1000
0010
,
0100
0000
0000
0001
0000
0000
0010
0000
1000
0000
0000
0000
0110
0000
0000
0000
,
0010
0001
0100
0010
1000
0010
0100
0001
,
0010
0000
0000
1000
0000
0000
0001
0000
0100
0000
0000
0000
0110
0000
0000
0000
,
0011
0000
0001
1000
0000
0001
1100
0000
,
1010
0000
1000
0010
0000
1000
0101
0000
,
0011
0000
0001
1000
0000
0001
0110
0000
,
0001
0100
0001
1000
0010
1000
0001
0010
;

//--------------- dance-single - ----------------
#NOTES:
     dance-single:
     :
     Hard:
     15:
     0,0,0,0,0:
0000
0000
0000
0000
,
0000
0000
0000
0000
,
0001
0100
0000
1000
0100
0000
0001
0100
0000
1000
0100
0000
0020
0000
0100
0000
,
0130
0001
0000
0010
0001
0000
0100
0001
0000
0010
0001
0000
2000
0000
0001
0000
,
3001
0010
0000
1000
0010
0000
0001
0010
0000
1000
0010
0000
0200
0000
0010
0000
,
0310
0000
0001
0000
0010
0000
0100
0000
1000
0000
0001
0000
1000
0010
0100
0001
,
0010
0000
0001
1000
0000
0010
1000
0000
0100
0000
0010
0001
0000
1000
0001
0000
,
1000
0000
0010
0100
0000
0001
0100
0000
0001
0000
1000
0000
0010
0000
0100
0000
,
0001
0000
0010
0100
0000
1000
0010
0000
1000
0000
0010
0100
0000
0001
0100
0000
,
0010
0000
1000
0100
0000
0010
0100
0000
1000
0000
0010
0000
0100
0000
0010
0000
,
1000
0000
0100
0010
0000
0001
1000
0000
0010
0000
1000
0100
0000
1000
0010
0000
,
0100
0000
0001
0010
0000
0001
1000
0000
0100
0000
0001
0000
0100
0000
1000
0000
,
0010
0000
0100
0001
0000
0010
0100
0000
0001
0000
0100
0010
0000
0001
0010
0000
,
0100
0000
1000
0010
0000
0100
0001
0000
0001
0000
1000
0000
0100
0000
0010
0000
,
0001
0100
0000
0001
1000
0000
0001
0100
0000
0001
1000
0000
0100
0000
0100
0000
,
1000
0100
0000
1000
0001
0000
1000
0100
0000
1000
0001
0000
0100
0010
0100
0010
,
0100
0001
0000
1000
0010
0000
1000
0001
0000
1000
0010
0000
0100
0000
0100
0000
,
0001
0010
0000
0001
1000
0000
0001
0010
0000
0001
1000
0000
0010
0100
0010
0100
,
0001
0000
0000
0001
0000
0000
0100
0000
0001
0000
0000
1000
0000
0000
0100
0000
,
0001
0000
0000
0100
0010
0000
0100
0000
1000
0000
0001
0000
0001
0000
1000
0000
,
1000
0000
0000
0010
0000
0000
0100
0000
1000
0000
0000
0100
0000
0000
0001
0000
,
0010
0000
0000
0100
1000
0000
0010
0000
0100
0000
0100
0000
0001
0000
0001
0000
,
1000
0000
0010
0000
0001
0000
0010
1000
0000
0000
0001
0000
0000
0000
0100
0010
,
0100
0000
0000
0001
0010
0000
0100
0000
1000
0000
0000
0001
0100
0000
0010
0000
,
1000
0100
0000
1000
0010
0000
0100
0010
0000
0100
0001
0000
1000
0000
1000
0000
,
0001
0010
0000
0001
0100
0000
0010
0100
0000
0010
1000
0000
0001
0100
0001
0100
,
0010
0000
0000
1000
0000
0000
0100
0000
0001
0000
0000
0100
0000
0000
1000
0000
,
0010
0000
0000
0100
0001
0000
0010
0000
0001
0000
0001
0000
1000
0000
1000
0000
,
0001
0000
0000
0100
0000
0000
1000
0000
0100
0000
0000
0001
0000
0000
0010
0000
,
0100
0000
0000
0010
0001
0000
1000
0000
0001
0000
0100
0010
0000
1000
0001
1000
,
0001
0000
0100
0000
0010
0000
1000
0010
0000
0001
0010
0000
1000
0000
0100
0000
,
0010
0000
0000
0001
1000
0000
0010
0000
0100
0000
0010
1000
0000
1000
0010
0000
,
0100
0001
0000
1000
0010
0000
0100
0001
0000
1000
0010
0000
0100
0000
0100
0000
,
0001
0000
0010
0000
0100
1000
0100
1000
0001
0000
0100
0001
0100
0001
0100
0001
,
1000
0000
0001
0010
0001
0000
0100
0000
0010
0000
0100
0000
1000
0000
0000
0000
,
1000
0000
0100
0010
0100
0000
0001
0000
0011
0000
0000
0000
1100
0000
0000
0000
,
1000
0000
0001
0010
0001
0000
0010
0000
0100
0000
1000
0000
0001
0000
0000
0000
,
0101
0001
1000
1100
1000
0001
1001
0000
,
0001
0000
0010
0000
0100
1000
0100
0000
0010
0000
0001
0000
1000
0100
1000
0000
,
0010
0000
0100
0000
0001
0100
0001
0000
1000
0000
0010
0000
0100
0001
0100
0000
,
0001
0100
1000
0100
0001
0010
1000
0010
,
0001
0100
0001
0000
0100
0010
0100
0000
0010
1000
0010
0000
1000
0001
1000
0001
,
0100
0000
0010
0100
0010
0100
0010
0100
0010
0100
0010
0100
0010
0100
0010
0100
,
0010
0000
0000
0110
0000
0000
1001
0000
0000
0000
0000
0000
0000
0000
0000
0000
,
1001
0000
0000
0000
0001
0000
1000
0100
1000
0000
0000
0001
0000
0000
0100
0000
,
0110
0000
0000
0010
0000
0000
1000
0000
0001
0000
0010
0100
0000
0000
1000
0000
,
0011
0000
0000
0100
0000
0000
0001
0000
1010
0000
0000
0010
0000
0000
1000
0000
,
1001
0000
0000
0000
0001
0000
0010
0100
1000
0000
0000
0000
1100
0000
0000
0000
,
0001
0000
0010
0100
0010
0000
1000
0000
0010
0000
0001
1000
0001
0000
0100
0000
,
1000
0000
0100
0010
0100
0000
0001
0100
0001
0000
1000
0100
1000
0100
0010
0001
,
2000
0000
0000
3000
,
1001
0000
0001
0100
0000
0010
0100
0000
1000
0100
0000
0001
1000
0000
0000
0000
,
0001
0000
0001
0000
1000
0100
1000
0000
0010
0000
0100
0001
0000
0001
1000
0000
,
0010
0000
0001
0010
0000
0010
1000
0000
0100
0000
1000
0001
0000
0000
1000
0000
,
0100
0000
0000
0010
0001
0000
0100
0000
1000
0000
0100
0000
0020
0000
0000
0000
,
0130
0000
0001
1000
0000
0000
0100
0000
0010
0001
0010
0001
1000
0010
1000
0010
,
0100
0000
1000
0000
0100
0000
0001
0010
0000
0010
0100
0000
0001
0000
0100
1000
,
0100
0000
0010
0000
0001
0000
1000
0100
0000
0010
0000
0010
0000
0001
1000
0000
,
0001
0000
0100
0000
1000
0000
0100
0001
0100
0000
0001
0000
0010
0000
0100
0000
,
1000
0000
0000
0100
0000
0001
0100
0000
1000
0000
0100
0010
0000
0100
1000
0001
,
1000
0000
0010
0000
0100
0010
0000
0010
0100
0001
0100
0001
1000
0100
1000
0100
,
0010
0000
0000
0001
1000
0000
0010
0000
0000
0000
0100
0000
0001
0000
0010
0000
,
0100
0000
1000
0100
0000
1000
0001
0000
0100
0000
0001
0100
0000
0001
1000
0000
,
0100
0000
0000
0010
0000
0000
0001
0000
0011
0000
0000
1000
0000
0000
0010
0000
,
0100
0000
0001
0100
0000
0100
0010
0000
1000
0000
0100
0010
0000
0010
0001
0000
,
1000
0000
0001
0100
0000
0100
1000
0000
0100
0000
0001
0000
0010
0000
0100
0000
,
1000
0000
1000
0100
0000
0100
0010
0000
0001
0000
0100
0010
0000
0010
1000
0000
,
0001
0000
1000
0100
0000
0100
0001
0000
0100
0000
1000
0000
0001
0000
0100
0000
,
1000
0000
0100
0001
0000
0001
1000
0000
0100
0000
0001
0100
0000
0100
0010
0000
,
0001
0000
0100
0010
0000
0010
1000
0000
0001
0000
0010
0000
0100
0000
1000
0000
,
1100
0000
0100
0010
0000
0010
0001
0000
1001
0000
1000
0010
0000
0010
0100
0000
,
0110
0000
0010
1000
0000
1000
0001
0000
0010
0000
0100
0000
0010
0000
0100
0000
,
1000
0100
0000
0001
0100
0000
1000
0100
0000
0001
0100
0000
1000
0000
0001
0000
,
1000
0010
0000
1000
0100
0000
1000
0010
0000
1000
0100
0000
1000
0000
0001
0000
,
1000
0010
0000
0001
0010
0000
1000
0010
0000
0001
0010
0000
1000
0000
0000
0000
,
0001
1000
0000
0100
0001
0000
1000
0010
0000
0001
0100
0000
1000
0100
0001
0010
;

//--------------- dance-single - ----------------
#NOTES:
     dance-single:
     :
     Challenge:
     17:
     1.050008,1.060131,0.588608,0.113194,1.354553,974,896,78,15,0,0,1.050008,1.060131,0.588608,0.113194,1.354553,974,896,78,15,0,0:
0000
0000
0000
0000
,
0000
0000
0000
0000
,
0001
0100
0001
1000
0100
1000
0001
0100
0001
1000
0100
1000
0020
0000
0100
0000
,
0130
0001
0100
0010
0001
0010
0100
0001
0100
0010
0001
0010
2000
0000
0001
0000
,
3001
0010
0001
1000
0010
1000
0001
0010
0001
1000
0010
1000
0200
0000
0010
0000
,
0310
0000
0000
0001
0000
0000
1000
0000
0000
0010
0000
0000
0100
0000
0000
0001
0000
0000
0010
0000
0000
0100
0000
0000
1000
0000
0000
0010
0000
0000
0100
0000
0000
0001
0000
0000
1000
0000
0100
0000
0010
0000
0001
0000
1000
0000
0010
0000
,
0100
0000
0100
0001
0000
0001
1000
0000
1100
0000
0100
0010
0000
0010
0001
0000
,
0101
0000
0100
0010
0000
0010
1000
0000
0001
0010
0100
0010
0001
0010
0100
1000
,
0001
0000
0001
0100
0000
0100
0010
0000
1010
0000
1000
0100
0000
0100
0010
0000
,
0011
0000
0001
0100
0000
0100
1000
0000
1000
0100
0001
1000
0001
0010
0100
1000
,
0001
0000
0001
0100
0000
0010
1000
0000
1100
0000
1000
0100
0000
0010
0001
0000
,
0011
0000
0001
0100
0000
0010
1000
0000
0010
0100
0001
0010
0100
1000
0001
0100
,
0010
0000
0100
0001
0000
1000
0100
0000
0110
0000
0010
0001
0000
1000
0010
0000
,
0110
0000
0100
0001
0000
0010
1000
0000
1010
0000
0110
0000
0011
0000
1001
0000
,
1000
0010
1000
0001
0010
0001
1000
0010
1000
0001
0010
0001
0100
0000
0200
0000
,
0310
0001
0010
0100
0001
0100
0010
0001
0010
0100
0001
0100
0001
1000
0001
1000
,
0001
0100
0001
1000
0100
1000
0001
0100
0001
1000
0100
1000
0001
0000
0002
0000
,
0013
1000
0010
0100
1000
0100
0010
1000
0010
0100
1000
0100
0010
0001
0010
0001
,
1000
0000
0000
1000
0010
0000
0100
0000
0101
0000
0001
0010
0000
0010
0100
0000
,
0110
0000
0010
0001
0100
0000
0110
0000
0010
1000
0100
0010
0100
1000
0001
0100
,
0010
0000
0000
0100
0001
0000
0010
0000
0110
0000
0100
1000
0000
0001
0100
0000
,
0110
0000
0010
1000
0001
0000
0010
0000
0100
1000
0100
0001
0100
1000
0100
0010
,
0001
0000
1000
0000
1100
0000
0001
0010
0000
0001
1000
0000
1010
0000
0010
1000
,
0001
0000
0010
0000
0011
0000
0100
1000
0010
0000
1010
0000
0100
0000
0101
0000
,
0001
0100
0001
0010
0100
0010
0001
0100
0001
0010
0100
0010
0001
0000
0002
0000
,
1003
0100
1000
0010
0100
0010
1000
0100
1000
0010
0100
0010
1000
0100
0010
0001
,
1000
0000
0000
1000
0001
0000
0100
0000
1010
0000
1000
0010
0000
0010
0100
0000
,
0110
0000
0100
0001
1000
0000
0100
0000
0001
0100
1000
0010
0100
0010
1000
0100
,
0001
0000
0000
0001
0100
0000
1000
0000
0010
0000
0100
0001
0000
0001
1000
0000
,
1001
0000
0001
0100
1000
0000
0100
0000
0001
0010
1000
0010
0001
0010
0100
1000
,
0001
0000
0100
0000
1010
0000
1000
0010
0000
0100
0010
0000
0101
0000
0100
0001
,
1000
0000
0100
0000
0011
0000
0010
0100
1000
0000
1010
0000
0100
0000
1001
0000
,
0001
0100
0010
0001
0010
1000
0001
0010
0100
0001
0100
1000
0001
0000
0001
0000
,
1000
0000
1010
0000
0010
0100
0010
0100
0001
0000
1000
0100
1000
0100
0010
0001
,
1000
0000
0001
0100
0010
0000
0100
0000
1002
0000
0010
0000
0103
0010
0100
0000
,
1001
0000
0000
0000
0000
0000
0100
0000
0000
0000
0000
0000
0010
0000
0000
1000
0000
0000
0100
0000
0000
0000
0000
0000
0010
0000
0100
0000
1000
0000
0010
0000
0000
0000
0000
0000
0100
0000
0001
0000
0010
0000
0100
0000
0000
0000
0000
0000
,
0110
0000
0010
0001
1000
0000
0010
0000
2001
0000
0010
0000
3100
0010
0100
0000
,
0001
0000
0000
0000
0000
0000
0100
0000
0000
1000
0000
0000
0010
0000
0000
0100
0000
0000
0010
0000
0000
1000
0000
0000
0001
0000
0010
0000
0100
0000
1000
0000
0001
0000
0010
0000
0100
0000
1000
0000
0001
0000
0010
0000
0100
0000
1000
0000
,
0001
0100
0010
1000
0001
0100
0001
0100
0010
1000
0100
0010
0001
1000
0001
1000
,
0010
0100
0001
1000
0100
0010
0100
0010
0001
1000
0100
0010
0001
1000
0001
1000
,
0010
0100
0010
1000
0001
0010
1000
0010
0001
1000
0010
1000
0001
0100
0010
1000
,
0001
0100
1000
0100
0001
0100
1000
0100
0001
0010
1000
0010
0001
0010
1000
0010
,
0110
0000
0100
0010
0100
0010
0100
0010
0001
1000
0001
1000
0001
1000
0001
0100
,
0110
0000
0000
0100
0001
0000
1001
0000
0000
0000
0000
0000
0000
0000
0000
0000
,
1001
0000
0001
0100
0010
0000
0100
0000
0101
0000
0001
0000
1001
0000
1000
0000
,
1100
0000
1000
0100
0010
0000
0100
0000
1000
0100
0010
0100
1000
0100
0010
0001
,
1001
0000
1000
0010
0001
0000
0010
0000
0110
0000
0010
1000
0100
0000
1000
0000
,
1001
0000
0001
0010
1000
0000
0010
0000
0110
0000
0100
0000
1100
0000
1000
0000
,
0001
0010
0100
1000
0010
0001
1000
0100
0010
1000
0100
0010
0001
0010
1000
0001
,
0100
0010
0100
0010
0001
1000
0001
1000
0010
0100
1000
0001
0010
0100
0001
0020
,
0200
0000
0000
0330
,
0110
0000
0010
0001
1000
0010
0100
0001
0010
0000
0110
0000
1001
0000
0000
0000
,
1001
0000
0101
0000
1000
0010
0100
0001
1000
0000
1000
0100
0000
0100
0010
0000
,
0011
0000
0001
0100
0010
0000
0010
1000
0100
0000
0100
0010
0001
1000
0010
0001
,
0011
0000
0010
1000
0000
0001
0010
0000
1100
0000
0001
0100
0000
0010
1000
0000
,
0101
0000
0001
0010
0100
0000
0100
1000
0010
0001
1000
0100
0001
0010
0100
1000
,
1010
0000
0010
0000
0110
0000
0100
0000
0101
0000
0001
0010
0000
0010
1000
0000
,
1010
0000
0100
0000
0011
0000
1000
0000
0110
0000
0100
0001
0000
0001
1000
0000
,
0110
0000
0001
0000
0110
1000
0001
0000
1001
0000
1000
0010
0000
0010
0001
0000
,
0110
0000
0100
0000
0101
0000
1000
0000
1100
0000
0100
0010
0000
0100
1000
0001
,
1001
0000
0000
0000
0000
0000
0010
0000
0000
0000
0000
0000
1010
0000
0000
0100
0000
0000
0000
0000
0000
0010
0000
0000
1000
0000
0000
0001
0000
0000
1000
0000
0100
0000
0010
0000
0001
0000
1000
0000
0001
0000
0010
0000
0100
0000
1000
0000
,
0001
0000
0000
0001
0010
0000
0100
0000
0110
0000
1000
0100
0001
0000
0001
0100
,
1000
0000
0000
0000
0000
0000
0010
0000
0000
0000
0000
0000
0100
0000
0000
0001
0000
0000
0010
0000
0000
0100
0000
0000
1000
0000
0000
0001
0000
0000
0100
0000
0000
0010
0000
0000
1000
0000
0100
0000
0010
0000
0100
0000
0010
0000
0100
0000
,
0020
0000
0000
1000
0000
0000
0001
0000
0230
0000
0000
0001
0000
0000
1000
0000
,
0310
0000
0010
0001
0000
0001
1000
0000
1010
0000
0100
0001
0000
0001
0010
0000
,
0011
0000
0100
1000
0000
1000
0001
0000
0100
0000
1000
0000
0100
0000
0001
0000
,
1001
0000
1000
0100
0000
0001
0100
0000
1001
0000
0001
0100
0000
1000
0100
0000
,
1001
0000
1000
0100
0000
0010
0100
0000
0001
0100
1000
0010
0001
1000
0100
0001
,
0010
0000
0100
1000
0010
0001
0010
0000
0100
0000
0001
0010
1000
0010
0100
0000
,
0001
0000
0100
1000
0010
0100
1000
0000
1000
0100
0001
0010
0100
1000
0001
0000
,
1001
0000
1000
0010
0100
1000
0001
0010
0100
0000
0001
0010
0100
0001
1000
0010
,
0100
0000
1000
0010
0001
1000
0100
0001
0010
0000
0010
0100
0000
0100
1000
0000
,
0001
0100
0001
1000
0100
1000
0001
0100
0001
1000
0100
1000
0001
0000
0200
0000
,
0310
1000
0010
0100
1000
0100
0010
1000
0010
0100
1000
0100
0001
0000
2000
0000
,
3001
0010
0001
1000
0010
1000
0001
0010
0001
1000
0010
1000
0001
0000
0002
0000
,
0013
0000
0000
0001
0000
0000
0010
0000
0000
0100
0000
0000
0001
0000
0000
0100
0000
0000
0010
0000
0000
0001
0000
0000
0010
0000
0000
0100
0000
0000
1000
0000
0000
0010
0000
0000
0100
0000
0001
0000
0010
0000
0100
0000
0000
0110
0000
0000
;
