#TITLE:楽園都市;
#SUBTITLE:;
#ARTIST:オーイシマサヨシ;
#TITLETRANSLIT:Rakuen Toshi;
#SUBTITLETRANSLIT:;
#ARTISTTRANSLIT:Oishi Masayoshi;
#GENRE:ANIME;
#CREDIT:;
#MUSIC:Rakuen Toshi.ogg;
#BANNER:Rakuen Toshi.png;
#BACKGROUND:Rakuen Toshi-bg.png;
#CDTITLE:;
#SAMPLESTART:51.800;
#SAMPLELENGTH:15.217;
#SELECTABLE:YES;
#OFFSET:0.823;
#BPMS:0.000=138.000;
#STOPS:;
#BGCHANGES:2.000=Rakuen Toshi.avi=1.000=0=0=0=StretchNoLoop====,
99999.000=-nosongbg-=1.000=0=0=0=StretchNoLoop====
;
#FGCHANGES:;

//--------------- dance-single - ----------------
#NOTES:
     dance-single:
     :
     Hard:
     13:
     0.704456,0.687339,0.944964,0.119478,0.439897,454,367,87,11,0,0,0.704456,0.687339,0.944964,0.119478,0.439897,454,367,87,11,0,0:
0000
0000
0000
0000
,
0001
0100
0000
0100
0010
0000
0010
1000
0000
1000
0001
0000
0010
0000
0100
1000
,
0000
0100
1000
0000
0001
0100
0000
0001
0100
0000
0010
0000
0110
0000
0000
0000
,
1000
0100
0000
0100
0010
0000
0010
0001
0000
0001
1000
0000
0010
0000
0120
0000
,
0000
0000
0000
0000
0000
0000
1030
0000
0100
0000
0000
1000
0000
0000
0001
0000
,
0100
0000
0000
0001
0000
0000
0100
0000
0110
0000
0000
0000
2001
0000
0000
0000
,
3100
1000
0100
1000
0001
0100
0001
0010
,
0100
0000
1000
0000
0100
1000
0000
1001
0000
0000
0001
1000
0000
0000
0001
0000
,
0010
0100
1000
0001
0100
0100
0010
1000
,
1001
0000
0000
1100
0000
0000
0101
0000
0000
0000
0001
0000
1000
0000
0010
0000
,
0001
0000
0000
0010
0000
0000
1000
0000
1000
0000
0100
0000
0001
0000
0100
0000
,
1000
0000
0000
0100
0000
0000
0010
0000
0001
0000
0100
0000
0001
0000
0100
0000
,
0010
0000
0100
0000
0010
0000
1000
0000
0001
0100
0001
0000
1000
0010
1000
0000
,
1010
0000
0000
0101
0000
0000
0001
1000
0000
0000
0000
0000
1002
0000
0000
0000
,
1003
0100
0100
0001
1000
0010
1000
0001
,
0100
0000
1000
0000
0001
0010
0000
1100
0000
0000
1000
0100
0000
0000
1000
0000
,
0200
1000
1300
0001
0200
0001
0001
1300
,
1010
0000
0000
1001
0000
0000
1100
0000
0000
0000
1100
0000
0010
0000
0001
0000
,
0010
0000
0000
0100
0000
0000
1100
0000
0000
0000
1010
0000
0000
0110
0000
0000
,
0101
0000
0000
0001
0000
0000
1001
0000
0001
0000
0010
0000
0100
0000
0001
0000
,
0100
1000
0001
1000
0010
0100
0010
0110
,
0000
0000
0110
0000
1000
0000
0010
0000
0100
0000
0000
0001
0000
0000
1000
0000
,
0100
0000
0000
0010
0000
0000
0001
0000
0010
0000
0000
0100
0000
0000
1000
0000
,
0100
0000
0000
0010
0000
0000
0000
0000
0000
1001
0000
0000
0000
0000
0000
0010
0000
0000
0100
0000
0000
0000
0000
0000
0110
0000
0000
0000
0000
0000
0000
0000
0000
1000
0000
0000
0000
0000
0000
0100
0000
0000
0000
0000
0010
0000
0000
0000
,
1001
0000
0001
0010
1000
0010
0011
0000
,
0101
0000
1010
0000
1100
0000
0011
0001
,
1001
0000
0000
0110
0000
0000
1001
0000
0000
0000
1000
0000
0100
0000
1000
0100
,
1000
0000
0001
0010
0001
0000
0200
0000
0000
0000
0010
0000
0310
0000
1000
0000
,
0100
0000
0010
0001
0000
0001
0010
0000
0100
0000
1000
0010
0000
0010
1000
0000
,
0100
0000
1100
0000
0011
0000
0000
0000
0001
0010
0100
1000
0000
0000
0011
0000
,
1002
0000
0100
0000
0100
0000
0103
0010
,
1001
0000
0100
0100
0000
0000
1000
0000
0001
0000
0010
0010
0000
0000
0100
0000
,
1000
0000
0001
0000
1000
0000
0000
1002
0000
0000
1000
1003
0000
0000
0011
0000
,
1010
0000
0000
1100
0000
0000
0110
0000
1001
0000
0000
0101
0000
0000
1010
0000
,
0010
0000
1000
0000
0001
0000
0010
0000
0100
0000
1000
0000
0001
0000
0100
0010
,
0200
0000
0000
1000
0000
0000
0301
0000
0010
0000
0001
0000
1000
0000
0001
0000
,
0100
0000
1000
0000
0100
0000
0001
0000
1001
0000
0000
1001
0000
0000
1000
0000
,
1100
1000
1001
1000
0101
0001
1001
0001
,
1100
0000
0100
0000
1001
0000
0001
0000
1000
0000
0001
0010
0100
0000
1000
0100
,
0010
0000
0000
0010
0100
0000
0110
0000
1001
0000
0000
1000
0001
0000
1001
0000
,
0001
0000
1000
0000
0001
0000
0000
2100
0000
0000
0001
3001
0000
0000
0011
0000
,
0110
0000
0000
1000
0010
0000
0110
0000
1001
0000
0000
0001
0010
0000
0110
0000
,
1001
0000
0000
1100
0000
0000
0011
0000
2001
0000
0001
0000
3001
0000
0000
0000
,
1001
0000
0000
1001
0000
0000
0011
0000
0001
0000
0100
0000
1000
0000
0100
0000
,
0001
0000
1000
0000
0100
0000
0001
0000
0110
0000
0000
0110
0000
0000
0001
0000
,
0011
0001
1001
0001
1100
1000
1001
1000
,
0110
1000
0001
1001
0000
1000
0001
0001
,
1000
0000
0100
0000
1000
0100
0000
0010
0000
0001
0000
0010
0000
0000
0110
0000
,
1100
0000
1100
0000
1000
0010
0000
0100
0000
0001
0000
0100
0000
0000
0110
0000
,
1001
0000
1001
0000
0001
0010
0000
1100
0000
1000
0000
0001
0000
0000
0010
0000
,
0100
1000
0100
0001
0100
1001
0000
0000
;

//--------------- dance-single - ----------------
#NOTES:
     dance-single:
     :
     Challenge:
     16:
     0.833244,0.879794,0.868932,0.162925,0.814624,537,457,80,15,0,0,0.833244,0.879794,0.868932,0.162925,0.814624,537,457,80,15,0,0:
0000
0000
0000
0000
,
0001
0000
0000
0010
0000
0000
0000
0000
0000
0001
0000
0000
1000
0000
0000
0000
0000
0000
0001
0000
0000
0100
0000
0000
0000
0000
0000
0001
0000
0000
1000
0000
0000
0000
0000
0000
0001
0000
0100
0000
0001
0000
0100
0000
0001
0000
0000
0000
,
1000
0010
1000
0010
1000
0000
0001
0100
0001
0100
0001
1000
0001
1000
0001
0010
0001
0010
0100
0000
0000
0000
0000
0000
,
1000
0100
0000
1000
0001
0000
1000
0010
0000
1000
0001
0000
0010
0000
0210
0000
,
0000
0000
0000
0000
0000
0000
1300
0010
0200
0000
0000
1000
0000
0000
0310
0000
,
2000
0000
0000
0000
0000
0000
0000
0000
0000
0001
0000
0000
0000
0000
0000
0000
0000
0000
3100
0000
0000
0010
0000
0000
0001
0000
0000
0000
0000
0000
0001
0000
0010
0000
0100
0000
2000
0000
0000
0000
0000
0000
0000
0000
0000
0000
0000
0000
,
3100
0000
0100
1000
0001
0000
0100
0000
0010
1000
0000
0010
0100
0000
1000
0000
,
0100
0000
0001
0000
0010
0100
0000
2100
0000
0000
0010
3010
0000
1000
0100
0010
,
1000
0000
0001
0000
0100
1000
0010
0000
0010
1000
0100
0000
0010
0000
0010
0001
,
1000
0000
0000
1100
0000
0000
0011
0000
0000
0000
0001
0010
1000
0000
0010
0000
,
0001
1000
0000
1000
0100
0000
0010
0000
0100
0000
1000
0000
0001
0100
0010
0000
,
1000
0100
0000
0100
0010
0000
0001
0000
1000
0010
0100
0010
1000
0000
0100
0000
,
0010
0001
0010
0100
1000
0000
1001
0000
1000
0100
0010
0001
1000
0000
0100
0000
,
0110
0000
0000
0000
0000
0000
0000
0000
0000
1001
0000
0000
0000
0000
0000
0000
0000
0000
1000
0000
0000
0001
0000
0000
0000
0000
0000
0000
0000
0000
0000
0000
0000
0000
0000
0000
1000
0000
0100
0000
0010
0000
0100
0000
0010
0000
0001
0000
,
1000
0000
0100
0000
0100
0000
0010
0001
1000
0000
0010
0000
0100
0001
0100
0000
,
0001
0000
1000
0000
0001
0010
0000
0100
2000
0000
0001
3001
0000
0000
0001
0010
,
0200
0000
0001
0000
1300
0000
1000
0100
0020
0000
0001
0000
1000
0000
0031
0000
,
0011
0000
0000
1001
0000
0000
0110
0000
0000
0000
1100
0000
0010
0001
0100
0000
,
0010
0000
0000
0100
0001
0000
1010
0000
0000
0000
1001
0000
0000
0110
0000
0000
,
1001
0000
0000
1000
0100
0000
0011
0000
0001
0010
0000
0010
1000
0000
0010
0000
,
0001
0000
0100
0000
0010
1000
0001
0000
0010
0000
0100
1000
0001
0000
0011
0000
,
0000
0000
1100
0000
1000
0000
0100
0000
0010
0000
0001
0010
0001
1000
0100
1000
,
0001
0000
0000
0001
0010
0000
1000
0000
0010
0000
0000
0001
0100
0000
1000
0000
,
0100
0000
0000
0001
0000
0000
0000
0000
0000
1001
0000
0000
0000
0000
0000
0001
0000
0000
0010
0000
0000
0000
0000
0000
0110
0000
0000
0000
0000
0000
0000
0000
0000
1100
0000
0000
0000
0000
0000
0101
0000
0000
0000
0000
0100
0000
0000
0000
,
1001
0000
0001
0010
0100
0010
1001
0000
,
0011
0000
0100
0000
1010
0000
0001
0000
1100
0000
1000
0000
0001
0010
0100
1000
,
1100
0000
0000
0110
0000
0000
0011
0000
0000
0000
0001
0000
1000
0000
0001
0100
,
0001
0000
0001
1000
0010
1000
0200
0000
0000
0000
0010
0000
0310
0000
0010
0001
,
0100
0000
0100
0001
0010
0000
0100
0000
1000
0010
0100
0000
0100
0010
1000
0000
,
0001
0000
0011
0000
1100
0000
0000
0000
0100
1000
0010
0001
0000
0000
0011
0000
,
1020
0000
0000
0000
0000
0000
0100
0000
0000
0000
0000
0000
0130
0000
0000
0100
0001
0100
1000
0000
0000
1100
0000
0000
,
0101
0000
0001
0010
0000
0000
0010
0100
1000
0000
1000
0001
0000
0000
0101
0000
,
0100
0001
1000
0000
0100
0000
0000
0210
0000
0000
1000
1300
0000
0000
0011
0000
,
1100
0000
0000
1000
0100
0000
0011
0000
0001
0000
0000
0001
0100
0000
1010
0000
,
0010
0100
0010
0000
1000
0000
0001
0010
0000
0000
0010
0100
1000
0001
0100
0010
,
2000
0000
0000
0100
0000
0000
3100
0000
0010
0000
0001
0000
1000
0000
0001
0000
,
0100
0000
1000
0000
0100
0000
0001
0010
0110
0000
0000
0110
0000
0000
1000
0000
,
0011
0100
1001
0100
1010
0100
1001
0010
,
1100
0000
1000
0000
1001
0000
0001
0000
1000
0100
0010
0100
1000
0001
0100
0010
,
0100
0000
0000
0001
0010
0000
1100
0000
0011
0000
0000
1000
0010
0000
0101
0000
,
0001
0000
1000
0000
0001
0000
0000
2001
0000
0000
0100
3100
0000
0000
0001
0000
,
0110
0000
0000
0100
2000
0000
0010
0000
3001
0000
0000
0001
0010
0000
0100
0000
,
1100
0000
0000
0110
0000
0000
0011
0000
2100
0000
0001
0000
3001
0000
0000
0000
,
1001
0000
0000
1001
0000
0000
0011
0000
0001
0010
0100
0000
0100
1000
0001
0100
,
0010
0000
1000
0000
0001
0000
1000
0100
0110
0000
0000
0110
0000
0000
0001
0000
,
0011
1000
1010
0010
0110
0001
1001
0000
,
1001
0010
0010
0100
0000
0100
1000
1000
,
0001
0000
0100
0000
1000
0100
0000
0101
0000
1010
0000
1000
0001
0000
0011
0000
,
0110
0000
1001
0000
0001
0010
0000
1100
0000
1010
0000
0100
0001
0000
0110
0000
,
1100
0000
0000
0000
0000
0000
1000
0000
0100
0000
0010
0000
0001
0000
0000
0010
0000
0000
0000
0000
0000
1001
0000
0000
0000
0000
0000
1000
0000
0000
0001
0000
0010
0000
0100
0000
0010
0000
0000
0001
0000
0000
0010
0000
0000
0100
0000
0000
,
1000
0000
1000
0010
0100
0000
0001
0000
1000
0000
1001
0000
0000
0000
0000
0000
;
