#TITLE:雷火;
#SUBTITLE:;
#ARTIST:ナナヲアカリ;
#TITLETRANSLIT:Raika;
#SUBTITLETRANSLIT:;
#ARTISTTRANSLIT:Nanawo Akari;
#GENRE:POP;
#CREDIT:;
#MUSIC:Raika.ogg;
#BANNER:Raika.png;
#BACKGROUND:Raika-bg.png;
#CDTITLE:;
#SAMPLESTART:46.509;
#SAMPLELENGTH:11.538;
#SELECTABLE:YES;
#OFFSET:-0.025;
#BPMS:0.000=182.000;
#STOPS:;
#BGCHANGES:2.750=Raika.avi=1.000=0=0=0=StretchNoLoop====,
99999.000=-nosongbg-=1.000=0=0=0=StretchNoLoop====
;
#FGCHANGES:;

//--------------- dance-single - ----------------
#NOTES:
     dance-single:
     :
     Medium:
     12:
     0,0,0,0,0:
0000
0000
0000
0000
,
0000
0000
0000
0000
,
0000
0000
0000
0000
,
1000
0100
0010
0002
0000
0000
0000
0000
,
1003
0010
0100
0000
0100
0001
1000
0000
,
0001
0010
0100
2000
0000
0000
0000
0000
,
3001
1001
0010
0110
,
1010
0100
0011
0100
,
0110
0000
1000
0002
0000
0000
0000
0000
,
0000
0000
0000
0000
,
1003
0000
0000
0000
1000
0000
0010
0000
0100
0000
0000
0010
0000
0000
0100
0000
,
0001
1000
0001
1000
0100
0000
0110
0000
,
1001
0000
0001
0000
1000
0100
1000
0000
,
0001
0100
1000
0100
0001
1000
0000
0010
,
0000
0100
0001
1000
1100
0000
0101
0000
,
0001
0010
0100
1000
0001
0010
0100
0000
,
1001
0000
1001
0000
1000
0010
0100
0010
,
1010
0000
0011
0000
0001
1000
0100
1000
,
0001
0010
1000
0001
0000
0001
0100
1000
,
0001
0000
0000
0100
0000
0000
1000
0000
0000
0100
0000
0000
0010
0000
0000
1000
0000
0000
0001
0000
0100
0000
0001
0000
,
0100
0000
0000
0010
0000
0000
1000
0000
0100
0000
1000
0000
0100
0000
0000
0010
0000
0000
0001
0000
0100
0000
0001
0000
,
0100
0000
0000
0010
0000
0000
1000
0000
0100
0000
1000
0000
0001
0000
0000
0000
0000
0000
0110
0000
0000
0000
0000
0000
,
0001
0000
0010
0000
0001
0000
0010
0000
0000
0100
0000
0000
1000
0000
0010
0000
1000
0000
0010
0000
0000
0100
0000
0000
,
0001
0000
0010
0000
0001
0000
0010
0000
0000
0100
0000
0000
1000
0000
0000
0010
0000
0000
0100
0000
0000
0001
0000
0000
,
1000
0000
0110
0000
1000
0100
0010
0000
,
0100
0000
1001
0000
0001
0100
0010
2000
,
0000
3001
0010
0100
1000
1100
0000
0101
,
0001
0100
0010
0100
0000
0100
0001
0010
,
1000
0001
0100
2000
0000
0000
3010
0000
,
0100
0001
0010
0000
0100
1000
0010
0000
,
0100
0001
1000
0200
0000
0000
0310
0000
,
0001
0110
1000
0110
,
1000
0001
0100
0001
1000
0100
1000
0001
,
0100
1000
0001
0010
0001
1000
0200
0000
,
0301
0010
1000
0001
0100
1000
0001
0100
,
1000
0001
0020
0000
0230
0000
0310
0000
,
1002
0000
0010
0023
0000
0100
0230
0000
,
1000
1300
0001
1000
0100
0010
0001
0000
,
0000
1000
0010
1000
0001
0100
0001
0011
,
0000
1100
0000
1000
0010
0100
0001
0000
,
1000
0100
0100
0001
1000
0000
1000
0001
,
0100
0100
1000
0001
0010
0010
1000
0000
,
0010
0000
0001
0010
1000
0000
0010
0000
,
0100
0000
0001
1000
0100
1000
0001
0000
,
0110
0000
1000
0001
0000
0001
0010
0000
,
0010
0100
1000
0010
0100
0001
0110
0000
,
1000
0001
1000
0001
1000
0020
0000
0230
,
0000
0301
0010
0100
1000
0001
0010
0000
,
0011
0000
0001
0010
0100
0000
0010
0100
,
1000
0000
0001
1000
0001
0000
1000
0010
,
0100
0000
0010
0100
0001
0000
1000
0001
,
1000
0000
0001
0100
0000
0010
1000
0001
,
0010
0100
0110
1001
,
1000
0001
0110
1001
,
1000
0000
0001
0000
0100
0000
0010
1000
,
0000
1000
0100
0001
0000
0001
0100
0000
,
0110
0000
1000
0001
0100
0000
0100
0010
,
1000
0000
1000
0100
0010
0000
0010
0001
,
2000
0000
0001
0000
0100
0000
3001
0010
,
0100
0000
1000
0001
0000
1000
0010
0100
,
0001
0100
1000
0001
0010
0001
1000
0100
,
0001
1000
0100
0001
1000
0010
1000
0001
,
0200
0000
0000
0000
,
0000
0000
0000
0000
,
0300
0000
0000
0000
,
0000
0000
0000
1001
,
0001
0010
0100
1000
0000
0001
0100
0000
,
0010
1000
0001
0000
0001
0010
0100
0000
,
1000
0100
0010
0001
0000
1000
0010
0000
,
1010
0101
0011
1100
,
1000
0010
0100
0001
0100
1000
0001
1000
,
0100
0001
0010
1000
0001
1000
0010
0001
,
1000
0010
0001
1000
0100
0001
1000
0100
,
0011
1100
1010
0101
,
1000
0100
0000
0001
0100
0000
1000
0010
,
0000
0001
0010
0000
1000
0001
1000
1001
;

//--------------- dance-single - ----------------
#NOTES:
     dance-single:
     :
     Hard:
     16:
     0,0,0,0,0:
0000
0000
0000
0000
,
0000
0000
0000
0000
,
0000
0000
0000
0000
,
1000
0100
0010
0002
0000
0000
0000
0000
,
1003
0000
0010
0000
0100
0001
0100
0001
1000
0000
0100
0000
0010
0001
0010
0001
,
1000
0010
0100
0002
0000
0000
0000
0000
,
1003
0100
0001
0000
0001
0100
1000
0000
,
0012
0103
2010
3100
,
0110
0000
1000
0002
0100
0000
1000
0000
,
0100
1000
0100
1003
,
1001
0000
0000
0000
0001
0000
0010
0000
0100
0000
0000
1000
0000
0000
0001
0000
,
1000
0100
0010
0001
1000
0100
0011
0000
,
1001
0000
0001
0100
0010
1000
0001
0010
,
0100
0000
1000
0010
1000
0000
1000
0100
1000
0000
0001
0000
0000
0000
0100
0000
,
0000
0010
1000
0001
2000
3100
0002
0103
,
1000
0000
0001
0100
0001
0000
1000
0000
0001
0000
1000
0100
1000
0000
0000
0000
,
0110
0000
1001
0001
1000
0010
0100
0010
,
1000
0000
0001
0100
0001
0000
0001
0010
0001
0000
0010
0000
0100
0000
1000
0000
,
1010
0010
0100
0101
0000
0001
0100
1000
,
0100
0000
0000
0000
0000
0000
0001
0000
0000
0010
0000
0000
0100
0000
0000
0000
0000
0000
1000
0000
0000
0100
0000
0000
0010
0000
0000
0000
0000
0000
0110
0000
0000
0000
0000
0000
0100
0000
0000
0000
1000
0000
0000
0000
0100
0000
0000
0000
,
0010
0100
1000
0001
0100
0010
1000
0010
0100
0001
0010
0100
,
1000
0100
0010
0100
1000
0001
0100
0000
0000
0110
0000
0000
,
0001
0100
0010
0100
0001
0010
0100
1000
0010
1000
0100
0010
,
0001
0000
0000
0100
0000
0000
1000
0000
0100
0000
0010
0000
1000
0000
0100
0000
0010
0000
0001
0000
1000
0000
0100
0000
,
0001
0000
0100
0000
0110
0000
0000
0000
0001
0000
0100
0010
0100
0000
1000
0000
,
0100
0000
0001
0000
1001
0000
0000
0000
0001
0010
0001
0010
0100
0000
2000
0000
,
0000
3010
0100
0010
0100
1001
0000
1001
,
1000
0000
0100
0000
0010
0000
0001
0000
1000
0000
0100
0010
0001
0000
1000
0000
,
0001
0000
1000
0000
0010
0000
0200
0000
0000
0000
0000
0000
0310
0000
1000
0001
,
1000
0001
0100
0000
0010
0000
1000
0001
1000
0001
0010
0000
0200
0000
0000
0000
,
0310
0001
1000
0020
0000
0000
0130
0000
,
0001
1000
0110
0000
1000
0001
0110
0000
,
1000
0000
0001
0010
0100
1000
0001
0000
1000
0010
0100
0001
1000
0000
0001
0000
,
1000
0100
1000
0000
0001
0100
0001
0000
1000
0100
0010
0001
2000
0000
0000
0000
,
3001
0000
0100
0010
0100
0000
0010
0100
0010
0000
0100
0001
1000
0000
0001
0000
,
1000
0100
0010
0001
2000
0000
0000
0000
0001
0000
0000
0000
3100
0000
0000
0000
,
1001
0000
0001
0010
0100
0000
0100
0000
0010
0001
1000
0000
1000
0000
0001
0100
,
0010
0000
0010
1000
0001
0000
0010
0000
0100
0000
0010
0000
1100
0000
0000
0000
,
1000
0000
1000
0010
0100
0000
0001
0000
0001
0010
0100
0000
1000
0000
0001
0000
,
0100
0000
1000
0100
0010
0000
1000
0001
1000
0000
0001
0010
0100
0000
0001
0100
,
1000
0000
0001
0000
1000
0010
0100
0010
0100
0000
0001
0010
0100
0010
0100
1000
,
0001
0000
0100
0010
0100
0000
0001
1000
0001
0000
0010
0100
0010
0000
1000
0000
,
0010
0000
0001
0100
1000
0000
0100
0000
0001
0000
1000
0100
0001
0000
0100
0000
,
1000
0000
0001
0100
0010
0000
1000
0010
0100
0000
0001
0100
0010
0000
1000
0010
,
0100
0000
0001
1000
0010
0000
0100
0000
0010
1000
0001
0000
0010
0000
0100
1000
,
0010
0000
0100
0001
0010
0000
0100
0000
1000
0000
0001
0000
0110
0000
0000
0000
,
1001
0001
1000
1000
0001
0001
0100
0020
,
0000
1030
0001
0010
0100
1000
0001
0000
,
0011
0000
1000
0100
1000
0000
0001
0100
,
0001
0000
0000
0000
0010
0000
0100
0000
0010
0000
0001
0000
1000
0100
1000
0100
,
0020
0000
0000
0000
0031
0000
1000
0000
0001
0000
0100
0000
0001
0000
1000
0010
,
1000
0000
0010
0100
0010
0000
0100
0001
0100
0000
0001
1000
0001
0000
1000
0010
,
0100
0000
1001
0000
0001
0010
1100
0000
,
1010
0000
1001
0000
1000
0010
0101
0000
,
0011
0000
0001
0100
1000
0001
0010
1000
,
0000
0001
0010
0100
1000
0010
0100
0000
,
0110
0000
1001
0001
0010
0000
0100
1000
,
1001
0000
1001
1000
0010
0000
0100
0001
,
1002
0000
0000
0000
0100
0000
0000
0000
1000
0000
0000
0000
0103
0000
0010
1000
,
0010
0000
1000
0001
1000
0000
0001
0010
0001
0000
1000
0001
1000
0000
0010
0100
,
0010
0000
0001
0000
1000
0000
0100
0000
0010
0000
1000
0000
0100
0000
0001
0100
,
0001
0000
0100
0000
1000
0000
0001
0000
0100
0000
0010
0000
0100
0000
1000
0100
,
0020
0000
0000
0000
,
0000
0000
0000
0000
,
0030
0000
0000
0000
,
0000
0000
0000
0110
,
1001
0000
0001
0000
0010
0000
0100
0000
1000
0000
0010
0000
0100
0000
0001
1000
,
0001
0000
1000
0100
1000
0000
0010
0000
0100
0001
0100
0001
1000
0000
0000
0000
,
0001
0000
0010
0000
0100
0000
1000
0000
0001
0000
0100
0010
0100
0000
0001
0000
,
1000
0100
0110
0000
1000
0001
1001
0000
,
1000
0000
0010
0000
0100
0000
0001
0010
0100
0000
1000
0000
0001
0000
1000
0010
,
0100
0000
0001
0000
0010
0000
0100
1000
0010
0000
0100
0000
0001
0000
1000
0100
,
1000
0000
0010
0100
0010
0000
0100
0001
0100
0000
0001
1000
0001
0000
0010
0000
,
0100
1000
0100
0010
0001
0000
1000
0000
0010
0100
0010
1000
0001
0000
0000
0000
,
1000
1100
0000
0001
0101
0000
1000
1010
,
0000
0001
0101
0000
0100
0010
0100
0110
;

//--------------- dance-single - ----------------
#NOTES:
     dance-single:
     :
     Challenge:
     18:
     0.794564,0.618467,0,0,0,580,580,0,0,0,0,0.794564,0.618467,0,0,0,580,580,0,0,0,0:
0000
0000
0000
0000
,
0000
0000
0000
0000
,
0000
0000
0000
0000
,
0001
1000
0010
0200
0000
0000
0000
0000
,
0301
1000
0100
1000
0001
0010
0100
1000
0001
0100
0001
1000
0010
0100
0001
0010
,
0100
1000
0001
0020
0000
0000
0000
0000
,
0130
1000
1010
0000
0100
0001
0021
0000
,
0002
0003
0000
0000
0200
0300
0000
0000
2000
3000
0000
0000
0200
0000
0330
0000
,
0110
0000
1000
0020
0100
0000
1000
0000
,
0100
1000
0100
1000
,
0130
0000
0000
0000
0001
0000
0010
0000
0100
0000
0000
1100
0000
0000
1000
0010
,
0100
0000
0001
0010
0100
0000
1000
0010
0100
0000
0001
0000
0110
0000
0000
0000
,
1001
0000
0000
0000
0001
0000
0010
0000
0100
0000
1000
0000
0001
0100
0010
0100
,
0001
0100
0010
0100
0000
0001
0010
0100
0010
0001
0010
0000
0100
1000
0010
0100
,
0001
1000
0001
1000
0102
0013
2100
3010
,
0001
0010
0100
1000
0100
1000
0000
1000
0010
0100
0001
0100
0101
0000
0000
0000
,
1001
0000
0000
0000
1001
0000
1000
0000
0010
0000
0100
0001
0010
0100
1000
0010
,
0001
0000
0010
0100
0001
0010
1000
0000
0010
0100
0000
0100
1000
0001
0100
0010
,
2000
3020
0230
0301
0000
0011
0010
0110
,
0100
0000
0000
0000
0000
0000
1000
0000
0000
0010
0000
0000
0100
0000
0000
0010
0000
0000
0000
0000
0000
0010
0000
0000
1000
0000
0000
0001
0000
0000
0010
0000
0000
0100
0000
0000
0010
0000
0000
0000
0001
0000
0000
0000
0100
0000
0000
0000
,
0010
0001
0010
0100
0001
0010
0100
0010
0001
1000
0010
0100
,
1000
0000
0000
0000
0100
0000
0000
0000
0001
0000
0000
0000
0010
0000
0000
0000
1000
0000
0000
0000
0001
0000
0000
0000
0100
0000
0000
1000
0000
0000
0001
0000
0000
0000
0000
0000
1000
0000
0000
0010
0000
0000
1000
0000
0000
0010
0000
0000
,
0100
1000
0100
0010
1000
0100
0010
1000
0010
0100
1000
0010
,
0001
0000
0000
1000
0000
0000
0100
0000
0001
0000
0010
0000
0100
0000
1000
0000
0001
0000
1000
0000
0010
0000
0100
0000
,
0001
0000
1000
0000
0110
0000
0001
1000
0100
0000
0010
0100
0010
0000
0100
1000
,
0001
0000
0100
0000
1001
0000
0001
0100
0010
1000
0000
1000
0100
0010
0001
0000
,
0000
1000
0001
0100
0001
0101
0000
1010
,
1000
0000
0010
0100
0010
0000
0100
0001
0010
0100
1000
0001
1000
0010
0001
0010
,
1000
0000
0001
0000
0010
0000
0200
0000
0000
0000
0000
0000
1300
0001
0100
0001
,
1000
0001
0100
0001
1000
0100
1000
0001
1000
0100
1000
0001
0010
0100
1000
0001
,
0100
0000
0010
0000
1000
0000
0002
0000
0000
0000
0000
0000
1003
0010
1000
0001
,
0010
0100
1000
0001
0100
0000
0110
0000
0010
1000
0100
0010
0001
0000
1000
0010
,
0100
0000
1000
0100
0001
0010
0100
0000
0001
0100
1000
0001
0100
0010
0100
0010
,
1000
0001
0000
1000
0100
0010
0001
1000
0010
0100
0001
0010
2000
0000
0000
0000
,
3010
0000
0001
0100
1000
0000
1000
0100
0001
0010
0001
0100
1000
0100
0001
0010
,
0001
0100
1000
0100
0001
0010
0001
0100
1000
0100
0001
0010
0100
0000
0000
0000
,
1001
0000
0001
0100
1000
0000
0100
0000
0001
0010
1000
0000
0010
0001
0010
0100
,
1000
0010
0100
0001
0010
0100
1000
0000
1100
0000
0110
0000
0011
0000
0001
0010
,
0100
0000
1000
0010
0100
0010
0001
0000
1000
0100
0010
0100
0001
0000
1000
0100
,
0010
0001
0010
0001
1000
0100
0010
0001
1000
0100
1000
0100
0010
0000
0010
0001
,
0100
0000
0110
0000
0100
0001
0010
0000
0110
0000
0010
0100
1000
0000
1000
0010
,
0001
0000
1000
0100
0001
0000
1000
0100
0001
0000
1000
0010
0001
0000
1000
0000
,
0001
0100
0010
0100
1000
0000
0100
0000
0001
0010
0100
0010
1000
0000
0010
0000
,
0001
0100
0001
0100
0010
0100
0001
1000
0100
1000
0100
0010
0100
1000
0001
0100
,
0010
0000
0010
1000
0001
0000
1001
0000
1000
0100
0010
0000
0010
0100
1000
0010
,
0001
0000
0010
1000
0100
0010
0001
0000
0011
0000
0110
0000
1100
0000
0000
0000
,
1001
0000
0001
0010
0100
0000
1100
0000
1000
0010
0100
0000
0101
0000
1001
0000
,
1000
0100
1000
0010
0100
0010
1000
0001
1000
0010
0100
0001
,
1001
0000
0000
0000
1010
0000
0010
1000
0100
0000
0010
0000
0100
0000
0010
0001
,
0100
0000
1000
0000
0100
0001
0010
0000
0100
0000
1000
0000
0001
0010
0001
0010
,
0200
0000
0000
0000
1300
0000
0010
0100
0001
0000
0011
0000
0010
0100
0010
0000
,
0100
1000
0010
0100
1000
0100
0010
1000
0100
0010
0001
1000
0010
0100
0001
0010
,
0110
0000
0000
0000
1001
0000
0001
1000
0100
0000
0010
0000
0110
0000
0000
0000
,
0110
0000
0000
0000
1001
0000
1000
0001
0100
0000
0010
0000
0110
0000
0000
0000
,
0101
0000
0001
0010
0100
0000
1000
0100
0010
0000
0001
0000
1001
0000
1000
0000
,
0010
0000
0100
0001
0100
0001
1000
0100
1000
0100
0010
0001
1000
0000
0001
0000
,
0110
0000
0000
0000
1001
0000
0001
0100
0010
0000
0100
0000
0001
0000
1000
0100
,
0010
0000
0100
0000
1000
0001
1000
0000
1001
0000
0100
0010
0100
0000
0001
0000
,
0010
0000
0100
0000
1000
0000
0001
0000
1100
0000
0001
0000
0100
0000
0010
0100
,
0010
1000
0100
0010
0001
1000
0010
0100
0010
0100
0001
0010
0100
1000
0010
0100
,
0010
0000
0100
0000
0001
0010
0100
1000
0001
0010
0100
1000
0001
0010
0100
1000
,
0001
0000
1001
0000
1000
0010
0100
0001
1000
0010
0100
0001
1000
0010
0100
0001
,
0020
0000
0000
0000
,
0000
0000
0000
0000
,
0000
0000
0000
0000
,
0000
0000
0030
0110
,
1001
0000
0001
0100
0010
0100
0001
0000
1000
0100
0010
0000
1100
0000
1000
0010
,
0001
0000
0010
0100
0001
0000
0010
0100
1000
0010
0100
0010
1000
0000
0001
0010
,
0100
0000
0010
0001
1000
0000
0010
0100
0001
0010
1000
0001
0100
0000
1000
0010
,
0100
0000
1000
0100
0001
0000
1000
0100
0010
0000
1000
0010
0001
0000
1000
0010
,
0100
0000
0010
1000
0100
0010
0001
0000
0100
0000
0010
1000
0100
0010
0001
0100
,
0010
0100
0001
0010
0100
0001
0100
0010
0001
1000
0010
0100
0010
1000
0100
0010
,
1000
0010
0100
1000
0010
0100
0001
0010
0100
0010
0001
0100
0010
1000
0001
0010
,
0100
0010
0001
0100
1000
0100
0001
1000
0010
0100
1000
0100
0001
0000
0000
0000
,
0101
0101
0000
1010
1010
0000
1100
1100
,
0000
0110
0110
0000
0011
1000
0101
1001
;
