#TITLE:ラビットホール;
#SUBTITLE:;
#ARTIST:DECO*27 feat. 初音ミク;
#TITLETRANSLIT:Rabbit Hole;
#SUBTITLETRANSLIT:;
#ARTISTTRANSLIT:DECO*27;
#GENRE:POP;
#CREDIT:;
#MUSIC:Rabbit Hole.ogg;
#BANNER:Rabbit Hole.png;
#BACKGROUND:Rabbit Hole-bg.png;
#CDTITLE:;
#SAMPLESTART:41.644;
#SAMPLELENGTH:21.503;
#SELECTABLE:YES;
#OFFSET:1.362;
#BPMS:0.000=173.000
,121.000=86.500
,121.500=173.000
,186.000=86.500
,186.500=173.000
,202.500=86.500
,203.500=173.000
,246.500=86.500
,247.500=173.000
,312.000=86.500
,312.500=173.000
;
#STOPS:80.000=0.173
,80.500=0.173
,81.000=0.173
,81.500=0.173
,185.500=0.867
,203.500=0.173
,204.000=0.173
,311.500=0.867
;
#LASTBEATHINT:0.963010;
#BGCHANGES:5.500=Rabbit Hole.avi=1.000=0=0=0=StretchNoLoop====,
99999.000=-nosongbg-=1.000=0=0=0=StretchNoLoop====
;
#FGCHANGES:;

//--------------- dance-single - ----------------
#NOTES:
     dance-single:
     :
     Medium:
     12:
     0.638683,0.628286,0.289636,0.252503,0,602,563,39,34,0,0,0.638683,0.628286,0.289636,0.252503,0,602,563,39,34,0,0:
0000
0000
0000
0000
,
0000
0000
0000
0000
,
0000
0000
0000
0000
,
0000
0000
0000
0000
,
0001
1000
0100
0100
,
1000
0000
0001
0000
0100
0001
1000
0000
,
1000
0001
0100
0100
,
0010
0000
1000
0001
0010
0100
1000
0001
,
0010
0100
1000
1000
,
0001
0000
0100
0000
0010
1000
0001
0000
,
0001
1000
0100
0100
,
0010
0001
1000
0100
1000
0001
0100
0010
,
0000
0010
1000
0000
1000
0001
0000
0010
,
0100
0000
0100
1000
0001
0000
0202
0000
,
0303
0001
0010
0000
0010
0100
0000
1000
,
0010
0000
0010
0100
0001
0000
1100
0000
,
0001
0000
0001
0000
1000
0010
0000
0100
,
0001
0000
0001
0010
0100
0000
0100
1000
,
0001
0000
0100
0000
0110
0000
0000
0010
,
0000
1000
0100
1000
0100
0001
0100
1000
,
0002
0003
0000
0000
0000
0000
0000
0000
0000
0000
0000
0000
0000
0000
0000
0000
0000
0000
0000
0000
0000
0000
0000
0000
2000
3000
0000
0000
0000
0000
0000
0000
0000
0000
0000
0000
0000
0000
0000
0000
0000
0000
0000
0000
0000
0000
0000
0000
0002
0003
0000
0000
0000
0000
0000
0000
0000
0000
0000
0000
0000
0000
0000
0000
0000
0000
0000
0000
0000
0000
0000
0000
2000
3000
0000
0000
0000
0000
0000
0000
0000
0000
0000
0000
0000
0000
0000
0000
0000
0000
0000
0000
0000
0000
0000
0000
0001
0000
0000
0000
0000
0000
0000
0000
0000
0000
0000
0000
0000
0000
0000
0000
0000
0000
0000
0000
0000
0000
0000
0000
0010
0000
0000
0000
0000
0000
0000
0000
0000
0000
0000
0000
0000
0000
0000
0000
0000
0000
0000
0000
0000
0000
0000
0000
0100
0000
0000
0000
0000
0000
0000
0000
0000
0000
0000
0000
0000
0000
0000
0000
0000
0000
0000
0000
0000
0000
0000
0000
0000
0000
0000
0000
0000
0000
0000
0000
0000
0000
0000
0000
0000
0000
0000
0000
0000
0000
0000
0000
0000
0000
0000
0000
,
1000
0010
0100
0000
0001
0100
0010
2000
,
0000
3001
0100
0001
1000
0010
0100
0000
,
0001
0010
0100
0000
1000
0100
0010
0002
,
0000
1003
0100
1000
1100
0000
0011
0000
,
0001
1000
0000
1000
0010
0100
0001
0000
,
1000
0100
0010
0001
0011
0000
1001
0000
,
1100
0000
1000
0001
0000
0001
0100
1000
,
0100
0001
0010
0100
1000
0000
0011
0000
,
1100
0101
1001
0110
,
1001
0000
0000
0000
0000
0000
0000
0000
0000
0000
0000
0000
0000
0000
0000
0000
0000
0000
0000
0000
0000
0000
0000
0000
0000
0000
0000
0000
0000
0000
0000
0000
0000
0000
0000
0000
0000
0000
0000
0000
0000
0000
0000
0000
0000
0000
0000
0000
0002
0003
0000
0000
0000
0000
0000
0000
0000
0000
0000
0000
0000
0000
0000
0000
0000
0000
0000
0000
0000
0000
0000
0000
1000
0000
0000
0000
0000
0000
0000
0000
0000
0000
0000
0000
0000
0000
0000
0000
0000
0000
0000
0000
0000
0000
0000
0000
0100
0000
0000
0000
0000
0000
0000
0000
0000
0000
0000
0000
0000
0000
0000
0000
0000
0000
0000
0000
0000
0000
0000
0000
1000
0000
0000
0000
0000
0000
0000
0000
0000
0000
0000
0000
0000
0000
0000
0000
0000
0000
0000
0000
0000
0000
0000
0000
0000
0000
0000
0000
0000
0000
0000
0000
0000
0000
0000
0000
0000
0000
0000
0000
0000
0000
0000
0000
0000
0000
0000
0000
0001
0000
0000
0000
0000
0000
0000
0000
0000
0000
0000
0000
0000
0000
0000
0000
0000
0000
0000
0000
0000
0000
0000
0000
,
0100
0001
0000
1000
0001
0100
0000
0001
,
1000
0100
0000
0010
0001
0100
0000
0010
,
1000
0100
0000
0010
0001
1000
0000
0010
,
1000
0001
0000
1000
0100
0001
0000
0001
,
0100
1000
0000
0001
0000
0101
0000
1000
,
0000
1100
0000
0001
0100
0001
0010
0100
,
1000
0100
0000
1000
0001
0100
0001
0010
,
0100
1100
0000
1000
0010
0001
0010
1000
,
0100
0010
0000
0001
0100
1000
0100
0001
,
0010
0100
0000
1000
0100
1000
0010
1000
,
0100
0010
0000
0001
0100
0001
0010
0001
,
0100
0010
0000
0100
0001
1000
0000
0100
,
1000
0001
0000
0100
0001
0101
0000
1000
,
0100
1100
0000
0001
0001
1000
1000
0010
,
0100
0010
0000
0100
0001
0010
0100
1000
,
0001
0000
0000
0000
0000
0000
0000
0000
0000
0000
0000
0000
0000
0000
0000
0000
0000
0000
0000
0000
0000
0000
0000
0000
0100
0000
0000
0000
0000
0000
0000
0000
0000
0000
0000
0000
0000
0000
0000
0000
0000
0000
0000
0000
0000
0000
0000
0000
0010
0000
0000
0000
0000
0000
0000
0000
0000
0000
0000
0000
0000
0000
0000
0000
0000
0000
0000
0000
0000
0000
0000
0000
0200
0300
0000
0000
0000
0000
0000
0000
0000
0000
0000
0000
0000
0000
0000
0000
0000
0000
0000
0000
0000
0000
0000
0000
0002
0000
0000
0000
0000
0000
0000
0000
0000
0000
0000
0000
0000
0000
0000
0000
0000
0000
0000
0000
0000
0000
0000
0000
1003
0000
0000
0000
0000
0000
0000
0000
0000
0000
0000
0000
0000
0000
0000
0000
0000
0000
0000
0000
0000
0000
0000
0000
0000
0000
0000
0000
0000
0000
0000
0000
0000
0000
0000
0000
0000
0000
0000
0000
0000
0000
0000
0000
0000
0000
0000
0000
1000
0000
0000
0000
0000
0000
0000
0000
0000
0000
0000
0000
0000
0000
0000
0000
0000
0000
0000
0000
0000
0000
0000
0000
,
0000
0001
0010
0100
0000
1000
0100
0010
,
0000
0001
0010
0200
0000
1300
0000
1000
,
0000
0001
0100
0010
0000
1000
0010
0100
,
0000
0000
0000
0000
0000
0000
0000
0000
0000
0000
0000
0000
0000
0000
0000
0000
0000
0000
0000
0000
0000
0000
0000
0000
0001
0000
0000
0000
0000
0000
0000
0000
0000
0000
0000
0000
0000
0000
0000
0000
0000
0000
0000
0000
0000
0000
0000
0000
0010
0000
0000
0000
0000
0000
0000
0000
0000
0000
0000
0000
0000
0000
0000
0000
0000
0000
0000
0000
0000
0000
0000
0000
0100
0000
0000
0000
0000
0000
0000
0000
0000
0000
0000
0000
0000
0000
0000
0000
0000
0000
0000
0000
0000
0000
0000
0000
1000
0000
0000
0000
0000
0000
0000
0000
0000
0000
0000
0000
0000
0000
0000
0000
0000
0000
0000
0000
0000
0000
0000
0000
0002
0003
0000
0000
0000
0000
0000
0000
0000
0000
0000
0000
0000
0000
0000
0000
0000
0000
0000
0000
0000
0000
0000
0000
0000
0000
0000
0000
0000
0000
0000
0000
0000
0000
0000
0000
0000
0000
0000
0000
0000
0000
0000
0000
0000
0000
0000
0000
2000
3000
0000
0000
0000
0000
0000
0000
0000
0000
0000
0000
0000
0000
0000
0000
0000
0000
0000
0000
0000
0000
0000
0000
,
2000
3000
0000
0000
0000
0000
0000
0000
0000
0000
0000
0000
0000
0000
0000
0000
0000
0000
0000
0000
0000
0000
0000
0000
0001
0000
0000
0000
0000
0000
0000
0000
0000
0000
0000
0000
0000
0000
0000
0000
0000
0000
0000
0000
0000
0000
0000
0000
0000
0000
0000
0000
0000
0000
0000
0000
0000
0000
0000
0000
0000
0000
0000
0000
0000
0000
0000
0000
0000
0000
0000
0000
0100
0000
0000
0000
0000
0000
0000
0000
0000
0000
0000
0000
0000
0000
0000
0000
0000
0000
0000
0000
0000
0000
0000
0000
0000
0000
0000
0000
0000
0000
0000
0000
0000
0000
0000
0000
0000
0000
0000
0000
0000
0000
0000
0000
0000
0000
0000
0000
0001
0000
0000
0000
0000
0000
0000
0000
0000
0000
0000
0000
0000
0000
0000
0000
0000
0000
0000
0000
0000
0000
0000
0000
0010
0000
0000
0000
0000
0000
0000
0000
0000
0000
0000
0000
0000
0000
0000
0000
0000
0000
0000
0000
0000
0000
0000
0000
0100
0000
0000
0000
0000
0000
0000
0000
0000
0000
0000
0000
0000
0000
0000
0000
0000
0000
0000
0000
0000
0000
0000
0000
,
0000
1000
0000
1000
0000
0001
0010
0100
,
0000
1000
0100
0010
0001
1000
0100
0010
,
0000
0001
0100
0001
0000
1000
0010
1000
,
0000
0010
0100
0010
0000
0100
0010
0100
,
0000
0001
0010
0001
0000
1000
0100
1000
,
0000
0001
1000
0001
0000
1000
0001
1000
,
0000
0001
0010
0100
0010
0001
1000
0100
,
0000
1000
0010
0100
0000
0001
0010
0100
,
0000
1000
0100
1000
0001
0100
0001
0010
,
0001
0000
0000
0000
0000
0000
0000
0000
0000
0000
0000
0000
0000
0000
0000
0000
0000
0000
0000
0000
0000
0000
0000
0000
1000
0000
0000
0000
0000
0000
0000
0000
0000
0000
0000
0000
0000
0000
0000
0000
0000
0000
0000
0000
0000
0000
0000
0000
0010
0000
0000
0000
0000
0000
0000
0000
0000
0000
0000
0000
0000
0000
0000
0000
0000
0000
0000
0000
0000
0000
0000
0000
0100
0000
0000
0000
0000
0000
0000
0000
0000
0000
0000
0000
0000
0000
0000
0000
0000
0000
0000
0000
0000
0000
0000
0000
0001
0000
0000
0000
0000
0000
0000
0000
0000
0000
0000
0000
0000
0000
0000
0000
0000
0000
0000
0000
0000
0000
0000
0000
2000
3000
0000
0000
0000
0000
0000
0000
0000
0000
0000
0000
0000
0000
0000
0000
0000
0000
0000
0000
0000
0000
0000
0000
1000
0000
0000
0000
0000
0000
0000
0000
0000
0000
0000
0000
0000
0000
0000
0000
0000
0000
0000
0000
0000
0000
0000
0000
0001
0000
0000
0000
0000
0000
0000
0000
0000
0000
0000
0000
0000
0000
0000
0000
0000
0000
0000
0000
0000
0000
0000
0000
,
0010
0100
0000
1000
0100
0001
0000
0100
,
1000
0010
0000
1000
0010
0001
0000
0001
,
0010
0100
0000
0001
0010
1000
0000
0010
,
0001
0100
0000
0001
0100
1000
0000
0100
,
0001
0010
0100
1000
0001
0101
0000
1000
,
0100
1100
0000
0001
0100
0101
0000
0001
,
0100
0001
1000
0100
1000
0010
0100
0001
,
0010
0100
1000
0001
0100
0110
0000
0010
,
1000
0100
0001
0100
1000
0010
0000
0100
,
0001
0010
1000
0010
0001
0100
0000
0010
,
1000
0001
0010
1000
0001
0100
0000
0010
,
0001
1000
0010
0001
1000
0100
0000
0001
,
0010
0100
1000
0001
1000
0110
0000
0001
,
1000
0110
0000
1000
0001
0110
0000
1000
,
1000
0001
0100
1000
0100
0001
0000
1000
,
0100
0000
0000
0000
0000
0000
0000
0000
0000
0000
0000
0000
0000
0000
0000
0000
0000
0000
0000
0000
0000
0000
0000
0000
0001
0000
0000
0000
0000
0000
0000
0000
0000
0000
0000
0000
0000
0000
0000
0000
0000
0000
0000
0000
0000
0000
0000
0000
0100
0000
0000
0000
0000
0000
0000
0000
0000
0000
0000
0000
0000
0000
0000
0000
0000
0000
0000
0000
0000
0000
0000
0000
1000
0000
0000
0000
0000
0000
0000
0000
0000
0000
0000
0000
0000
0000
0000
0000
0000
0000
0000
0000
0000
0000
0000
0000
0010
0000
0000
0000
0000
0000
0000
0000
0000
0000
0000
0000
0000
0000
0000
0000
0000
0000
0000
0000
0000
0000
0000
0000
0110
0000
0000
0000
0000
0000
0000
0000
0000
0000
0000
0000
0000
0000
0000
0000
0000
0000
0000
0000
0000
0000
0000
0000
0100
0000
0000
0000
0000
0000
0000
0000
0000
0000
0000
0000
0000
0000
0000
0000
0000
0000
0000
0000
0000
0000
0000
0000
0002
0003
0000
0000
0000
0000
0000
0000
0000
0000
0000
0000
0000
0000
0000
0000
0000
0000
0000
0000
0000
0000
0000
0000
,
0200
0310
0000
1001
0000
0100
0000
1001
,
0000
0001
0010
0100
1000
0002
1000
0013
,
0100
0010
0000
1001
0000
0100
0000
1001
,
0000
1000
0010
0100
0001
2000
0001
3100
,
0010
0100
0000
1001
0000
0100
0000
1001
,
0000
1000
0010
0100
0001
1000
0000
1100
,
0000
0011
0000
0001
0010
0100
1000
0001
,
0010
0100
1000
0100
1000
0001
0100
0010
,
0100
0002
0013
2000
3010
0002
0013
2000
,
3010
0001
0100
0010
1000
0002
0100
0103
,
0010
2000
3100
0002
0103
2000
3100
0002
,
0103
1000
0100
0010
0001
2000
0100
3100
,
0010
0002
0103
2000
3100
0002
0013
2000
,
3010
0001
0100
0010
1000
0001
0000
0011
,
0000
1100
0000
1000
0010
0100
0001
1000
,
0001
0010
0100
1000
0001
0100
0110
0000
,
1001
0000
0000
0000
;

//--------------- dance-single - ----------------
#NOTES:
     dance-single:
     :
     Hard:
     16:
     0,0,0,0,0:
0000
0000
0000
0000
,
0000
0000
0000
0000
,
0000
0000
0000
0000
,
0000
0000
0000
0000
,
1001
0000
0000
0001
0100
0000
0010
0000
0100
0000
0001
0010
0100
0000
0010
0000
,
0001
0100
0010
0100
0002
1000
1003
0000
,
1100
0000
0000
1000
0100
0000
0010
0000
0100
0000
1000
0010
0100
0000
0010
0000
,
1000
0000
0010
0000
0100
0001
0010
0000
0100
1000
0010
0000
0100
0001
0010
0000
,
0110
0000
0000
1000
0001
0000
0100
0000
1000
0000
0100
0001
1000
0000
0100
0000
,
0001
0100
1000
0001
0200
0010
0310
0000
,
1001
0000
0000
0001
1000
0000
0010
0000
0001
0000
0010
1000
0001
0000
0010
0000
,
1000
0000
0010
0000
0001
0000
1000
0000
0010
0100
0010
0100
0010
0100
0010
0000
,
0000
0100
0001
0010
0100
1000
0000
1000
,
0010
0100
0001
1000
1001
0000
2002
0000
,
3003
0001
0010
0100
1000
0001
0000
0001
,
0100
0010
1000
0001
0101
0000
1100
0000
,
0110
0000
0000
0000
0110
0000
0000
0000
1000
0000
0001
0000
0000
0000
0100
0010
,
0100
0001
0010
0100
1000
0001
0100
0001
,
0010
0000
0011
0000
1100
0000
0000
1000
,
0000
0000
0001
0100
0001
0000
1000
0100
1000
0000
0010
0000
0100
0000
0010
0000
,
0220
0330
0000
0000
0000
0000
0000
0000
0000
0000
0000
0000
0000
0000
0000
0000
0000
0000
0000
0000
0000
0000
0000
0000
0220
0330
0000
0000
0000
0000
0000
0000
0000
0000
0000
0000
0000
0000
0000
0000
0000
0000
0000
0000
0000
0000
0000
0000
0220
0330
0000
0000
0000
0000
0000
0000
0000
0000
0000
0000
0000
0000
0000
0000
0000
0000
0000
0000
0000
0000
0000
0000
0220
0330
0000
0000
0000
0000
0000
0000
0000
0000
0000
0000
0000
0000
0000
0000
0000
0000
0000
0000
0000
0000
0000
0000
1000
0000
0000
0000
0000
0000
0000
0000
0000
0000
0000
0000
0000
0000
0000
0000
0000
0000
0000
0000
0000
0000
0000
0000
0001
0000
0000
0000
0000
0000
0000
0000
0000
0000
0000
0000
0010
0000
0000
0000
0000
0000
0000
0000
0000
0000
0000
0000
0100
0000
0000
0000
0000
0000
0000
0000
0000
0000
0000
0000
0000
0000
0000
0000
0000
0000
0000
0000
0000
0000
0000
0000
0010
0000
0000
0000
0000
0000
0000
0000
0000
0000
0000
0000
0000
0000
0000
0000
0000
0000
0000
0000
0000
0000
0000
0000
,
0001
0000
1000
0010
0100
0000
0010
0000
1000
0000
0100
0000
0010
0000
0200
0000
,
0000
0000
1300
0000
0001
0000
1000
0000
0100
0000
1000
0010
0100
0000
0010
0000
,
1000
0000
0001
0010
0100
0000
0010
0000
0001
0000
0010
0000
0100
0000
2000
0000
,
0000
3010
0100
0010
1010
0000
0101
0000
,
0001
1000
0000
0010
0100
0010
1000
0001
,
0010
1000
0001
0100
1000
0000
1001
0000
,
0110
0000
0000
0110
0000
0100
0001
0010
,
0001
1000
0010
0100
0001
0000
0011
0000
,
1010
1100
0110
1001
,
0110
0000
0000
0000
0000
0000
0000
0000
0000
0000
0000
0000
0000
0000
0000
0000
0000
0000
0000
0000
0000
0000
0000
0000
0000
0000
0000
0000
0000
0000
0000
0000
0000
0000
0000
0000
0000
0000
0000
0000
0000
0000
0000
0000
0000
0000
0000
0000
2000
3000
0000
0000
0000
0000
0000
0000
0000
0000
0000
0000
0000
0000
0000
0000
0000
0000
0000
0000
0000
0000
0000
0000
0001
0000
0000
0000
0000
0000
0000
0000
0000
0000
0000
0000
0000
0000
0000
0000
0000
0000
0000
0000
0000
0000
0000
0000
0010
0000
0000
0000
0000
0000
0000
0000
0000
0000
0000
0000
0000
0000
0000
0000
0000
0000
0000
0000
0000
0000
0000
0000
1000
0000
0000
0000
0000
0000
0000
0000
0000
0000
0000
0000
0000
0000
0000
0000
0000
0000
0000
0000
0000
0000
0000
0000
0001
0000
0000
0000
0000
0000
0000
0000
0000
0000
0000
0000
0000
0000
0000
0000
0000
0000
0000
0000
0000
0000
0000
0000
0100
0000
0000
0000
0000
0000
0000
0000
0000
0000
0000
0000
0000
0000
0000
0000
0000
0000
0000
0000
0000
0000
0000
0000
,
1000
0001
0100
0000
0010
0000
1000
0000
0100
0000
0001
0000
1000
0000
0010
0000
,
0001
1000
0100
0000
1000
0000
0001
0000
0100
0000
1000
0000
0100
0000
0001
0000
,
1000
0100
0001
0000
0100
0000
1000
0000
0001
0000
0010
0000
1000
0000
0010
0000
,
0001
0100
1000
0000
0100
0000
0010
0000
0100
0001
1000
0000
0100
0000
0010
0000
,
0100
1000
0001
0000
0100
0000
0100
0000
1000
0001
1000
0000
0100
0000
0100
0000
,
0001
1000
0001
0000
0100
0000
0010
0000
0010
0000
0100
0000
0100
0000
0001
0000
,
1000
0100
0010
0000
1000
0000
0010
0000
0001
0100
0010
0000
0001
0010
1000
0000
,
0100
0110
0000
1001
1000
0100
0001
1000
,
0010
0001
1000
0000
0010
0000
0110
0000
0100
0000
0001
0000
0010
0000
1000
0000
,
0001
0100
0010
0000
0001
0000
1001
0000
1000
0000
0001
0000
0100
0000
1000
0000
,
0100
0001
0010
0000
0100
0000
1001
0000
0001
0000
1000
0000
0100
0000
0001
0000
,
0100
1000
0010
0000
0100
0000
0110
0000
0010
1000
0001
0000
0010
0000
0100
0000
,
1000
0001
0010
0000
0100
0000
0100
0000
0001
1000
0010
0000
0100
0000
0100
0000
,
1000
0001
0010
0000
0100
0000
1000
0000
1000
0000
0001
0000
0001
0000
0100
0000
,
1000
0100
0010
0000
1000
0000
0001
0010
0100
0000
0001
0100
1000
0000
0010
0000
,
0100
0000
0000
0000
0000
0000
0000
0000
0000
0000
0000
0000
0000
0000
0000
0000
0000
0000
0000
0000
0000
0000
0000
0000
0110
0000
0000
0000
0000
0000
0000
0000
0000
0000
0000
0000
0000
0000
0000
0000
0000
0000
0000
0000
0000
0000
0000
0000
1000
0000
0000
0000
0000
0000
0000
0000
0000
0000
0000
0000
0000
0000
0000
0000
0000
0000
0000
0000
0000
0000
0000
0000
0002
0003
0000
0000
0000
0000
0000
0000
0000
0000
0000
0000
0000
0000
0000
0000
0000
0000
0000
0000
0000
0000
0000
0000
0200
0000
0000
0000
0000
0000
0000
0000
0000
0000
0000
0000
0000
0000
0000
0000
0000
0000
0000
0000
0000
0000
0000
0000
0310
0000
0000
0000
0000
0000
0000
0000
0000
0000
0000
0000
0000
0000
0000
0000
0000
0000
0000
0000
0000
0000
0000
0000
0000
0000
0000
0000
0000
0000
0000
0000
0000
0000
0000
0000
0100
0000
0000
0000
0000
0000
0000
0000
0000
0000
0000
0000
0001
0000
0000
0000
0000
0000
0000
0000
0000
0000
0000
0000
0000
0000
0000
0000
0000
0000
0000
0000
0000
0000
0000
0000
,
0010
0000
0100
0000
0001
0100
0010
0000
0001
0000
0100
0000
0010
0000
0001
0000
,
0010
0000
0200
0000
0001
0000
0301
0000
0000
0000
1100
0000
0000
0100
1000
0000
,
0010
0000
0100
0000
1000
0100
0010
0000
1000
0000
0100
0000
0010
0000
0100
1000
,
0010
0000
0000
0000
0000
0000
0000
0000
0000
0000
0000
0000
0000
0000
0000
0000
0000
0000
0000
0000
0000
0000
0000
0000
0100
0000
0000
0000
0000
0000
0000
0000
0000
0000
0000
0000
0010
0000
0000
0000
0000
0000
0000
0000
0000
0000
0000
0000
1000
0000
0000
0000
0000
0000
0000
0000
0000
0000
0000
0000
0000
0000
0000
0000
0000
0000
0000
0000
0000
0000
0000
0000
0001
0000
0000
0000
0000
0000
0000
0000
0000
0000
0000
0000
0010
0000
0000
0000
0000
0000
0000
0000
0000
0000
0000
0000
0100
0000
0000
0000
0000
0000
0000
0000
0000
0000
0000
0000
0000
0000
0000
0000
0000
0000
0000
0000
0000
0000
0000
0000
0220
0330
0000
0000
0000
0000
0000
0000
0000
0000
0000
0000
0000
0000
0000
0000
0000
0000
0000
0000
0000
0000
0000
0000
0000
0000
0000
0000
0000
0000
0000
0000
0000
0000
0000
0000
0000
0000
0000
0000
0000
0000
0000
0000
0000
0000
0000
0000
2002
3003
0000
0000
0000
0000
0000
0000
0000
0000
0000
0000
0000
0000
0000
0000
0000
0000
0000
0000
0000
0000
0000
0000
,
2002
3003
0000
0000
0000
0000
0000
0000
0000
0000
0000
0000
0000
0000
0000
0000
0000
0000
0000
0000
0000
0000
0000
0000
1000
0000
0000
0000
0000
0000
0000
0000
0000
0000
0000
0000
0000
0000
0000
0000
0000
0000
0000
0000
0000
0000
0000
0000
0001
0000
0000
0000
0000
0000
0000
0000
0000
0000
0000
0000
0100
0000
0000
0000
0000
0000
0000
0000
0000
0000
0000
0000
0010
0000
0000
0000
0000
0000
0000
0000
0000
0000
0000
0000
0000
0000
0000
0000
0000
0000
0000
0000
0000
0000
0000
0000
0100
0000
0000
0000
0000
0000
0000
0000
0000
0000
0000
0000
0000
0000
0000
0000
0000
0000
0000
0000
0000
0000
0000
0000
0002
0000
0000
0000
0000
0000
0000
0000
0000
0000
0000
0000
0000
0000
0000
0000
0000
0000
0000
0000
0000
0000
0000
0000
1000
0000
0000
0000
0000
0000
0000
0000
0000
0000
0000
0000
0000
0000
0000
0000
0000
0000
0000
0000
0000
0000
0000
0000
1003
0000
0000
0000
0000
0000
0000
0000
0000
0000
0000
0000
0000
0000
0000
0000
0000
0000
0000
0000
0000
0000
0000
0000
,
0000
0000
1001
0000
0000
1000
0100
0000
0001
0000
0100
0000
1000
0001
0100
0000
,
1000
0100
0001
1000
0100
0001
0100
1000
,
0000
0001
0000
0001
0000
1000
0000
1000
,
0000
0010
0000
0010
0000
0100
0000
0100
,
0000
0001
0000
0001
0000
0010
0000
0010
,
0000
0100
0000
0100
0000
1000
0000
1001
,
0000
0001
0100
0010
0000
0010
1000
0001
,
0000
0000
0001
0000
0010
0100
0010
0000
0000
0000
0001
0000
0100
0010
0100
0000
,
0000
0001
1000
0001
1000
0010
0100
0010
,
0100
0000
0000
0000
0000
0000
0000
0000
0000
0000
0000
0000
0000
0000
0000
0000
0000
0000
0000
0000
0000
0000
0000
0000
0001
0000
0000
0000
0000
0000
0000
0000
0000
0000
0000
0000
0100
0000
0000
0000
0000
0000
0000
0000
0000
0000
0000
0000
0001
0000
0000
0000
0000
0000
0000
0000
0000
0000
0000
0000
0000
0000
0000
0000
0000
0000
0000
0000
0000
0000
0000
0000
1000
0000
0000
0000
0000
0000
0000
0000
0000
0000
0000
0000
0100
0000
0000
0000
0000
0000
0000
0000
0000
0000
0000
0000
1000
0000
0000
0000
0000
0000
0000
0000
0000
0000
0000
0000
0000
0000
0000
0000
0000
0000
0000
0000
0000
0000
0000
0000
0020
0030
0000
0000
0000
0000
0000
0000
0000
0000
0000
0000
0000
0000
0000
0000
0000
0000
0000
0000
0000
0000
0000
0000
1001
0000
0000
0000
0000
0000
0000
0000
0000
0000
0000
0000
0000
0000
0000
0000
0000
0000
0000
0000
0000
0000
0000
0000
1001
0000
0000
0000
0000
0000
0000
0000
0000
0000
0000
0000
0000
0000
0000
0000
0000
0000
0000
0000
0000
0000
0000
0000
,
0001
0000
0110
0000
1000
0000
1001
0000
0001
1000
0010
0000
0100
0000
0101
0000
,
0010
0000
1010
0000
0100
0000
0101
0000
0001
0010
0100
0000
1000
0000
1001
0000
,
0100
0000
0110
0000
0001
0000
1001
0000
1000
0001
0010
0000
0100
0000
1100
0000
,
0010
0000
0011
0000
0100
0000
1100
0000
1000
0010
0100
0000
0001
0000
1000
0000
,
0001
0100
0010
0000
1000
0000
0001
0000
1000
0100
0010
0000
0100
0000
0100
0000
,
0001
1000
0010
0000
0100
0000
0100
0000
1000
0100
0010
0000
0100
0000
0010
0000
,
0001
0100
0010
0000
0100
0001
1000
0000
0001
0010
0100
0000
0010
0000
0001
0000
,
1000
0010
0100
0110
0001
1001
0000
1100
,
1000
0000
0101
0000
0001
0000
1100
0000
1000
0001
0100
0000
0010
0000
1010
0000
,
1000
0000
0011
0000
0001
0000
1010
0000
1000
0001
0010
0000
0100
0000
1100
0000
,
0010
0000
0011
0000
0100
0000
1100
0000
1000
0001
0100
0000
0010
0000
1010
0000
,
0100
0000
0101
0000
0010
0000
1010
0000
1000
0001
0010
0000
0100
0000
1000
0000
,
0001
0100
1000
0000
0100
0000
0001
0000
1000
0100
0001
0000
0100
0000
0100
0000
,
0001
0100
1000
0000
0100
0000
0100
0000
1000
0100
0001
0000
0100
0000
0010
0000
,
0001
0100
0010
0000
0001
0010
1000
0000
0001
0010
0100
0000
1000
0000
0010
0000
,
0100
0000
0000
0000
0000
0000
0000
0000
0000
0000
0000
0000
0001
0000
0000
0000
0000
0000
0000
0000
0000
0000
0000
0000
1000
0000
0000
0000
0000
0000
0000
0000
0000
0000
0000
0000
0000
0000
0000
0000
0000
0000
0000
0000
0000
0000
0000
0000
0001
0000
0000
0000
0000
0000
0000
0000
0000
0000
0000
0000
0010
0000
0000
0000
0000
0000
0000
0000
0000
0000
0000
0000
0100
0000
0000
0000
0000
0000
0000
0000
0000
0000
0000
0000
0000
0000
0000
0000
0000
0000
0000
0000
0000
0000
0000
0000
1000
0000
0000
0000
0000
0000
0000
0000
0000
0000
0000
0000
0000
0000
0000
0000
0000
0000
0000
0000
0000
0000
0000
0000
0010
0000
0000
0000
0000
0000
0000
0000
0000
0000
0000
0000
0000
0000
0000
0000
0000
0000
0000
0000
0000
0000
0000
0000
0100
0000
0000
0000
0000
0000
0000
0000
0000
0000
0000
0000
0000
0000
0000
0000
0000
0000
0000
0000
0000
0000
0000
0000
0002
0003
0000
0000
0000
0000
0000
0000
0000
0000
0000
0000
0000
0000
0000
0000
0000
0000
0000
0000
0000
0000
0000
0000
,
0200
0320
0000
2030
0000
3002
0000
0023
,
0000
0130
1000
0001
0100
0001
1000
0100
,
0001
0200
0000
2300
0000
3020
0000
0230
,
0000
0301
1000
0010
0100
0001
1000
0010
,
0001
0020
0000
2030
0000
3002
0000
0023
,
0000
0130
1000
0001
0100
0010
0000
0110
,
0000
1001
0000
0000
0001
0010
0100
1000
,
0001
0010
0100
1000
0001
1000
0010
0100
,
0010
0000
1000
0000
0001
0100
0001
0000
1000
0000
0001
0000
1000
0100
1000
0000
,
0001
0010
0100
1000
0001
2000
0001
0100
,
3001
0000
0001
0000
1000
0100
1000
0000
0001
0000
1000
0000
0001
0100
0001
0000
,
1000
0010
0100
0001
1000
0002
1000
0100
,
1003
0000
1000
0000
0001
0010
0100
0000
1000
0000
0001
0000
1000
0010
0100
0000
,
0010
1000
0001
0010
0100
1000
0000
0110
,
0000
1001
0000
0001
1000
0100
1000
0001
,
0100
0000
0010
0000
0100
0001
0010
0000
0100
0000
0010
0000
0110
0000
0000
0000
,
1001
0000
0000
0000
;

//--------------- dance-single - ----------------
#NOTES:
     dance-single:
     :
     Challenge:
     17:
     0.993036,1.116953,0.386181,0.21537,0.868907,936,884,52,29,0,0,0.993036,1.116953,0.386181,0.21537,0.868907,936,884,52,29,0,0:
0000
0000
0000
0000
,
0000
0000
0000
0000
,
0000
0000
0000
0000
,
0000
0000
0000
0000
,
0101
0000
0001
0010
0100
0000
1000
0010
0100
0000
0001
0000
0010
0000
0100
0000
,
1000
0000
0010
0100
0010
0000
1000
0000
0002
0000
0010
0000
0013
0000
0000
0000
,
1100
0000
1000
0010
0100
0000
0001
0010
0100
0000
1000
0000
0010
0000
0100
0000
,
0001
0000
0010
0000
0100
0000
1000
0010
0100
0001
1000
0010
0100
0001
1000
0010
,
0100
0000
0001
0010
0100
0000
1000
0010
0100
0000
0001
0000
0010
0000
0100
0000
,
1000
0000
0001
0100
0001
0000
1000
0000
0020
0000
0100
0000
0130
0000
0000
0000
,
0001
0000
1000
0010
0100
0000
0001
0010
0100
0000
1000
0000
0010
0000
0100
0000
,
0010
0000
1000
0001
1000
0000
0010
0000
0100
0001
0100
0001
0100
0001
0100
0000
,
0000
0010
1000
0001
0010
0100
0000
0100
,
1000
0001
0010
0100
1100
0000
2200
0000
,
3300
1000
0010
0100
0001
1000
0000
1000
,
0010
0100
0001
1000
1010
0000
0101
0000
,
0110
0000
0000
0000
0110
0000
0000
0000
1000
0000
0001
0000
0000
0000
1000
0100
,
1000
0001
0010
0100
1000
0010
0100
0001
,
0010
0000
0110
0000
1001
0000
0000
0001
,
0000
0000
1000
0100
1000
0000
0001
0100
0001
0000
0010
0000
0100
0000
0010
0000
,
2002
3003
0000
0000
0000
0000
0000
0000
0000
0000
0000
0000
0000
0000
0000
0000
0000
0000
0000
0000
0000
0000
0000
0000
2002
3003
0000
0000
0000
0000
0000
0000
0000
0000
0000
0000
0000
0000
0000
0000
0000
0000
0000
0000
0000
0000
0000
0000
2002
3003
0000
0000
0000
0000
0000
0000
0000
0000
0000
0000
0000
0000
0000
0000
0000
0000
0000
0000
0000
0000
0000
0000
2002
3003
0000
0000
0000
0000
0000
0000
0000
0000
0000
0000
0000
0000
0000
0000
0000
0000
0000
0000
0000
0000
0000
0000
1000
0000
0000
0000
0000
0000
0000
0000
0000
0000
0000
0000
0000
0000
0000
0000
0000
0000
0000
0000
0000
0000
0000
0000
0010
0000
0000
0000
0000
0000
0000
0000
0000
0000
0000
0000
0100
0000
0000
0000
0000
0000
0000
0000
0000
0000
0000
0000
0010
0000
0000
0000
0000
0000
0000
0000
0000
0000
0000
0000
0000
0000
0000
0000
0000
0000
0000
0000
0000
0000
0000
0000
0100
0000
0000
0000
0000
0000
0000
0000
0000
0000
0000
0000
0001
0000
0000
0000
0000
0000
0000
0000
0000
0000
0000
0000
,
0010
0100
1000
0010
1000
0010
0100
0001
0010
0000
0100
0000
1000
0000
0002
0000
,
0000
0000
1000
0000
0100
0000
1003
0000
1010
0000
0010
0100
0001
0100
0010
0100
,
0001
0010
0100
1000
0010
0000
0010
0100
0001
0000
0010
0000
0100
0000
2000
0000
,
0000
0001
0100
3001
0011
0000
1100
0000
,
1000
0010
0000
0100
0001
0010
1000
0010
,
0001
0100
1000
0100
0010
0000
1010
0000
,
0101
0000
0001
0100
0000
0100
0010
0100
,
0001
0000
0010
0000
0100
0000
1000
0000
0001
0000
0000
0001
0010
0000
0000
0010
,
0100
0000
0000
0000
0110
0000
0000
0000
1000
0000
0001
0100
0001
0100
0001
0100
,
0010
0000
0000
0000
0000
0000
0000
0000
0000
0000
0000
0000
0000
0000
0000
0000
0000
0000
0000
0000
0000
0000
0000
0000
0000
0000
0000
0000
0000
0000
0000
0000
0000
0000
0000
0000
0000
0000
0000
0000
0000
0000
0000
0000
0000
0000
0000
0000
0200
0300
0000
0000
0000
0000
0000
0000
0000
0000
0000
0000
0000
0000
0000
0000
0000
0000
0000
0000
0000
0000
0000
0000
0001
0000
0000
0000
0000
0000
0000
0000
0000
0000
0000
0000
0000
0000
0000
0000
0000
0000
0000
0000
0000
0000
0000
0000
1000
0000
0000
0000
0000
0000
0000
0000
0000
0000
0000
0000
0100
0000
0000
0000
0000
0000
0000
0000
0000
0000
0000
0000
0010
0000
0000
0000
0000
0000
0000
0000
0000
0000
0000
0000
0000
0000
0000
0000
0000
0000
0000
0000
0000
0000
0000
0000
0001
0000
0000
0000
0000
0000
0000
0000
0000
0000
0000
0000
0010
0000
0000
0000
0000
0000
0000
0000
0000
0000
0000
0000
0100
0000
0000
0000
0000
0000
0000
0000
0000
0000
0000
0000
0000
0000
0000
0000
0000
0000
0000
0000
0000
0000
0000
0000
,
1000
0100
0010
0000
0100
0000
1000
0000
0001
0100
0010
1000
0010
0100
0001
0000
,
0001
0010
0100
0000
1000
0000
0001
0000
0100
0010
0100
0001
1000
0100
0010
0000
,
0100
1000
0001
0000
0100
0000
1000
0000
0100
0010
0100
0000
0010
0100
0010
0000
,
0100
0001
1000
0000
0010
0000
1000
0100
1000
0100
0010
0000
0100
1000
0001
0100
,
0001
0100
0010
0000
0100
0000
0001
0100
0100
1000
0010
0000
0100
0000
0001
0100
,
0100
1000
0010
0000
0100
0000
0010
1000
0010
1000
0001
0100
0010
0100
0001
0010
,
0001
0010
0100
0000
1000
0000
0010
0100
0001
0010
0100
1000
0001
1000
0010
0000
,
0100
0000
0110
0000
0000
0000
1001
0000
1000
0010
0100
0000
0001
0100
0010
0000
,
1000
0010
0100
0000
0001
0000
1000
0000
0001
0010
0100
0000
1000
0100
0010
0000
,
0001
0010
0100
0000
1000
0000
0001
0000
0100
0010
1000
0001
0010
0100
1000
0000
,
1000
0010
0100
0000
0001
0000
0010
0000
0100
1000
0100
0010
0001
0000
1000
0000
,
0001
0010
0100
0000
1000
0000
0001
0100
0001
0100
0010
0000
0100
0001
1000
0100
,
1000
0100
0010
0000
0100
0000
1000
0100
0100
0001
0010
0000
0100
0000
1000
0100
,
0100
0001
0010
0000
0100
0000
0010
0001
0010
0001
1000
0010
0100
0010
1000
0100
,
1000
0100
0010
0000
0100
0000
1000
0001
0100
0010
0100
0001
1000
0100
0010
0000
,
0100
0000
0000
0000
0000
0000
0000
0000
0000
0000
0000
0000
0000
0000
0000
0000
0000
0000
0000
0000
0000
0000
0000
0000
1100
0000
0000
0000
0000
0000
0000
0000
0000
0000
0000
0000
0000
0000
0000
0000
0000
0000
0000
0000
0000
0000
0000
0000
1000
0000
0000
0000
0000
0000
0000
0000
0000
0000
0000
0000
0000
0000
0000
0000
0000
0000
0000
0000
0000
0000
0000
0000
0020
0030
0000
0000
0000
0000
0000
0000
0000
0000
0000
0000
0000
0000
0000
0000
0000
0000
0000
0000
0000
0000
0000
0000
0200
0000
0000
0000
0000
0000
0000
0000
0000
0000
0000
0000
0000
0000
0000
0000
0000
0000
0000
0000
0000
0000
0000
0000
0301
0000
0000
0000
0000
0000
0000
0000
0000
0000
0000
0000
0000
0000
0000
0000
0000
0000
0000
0000
0000
0000
0000
0000
0010
0000
0000
0000
0000
0000
0000
0000
0000
0000
0000
0000
0100
0000
0000
0000
0000
0000
0000
0000
0000
0000
0000
0000
1000
0000
0000
0000
0000
0000
0000
0000
0000
0000
0000
0000
0000
0000
0000
0000
0000
0000
0000
0000
0000
0000
0000
0000
,
0010
0100
0001
0000
1000
0000
0100
0000
1000
0000
0001
0000
0100
0010
0100
0000
,
0001
0000
1000
0000
1100
0000
1020
0000
0000
0000
0130
0000
0010
0100
0001
0000
,
0010
0100
1000
0000
0010
0000
0100
0000
0010
0000
1000
0000
0001
0000
0010
0100
,
1000
0000
0000
0000
0000
0000
0000
0000
0000
0000
0000
0000
0001
0000
0000
0000
0000
0000
0000
0000
0000
0000
0000
0000
0010
0000
0000
0000
0000
0000
0000
0000
0000
0000
0000
0000
0100
0000
0000
0000
0000
0000
0000
0000
0000
0000
0000
0000
1000
0000
0000
0000
0000
0000
0000
0000
0000
0000
0000
0000
0001
0000
0000
0000
0000
0000
0000
0000
0000
0000
0000
0000
0010
0000
0000
0000
0000
0000
0000
0000
0000
0000
0000
0000
0000
0000
0000
0000
0000
0000
0000
0000
0000
0000
0000
0000
0100
0000
0000
0000
0000
0000
0000
0000
0000
0000
0000
0000
0000
0000
0000
0000
0000
0000
0000
0000
0000
0000
0000
0000
2000
3000
0000
0000
0000
0000
0000
0000
0000
0000
0000
0000
0000
0000
0000
0000
0000
0000
0000
0000
0000
0000
0000
0000
0000
0000
0000
0000
0000
0000
0000
0000
0000
0000
0000
0000
0000
0000
0000
0000
0000
0000
0000
0000
0000
0000
0000
0000
0220
0330
0000
0000
0000
0000
0000
0000
0000
0000
0000
0000
0000
0000
0000
0000
0000
0000
0000
0000
0000
0000
0000
0000
,
2002
3003
0000
0000
0000
0000
0000
0000
0000
0000
0000
0000
0000
0000
0000
0000
0000
0000
0000
0000
0000
0000
0000
0000
0001
0000
0000
0000
0000
0000
0000
0000
0000
0000
0000
0000
0000
0000
0000
0000
0000
0000
0000
0000
0000
0000
0000
0000
0100
0000
0000
0000
0000
0000
0000
0000
0000
0000
0000
0000
0010
0000
0000
0000
0000
0000
0000
0000
0000
0000
0000
0000
0100
0000
0000
0000
0000
0000
0000
0000
0000
0000
0000
0000
0000
0000
0000
0000
0000
0000
0000
0000
0000
0000
0000
0000
0001
0000
0000
0000
0000
0000
0000
0000
0000
0000
0000
0000
1000
0000
0000
0000
0000
0000
0000
0000
0000
0000
0000
0000
0001
0000
0000
0000
0000
0000
0000
0000
0000
0000
0000
0000
0000
0000
0000
0000
0000
0000
0000
0000
0000
0000
0000
0000
0101
0000
0000
0000
0000
0000
0000
0000
0000
0000
0000
0000
0000
0000
0000
0000
0000
0000
0000
0000
0000
0000
0000
0000
1002
0000
0000
0000
0000
0000
0000
0000
0000
0000
0000
0000
0000
0000
0000
0000
0000
0000
0000
0000
0000
0000
0000
0000
,
0000
0000
1003
0000
0010
0100
0001
0000
0010
0100
1000
0000
0001
0000
0100
0000
,
1000
0000
0100
0000
0001
0010
0100
0000
0010
0000
0100
0000
0110
0000
1001
0000
,
0000
1000
0000
1000
0000
0010
0000
0010
,
0000
0100
0000
0100
0000
0001
0000
0001
,
0000
0010
0000
0010
0000
0100
0000
0100
,
0000
1000
0000
1000
0000
0001
0000
1001
,
0000
0000
0001
0100
0001
0100
0001
0000
0010
0000
0100
1000
0100
1000
0100
0000
,
0010
0000
0001
0010
0100
1000
0010
0000
0100
0000
0001
0010
0100
1000
0010
0000
,
0100
0000
0001
0010
0100
0010
0001
1000
0010
0100
0010
1000
0001
0010
0100
1000
,
0001
0000
0000
0000
0000
0000
0000
0000
0000
0000
0000
0000
0010
0000
0000
0000
0000
0000
0000
0000
0000
0000
0000
0000
0100
0000
0000
0000
0000
0000
0000
0000
0000
0000
0000
0000
1000
0000
0000
0000
0000
0000
0000
0000
0000
0000
0000
0000
0010
0000
0000
0000
0000
0000
0000
0000
0000
0000
0000
0000
0100
0000
0000
0000
0000
0000
0000
0000
0000
0000
0000
0000
0010
0000
0000
0000
0000
0000
0000
0000
0000
0000
0000
0000
1000
0000
0000
0000
0000
0000
0000
0000
0000
0000
0000
0000
0001
0000
0000
0000
0000
0000
0000
0000
0000
0000
0000
0000
0010
0000
0000
0000
0000
0000
0000
0000
0000
0000
0000
0000
0200
0300
0000
0000
0000
0000
0000
0000
0000
0000
0000
0000
0000
0000
0000
0000
0000
0000
0000
0000
0000
0000
0000
0000
0110
0000
0000
0000
0000
0000
0000
0000
0000
0000
0000
0000
0000
0000
0000
0000
0000
0000
0000
0000
0000
0000
0000
0000
1001
0000
0000
0000
0000
0000
0000
0000
0000
0000
0000
0000
0000
0000
0000
0000
0000
0000
0000
0000
0000
0000
0000
0000
,
0001
0010
0100
0000
1000
0100
0010
0000
0001
0010
1000
0000
0010
0000
0001
0000
,
1000
0010
0100
0000
0001
0100
0010
0000
1000
0010
0001
0000
0010
0000
1000
0000
,
0001
0010
0100
1000
0010
0100
0001
0000
1000
0100
0001
0000
0100
0000
1000
0000
,
1000
0010
0100
0001
0010
0100
1000
0000
0001
0100
1000
0000
0100
0000
0001
0010
,
0100
0010
0001
0000
1000
0010
0100
0010
1000
0001
0010
0000
0100
0000
1000
0100
,
0100
0001
0010
0000
0100
0000
1000
0100
0100
0001
0010
0000
0100
0000
0010
0001
,
0010
0001
1000
0100
0010
0001
1000
0010
1000
0010
0001
0000
0010
0000
0100
0001
,
0010
0100
1000
0001
1000
0100
0001
0000
0100
0000
0110
0000
0000
0000
1001
0000
,
0001
0100
0010
0000
1000
0010
0100
0000
0001
0100
1000
0000
0100
0000
0001
0000
,
1000
0100
0010
0000
0001
0010
0100
0000
1000
0100
0001
0000
0100
0000
1000
0000
,
0001
0100
0010
0100
0001
0010
0100
0000
1000
0010
0001
0000
0010
0000
1000
0000
,
1000
0100
0010
0100
1000
0010
0100
0000
0001
0010
1000
0000
0010
0000
0001
0100
,
0010
0100
0001
0000
0001
1000
0100
0010
0100
1000
0001
0000
0100
0000
0001
0100
,
0100
1000
0010
0000
0100
0000
0001
0100
0100
1000
0010
0000
0100
0000
0010
1000
,
0010
1000
0001
0010
0100
1000
0001
0100
0001
0100
1000
0000
0100
0000
0001
1000
,
0001
0000
0000
0000
0000
0000
0000
0000
0000
0000
0000
0000
1000
0000
0000
0000
0000
0000
0000
0000
0000
0000
0000
0000
0100
0000
0000
0000
0000
0000
0000
0000
0000
0000
0000
0000
0001
0000
0000
0000
0000
0000
0000
0000
0000
0000
0000
0000
1000
0000
0000
0000
0000
0000
0000
0000
0000
0000
0000
0000
0010
0000
0000
0000
0000
0000
0000
0000
0000
0000
0000
0000
0001
0000
0000
0000
0000
0000
0000
0000
0000
0000
0000
0000
0000
0000
0000
0000
0000
0000
0000
0000
0000
0000
0000
0000
0100
0000
0000
0000
0000
0000
0000
0000
0000
0000
0000
0000
0000
0000
0000
0000
0000
0000
0000
0000
0000
0000
0000
0000
0010
0000
0000
0000
0000
0000
0000
0000
0000
0000
0000
0000
0000
0000
0000
0000
0000
0000
0000
0000
0000
0000
0000
0000
1000
0000
0000
0000
0000
0000
0000
0000
0000
0000
0000
0000
0000
0000
0000
0000
0000
0000
0000
0000
0000
0000
0000
0000
0002
0003
0000
0000
0000
0000
0000
0000
0000
0000
0000
0000
0000
0000
0000
0000
0000
0000
0000
0000
0000
0000
0000
0000
,
0200
0310
0000
1001
0000
0010
0000
1001
,
0000
0001
0010
0100
1000
0002
0100
1000
,
0013
0100
0000
1001
0000
0100
0000
1001
,
0000
1000
0010
0100
0001
2000
0100
0001
,
3010
0100
0000
1001
0000
0010
0000
1001
,
0000
1000
0010
0100
0001
1000
0000
0011
,
0000
1100
0000
1000
0010
0100
0001
0010
,
0100
1000
0001
1000
0001
0100
0010
1000
,
0001
0000
1000
0000
0001
0010
0100
0000
1000
0100
0010
0000
0001
0010
0100
0000
,
1000
0000
0100
0010
0001
0010
0100
1000
0100
0010
0001
0000
0011
0000
0110
0000
,
1100
0000
1000
0000
0001
0100
0010
0000
1000
0010
0100
0000
0001
0100
0010
0000
,
1000
0000
0010
0100
0001
0100
0010
1000
0010
0100
0001
0000
0101
0000
0110
0000
,
1010
0000
1000
0000
0001
0010
0100
0000
1000
0001
1000
0000
0001
0010
0100
0000
,
0010
0000
0001
0010
0100
1000
0001
1000
0100
0010
0001
0000
0000
0000
1000
0001
,
1000
0001
0100
0000
0010
1000
0001
0000
0010
0100
1000
0000
0001
0100
0010
0000
,
1000
0000
0010
0100
0001
0010
0100
1000
0001
0100
0010
0000
0110
0000
0000
0000
,
1001
0000
0000
0000
;
