#TITLE:「Q」;
#SUBTITLE:;
#ARTIST:Calliope Mori x Gawr Gura x DECO*27;
#TITLETRANSLIT:Q;
#SUBTITLETRANSLIT:;
#ARTISTTRANSLIT:Calliope Mori x Gawr Gura x DECO*27;
#GENRE:POP;
#CREDIT:;
#MUSIC:Q.ogg;
#BANNER:Q.png;
#BACKGROUND:Q-bg.png;
#CDTITLE:;
#SAMPLESTART:29.775;
#SAMPLELENGTH:10.787;
#SELECTABLE:YES;
#OFFSET:-0.112;
#BPMS:0.000=89.000
,28.000=178.000
,124.500=89.000
,153.500=178.000
,190.500=89.000
,191.500=178.000
,253.500=89.000
,254.500=178.000
,350.500=89.000
;
#STOPS:123.500=2.528
,147.500=0.169
,147.750=0.169
,190.500=2.022
,350.000=2.697
;
#BGCHANGES:3.750=Q.avi=1.000=0=0=0=StretchNoLoop====,
99999.000=-nosongbg-=1.000=0=0=0=StretchNoLoop====
;
#FGCHANGES:;

//--------------- dance-single - ----------------
#NOTES:
     dance-single:
     :
     Hard:
     13:
     0.654371,0.811015,0.790849,0.563084,0.183477,724,599,125,89,0,0,0.654371,0.811015,0.790849,0.563084,0.183477,724,599,125,89,0,0:
0000
0000
0000
0000
,
0000
0000
0000
0000
,
0000
0000
0000
0000
,
1001
0000
0001
0100
0001
0100
0001
0010
0100
0000
0110
0000
1001
0000
1000
0010
,
0100
0000
0110
0000
0000
0100
0001
1000
0000
1010
0000
0011
0000
0001
0100
0000
,
1100
0000
1000
0100
1000
0100
1000
0010
0100
0000
0110
0000
0000
0001
0010
0100
,
1000
0000
1001
0000
0110
0000
0100
0001
0000
0010
0100
0010
0000
0001
2000
0000
,
3001
0100
0010
0000
1010
0000
1100
0000
,
1000
0100
1000
0001
0101
0000
0011
0000
,
1000
0100
0010
0001
0100
0010
0100
0001
,
0010
0010
0100
0100
1000
0001
1000
0000
,
0110
0000
0000
0010
0000
0000
0100
0000
0001
0000
1000
0000
0000
0000
1000
0000
,
0100
0010
1000
0010
0001
0100
1000
0000
,
0100
0000
0000
0101
0000
0000
0001
0000
0010
0000
0000
1100
0000
0000
1000
0000
,
0001
0100
0001
0100
0010
1000
1001
0000
,
0011
0000
1001
0000
1100
0000
1000
0001
,
0000
1000
0010
1000
0010
0100
0001
0010
,
1100
0000
1010
0000
0101
0000
0010
0100
,
1000
0010
1000
0010
0100
0001
0100
0001
,
0010
0000
0100
1000
1020
0000
0130
0001
,
0021
0000
0130
1000
1001
0000
0110
0000
,
1010
0100
0001
0010
0011
0100
1000
0010
,
0110
0100
0001
1000
1010
0000
0110
0000
,
0011
0101
0011
0101
,
1010
1100
1010
1100
,
0001
0010
0100
1000
0010
0000
0100
0001
,
0000
0001
0010
0100
1000
0100
0010
1000
,
1010
0011
1010
0011
,
0101
1100
0101
1100
,
0110
0100
0001
1000
1001
0000
0001
0000
,
0010
0100
0010
0100
1000
0001
1000
0020
,
0000
0000
0130
0000
0000
0000
0001
0000
1000
0000
1100
0000
0000
1000
0100
0010
,
0100
1000
0001
0000
0000
0000
0001
0000
0100
0000
0010
0000
0000
0000
0101
0000
,
0010
0000
1001
0000
0000
0000
1000
0000
0010
0000
0110
0000
0000
0100
0001
0000
,
1000
0011
0000
1000
0100
0001
0100
1000
,
1010
0000
1001
0000
0000
0001
1000
0000
0010
0000
0100
0000
0100
0001
0100
0000
,
0001
0000
0000
0000
0000
0000
0000
0000
0000
0000
0000
0000
0000
0000
0000
0000
0000
0000
0000
0000
0000
0000
0000
0000
0010
0000
0000
0000
0000
0000
0000
0000
0000
0000
0000
0000
0000
0000
0000
0000
0000
0000
0000
0000
0000
0000
0000
0000
0100
0000
0000
0000
0000
0000
0000
0000
0000
0000
0000
0000
0000
0000
0000
0000
0000
0000
0000
0000
0000
0000
0000
0000
1000
0000
0000
0000
0000
0000
0000
0000
0000
0000
0000
0000
0000
0000
0000
0000
0000
0000
0000
0000
0000
0000
0000
0000
0010
0000
0000
0000
0000
0000
0000
0000
0000
0000
0000
0000
0000
0000
0000
0000
0000
0000
0000
0000
0000
0000
0000
0000
0010
0000
0000
0000
0000
0000
0000
0000
0000
0000
0000
0000
0100
0000
0000
0000
0000
0000
0000
0000
0000
0000
0000
0000
0010
0000
0000
0000
0000
0000
0000
0000
0000
0000
0000
0000
0100
0000
0000
0000
0000
0000
0000
0000
0000
0000
0000
0000
0002
0003
0000
0000
0000
0000
0000
0000
0000
0000
0000
0000
2000
3000
0000
0000
0000
0000
0000
0000
0000
0000
0000
0000
,
2002
0000
3003
0000
0110
0000
0100
0001
0010
0000
0100
1000
0010
0000
1100
0000
,
0011
0000
0001
1000
0100
0000
2000
0000
3100
0000
1000
0000
0100
0000
0010
0000
,
0001
1000
0000
1001
0000
0000
1000
0001
,
0010
0100
0000
0100
1000
0000
0001
0100
,
0010
0100
1000
0100
0001
0000
0001
0010
,
0100
0000
0100
1000
0001
0100
0010
0100
,
0010
0000
1000
0001
0000
0001
0010
0100
,
1000
0100
0010
0001
1000
0010
0100
0001
,
0100
0000
0010
0000
1000
0000
0000
0000
1000
0000
0010
0000
0100
0001
0000
0010
,
0100
0000
1000
0000
0001
0100
0000
0001
0010
0000
0100
0000
1000
0010
0000
1000
,
0001
0000
0000
0000
0000
0000
0000
0000
0000
0000
0000
0000
0000
0000
0000
0000
0000
0000
0000
0000
0000
0000
0000
0000
0010
0000
0000
0000
0000
0000
0000
0000
0000
0000
0000
0000
0000
0000
0000
0000
0000
0000
0000
0000
0000
0000
0000
0000
0100
0000
0000
0000
0000
0000
0000
0000
0000
0000
0000
0000
0000
0000
0000
0000
0000
0000
0000
0000
0000
0000
0000
0000
1000
0000
0000
0000
0000
0000
0000
0000
0000
0000
0000
0000
0000
0000
0000
0000
0000
0000
0000
0000
0000
0000
0000
0000
0001
0000
0000
0000
0000
0000
0000
0000
0000
0000
0000
0000
0000
0000
0000
0000
0000
0000
0000
0000
0000
0000
0000
0000
2002
3003
0000
0000
0000
0000
0000
0000
0000
0000
0000
0000
0000
0000
0000
0000
0000
0000
0000
0000
0000
0000
0000
0000
0000
0000
0000
0000
0000
0000
0000
0000
0000
0000
0000
0000
0000
0000
0000
0000
0000
0000
0000
0000
0000
0000
0000
0000
0101
0000
0000
0000
0000
0000
0000
0000
0000
0000
0000
0000
0000
0000
0000
0000
0000
0000
0000
0000
0000
0000
0000
0000
,
0000
1100
0000
0101
0000
1000
0001
0000
,
0001
0100
0001
0100
0001
0010
0100
1100
,
0000
0101
0000
1100
0000
1000
0100
1000
,
0001
1000
0001
0100
0001
0010
0100
1000
,
0000
1000
0000
0010
0000
0010
0000
0100
,
0000
0100
0000
0001
0000
0001
0010
0200
,
1000
1300
0010
0200
0001
0301
0010
0100
,
1000
0001
0100
2000
0000
3100
0000
0101
,
0000
0011
0000
1100
0000
1010
0000
0101
,
0000
0110
0000
1010
0000
1001
0000
1000
,
0100
0001
0100
1000
0000
0010
0010
0000
,
0100
0001
0010
0100
1000
0010
0100
0101
,
0000
1001
0000
1100
0000
1001
0000
0011
,
0000
0110
0000
1010
0000
0110
0000
0100
,
0001
1000
0001
0010
0100
0010
0100
1000
,
0010
0000
0000
0000
0000
0000
0000
0000
0000
0000
0000
0000
0000
0000
0000
0000
0000
0000
0000
0000
0000
0000
0000
0000
0100
0000
0000
0000
0000
0000
0000
0000
0000
0000
0000
0000
0000
0000
0000
0000
0000
0000
0000
0000
0000
0000
0000
0000
0001
0000
0000
0000
0000
0000
0000
0000
0000
0000
0000
0000
0000
0000
0000
0000
0000
0000
0000
0000
0000
0000
0000
0000
2000
3000
0000
0000
0000
0000
0000
0000
0000
0000
0000
0000
0200
0300
0000
0000
0000
0000
0000
0000
0000
0000
0000
0000
0020
0000
0030
0000
0000
0000
0000
0000
0000
0000
0000
0000
0002
0003
0000
0000
0000
0000
0000
0000
0000
0000
0000
0000
2000
3000
0000
0000
0000
0000
0000
0000
0000
0000
0000
0000
0000
0000
0000
0000
0000
0000
0000
0000
0000
0000
0000
0000
0000
0000
0000
0000
0000
0000
0000
0000
0000
0000
0000
0000
0000
0000
0000
0000
0000
0000
0000
0000
0000
0000
0000
0000
0110
0000
0000
0000
0000
0000
0000
0000
0000
0000
0000
0000
0000
0000
0000
0000
0000
0000
0000
0000
0000
0000
0000
0000
,
0000
1001
0000
0001
0100
0000
0010
0100
,
0010
1000
0100
0010
0100
1100
0000
1001
,
0000
0101
0000
0001
1000
0100
0010
0100
,
1000
0001
0100
0010
0100
0001
0000
0001
,
0010
0200
0000
2300
0010
3200
0000
0302
,
0010
2003
0000
3001
0100
2000
0010
3010
,
0100
0002
0010
0013
0100
1000
0100
0001
,
1000
0010
0001
0100
0010
1010
0000
0101
,
0000
0011
0000
1100
0000
0011
0000
0110
,
0000
1010
0000
0110
0000
0001
1000
0100
,
0010
2000
0000
3010
0002
0000
1003
0010
,
0100
1000
0100
0001
0010
1100
0000
1010
,
0000
0101
0000
0011
0000
1100
0000
1001
,
0000
0101
0000
1010
0000
1000
0010
0100
,
1000
0100
0001
0010
1000
0001
0100
0001
,
0100
1000
0001
0100
0010
1010
0000
0101
,
0000
0011
0000
0110
0000
1100
0000
1001
,
0000
0011
0000
0110
0000
0100
1000
0010
,
0001
0010
0000
0100
0001
1000
0100
0010
,
1000
0010
0100
1000
0010
0110
0000
1100
,
0000
0110
0000
0101
0000
0011
0000
0110
,
0000
1010
0000
0110
0000
0010
0001
0100
,
0010
0110
0000
1001
0000
0001
0010
0100
,
1000
0000
0000
0000
0000
0000
0000
0000
0000
0000
0000
0000
0000
0000
0000
0000
0000
0000
0000
0000
0000
0000
0000
0000
0001
0000
0000
0000
0000
0000
0000
0000
0000
0000
0000
0000
0000
0000
0000
0000
0000
0000
0000
0000
0000
0000
0000
0000
0100
0000
0000
0000
0000
0000
0000
0000
0000
0000
0000
0000
0000
0000
0000
0000
0000
0000
0000
0000
0000
0000
0000
0000
0010
0000
0000
0000
0000
0000
0000
0000
0000
0000
0000
0000
0000
0000
0000
0000
0000
0000
0000
0000
0000
0000
0000
0000
2000
3000
0000
0000
0000
0000
0000
0000
0000
0000
0000
0000
0000
0000
0000
0000
0000
0000
0000
0000
0000
0000
0000
0000
1001
0000
0000
0000
0000
0000
0000
0000
0000
0000
0000
0000
0000
0000
0000
0000
0000
0000
0000
0000
0000
0000
0000
0000
1000
0000
0000
0000
0000
0000
0000
0000
0000
0000
0000
0000
0100
0000
0000
0000
0000
0000
0000
0000
0000
0000
0000
0000
1000
0000
0000
0000
0000
0000
0000
0000
0000
0000
0000
0000
0100
0000
0000
0000
0000
0000
0000
0000
0000
0000
0000
0000
,
1000
0010
0100
0000
0110
0000
1001
0000
0001
0010
0100
0000
0110
0000
0000
0100
,
1000
0001
0000
0011
0000
1010
0000
1000
0100
0000
0101
0000
0001
0100
0001
0100
,
0001
0010
0100
0000
0110
0000
0000
1000
0010
0100
0001
0000
1001
0000
0110
0000
,
0100
0010
0000
0100
0001
1000
0000
2000
0002
3003
0000
0000
0000
0000
0000
0000
;

//--------------- dance-single - ----------------
#NOTES:
     dance-single:
     :
     Challenge:
     17:
     0.907443,1.013769,0.607372,0.575738,0.787686,1004,908,96,91,0,0,0.907443,1.013769,0.607372,0.575738,0.787686,1004,908,96,91,0,0:
0000
0000
0000
0000
,
0000
0000
0000
0000
,
0000
0000
0000
0000
,
0101
0000
0000
0000
0001
0000
1000
0000
0100
0000
1000
0000
0001
0000
0010
0000
0210
0000
0000
0000
1300
0000
0010
0100
0010
0000
1000
0000
0010
0000
0100
0000
,
0102
0000
0000
0000
0013
0000
0000
0000
1100
0000
0100
0000
1000
0000
0200
0000
0000
0000
0310
0000
0001
0000
1000
0010
1000
0000
0001
0000
0101
0000
0000
0000
,
1100
0000
0000
0000
1000
0000
0010
0000
0100
0000
0001
0000
0010
0000
0000
0000
0021
0000
0000
0000
0130
0000
1000
0001
1000
0000
0010
0000
0110
0000
0000
0000
,
1020
0000
0000
0000
0130
0000
0001
0000
0010
0000
0000
0000
0110
0000
0000
0000
1001
0000
0000
0000
0001
0010
0001
0010
0100
0000
1000
0000
0020
0000
0000
0000
,
0130
0000
0010
0000
1000
0000
0001
0000
1001
0000
0000
0000
0110
0000
0010
1000
,
0100
0000
0010
0000
0100
0000
1000
0010
1000
0000
0010
0100
0010
0000
1000
0000
,
1100
0000
0100
0000
0010
0000
0001
0010
0100
0000
1000
0000
1010
0000
0010
0000
,
0101
0000
0001
0010
0100
0000
0010
0000
0110
0000
0100
1000
0001
0000
0100
0001
,
0010
0000
1000
0010
0000
0000
0100
1000
0010
0000
0001
0010
0000
0000
0100
0001
,
0010
0000
1000
0000
0010
0100
0000
0100
1000
0001
0100
0000
0110
0000
0010
1000
,
0100
0000
0100
0001
0000
0000
1000
0010
0001
0100
0000
0110
0000
0000
1001
0000
,
1000
0000
0010
0000
0100
0000
0000
0000
0101
0000
0000
0001
0000
0010
0000
0100
0000
0000
1100
0000
0000
0000
1000
0000
0010
0000
0100
0000
0000
0000
0000
0000
,
0102
0000
0013
0100
2100
0000
3010
0210
,
0000
0000
0001
0000
0010
0000
0301
1000
0200
0000
0010
0000
1000
0000
0310
0000
,
2100
0000
3010
0100
0102
0000
0013
0110
,
0200
0000
1000
0001
0320
0000
0100
1000
0032
0000
1000
0010
0103
0000
0010
0000
,
1010
0000
1010
0000
0002
0013
0200
1300
,
0200
0310
0002
0103
2000
3100
0002
1003
,
2100
0000
0001
0000
3010
0000
0100
0000
0102
0000
1000
0000
0013
0000
0100
1000
,
0010
0000
0100
0001
0010
0000
0011
0000
1100
0000
0100
1000
0001
0000
0100
0000
,
0102
1003
0020
0130
0002
1003
0200
0310
,
2000
3010
0200
1300
0002
0103
0020
0030
,
0101
0000
0001
1000
0010
0000
0100
0000
1010
0000
0000
0000
1100
0000
0200
0000
,
0000
0000
0310
0001
0010
0000
0100
0010
0100
0000
1000
0100
0010
0100
1000
0100
,
0020
0031
2000
3100
0020
0130
2000
3001
,
0200
0310
0002
0013
2000
3100
0020
0030
,
0110
0000
0100
1000
0001
0000
0100
0000
0101
0000
0001
1000
0010
0000
0110
0000
,
0100
0001
0100
0001
1000
0000
0100
0000
0010
0001
0010
0001
1000
0000
0020
0000
,
0000
0000
0000
0000
0130
0000
0000
0000
0000
0000
0100
0000
0001
0000
0000
0000
0010
0000
0000
0000
0100
0000
0000
0000
1000
0000
0100
0010
0100
0000
1000
0000
,
0001
0000
0100
0000
0210
0000
0010
0000
0000
0000
0000
0000
0301
0000
0000
0000
0010
0000
0000
0000
0100
0000
1000
0000
0100
0000
1000
0000
0001
0000
0100
0010
,
0100
0000
0001
0000
2001
0000
0000
0000
0000
0000
3010
0000
0100
0000
0000
0000
0101
0000
0000
0000
1010
0000
0000
0000
1000
0000
0001
0010
0001
0000
0000
0000
,
0011
0000
0000
0000
1100
0000
0000
0000
0000
0000
0000
0000
1000
0000
0000
0000
0100
0000
0000
0000
0001
0000
0000
0000
0100
0000
0000
0000
1000
0000
0001
0100
,
0020
0000
2030
0000
3010
0100
0010
0000
2010
0000
3100
0000
0100
0001
0100
0000
,
2100
0000
0000
0000
0000
0000
0000
0000
0000
0000
0000
0000
0000
0000
0000
0000
0000
0000
0000
0000
0000
0000
0000
0000
3020
0000
0000
0000
0000
0000
0000
0000
0000
0000
0000
0000
0000
0000
0000
0000
0000
0000
0000
0000
0000
0000
0000
0000
0230
0000
0000
0000
0000
0000
0000
0000
0000
0000
0000
0000
0000
0000
0000
0000
0000
0000
0000
0000
0000
0000
0000
0000
0301
0000
0000
0000
0000
0000
0000
0000
0000
0000
0000
0000
0000
0000
0000
0000
0000
0000
0000
0000
0000
0000
0000
0000
0101
0000
0000
0000
0000
0000
0000
0000
0000
0000
0000
0000
0000
0000
0000
0000
0000
0000
0000
0000
0000
0000
0000
0000
0100
0000
0000
0000
0000
0000
0000
0000
0000
0000
0000
0000
1000
0000
0000
0000
0000
0000
0000
0000
0000
0000
0000
0000
0100
0000
0000
0000
0000
0000
0000
0000
0000
0000
0000
0000
0001
0000
0000
0000
0000
0000
0000
0000
0000
0000
0000
0000
0202
0303
0000
0000
0000
0000
0000
0000
0000
0000
0000
0000
2200
3300
0000
0000
0000
0000
0000
0000
0000
0000
0000
0000
,
2002
0000
3003
0000
0110
0000
0100
0001
1000
0000
0100
0010
0100
0000
1100
0000
,
0011
0000
0001
0100
0010
0000
2000
0000
3001
0010
0001
0000
0100
0000
0010
0000
,
1000
0000
0001
0100
0001
0100
0001
0000
0100
0000
1001
0000
1000
0000
0100
0000
,
0001
0000
0100
0000
1000
0010
0100
0000
1000
0000
0100
0000
0001
0010
0100
0000
,
0010
0000
0001
1000
0100
1000
0100
0000
0020
0000
0000
0000
0130
0000
1000
0000
,
0001
0000
1000
0000
0010
0100
0010
0000
0001
0000
1000
0100
0010
0000
1000
0100
,
0010
0000
0001
0000
0011
0000
1100
0000
0000
0000
0001
0010
0100
0010
0001
0000
,
1000
0000
0100
0010
0100
1000
0010
0100
0001
0000
0100
0000
1000
0100
0010
0000
,
0100
0001
1000
0000
0001
0010
0000
0100
1000
0010
0100
0000
0100
0001
0000
0001
,
0010
0100
1000
0000
0001
0100
0000
0100
0010
0000
1010
0000
1000
0010
0000
0010
,
0001
0000
0000
0000
0000
0000
0000
0000
0000
0000
0000
0000
0000
0000
0000
0000
0000
0000
0000
0000
0000
0000
0000
0000
0010
0000
0000
0000
0000
0000
0000
0000
0000
0000
0000
0000
0000
0000
0000
0000
0000
0000
0000
0000
0000
0000
0000
0000
0100
0000
0000
0000
0000
0000
0000
0000
0000
0000
0000
0000
0001
0000
0000
0000
0000
0000
0000
0000
0000
0000
0000
0000
1000
0000
0000
0000
0000
0000
0000
0000
0000
0000
0000
0000
0000
0000
0000
0000
0000
0000
0000
0000
0000
0000
0000
0000
0100
0000
0000
0000
0000
0000
0000
0000
0000
0000
0000
0000
0000
0000
0000
0000
0000
0000
0000
0000
0000
0000
0000
0000
2200
3300
0000
0000
0000
0000
0000
0000
0000
0000
0000
0000
0000
0000
0000
0000
0000
0000
0000
0000
0000
0000
0000
0000
0000
0000
0000
0000
0000
0000
0000
0000
0000
0000
0000
0000
0000
0000
0000
0000
0000
0000
0000
0000
0000
0000
0000
0000
1100
0000
0000
0000
0000
0000
0000
0000
0000
0000
0000
0000
0000
0000
0000
0000
0000
0000
0000
0000
0000
0000
0000
0000
,
0000
0101
0000
1010
0000
1000
0101
0000
,
0001
0010
0100
0010
0100
1000
0001
0101
,
0000
1010
0000
1100
0000
0001
0101
0100
,
1000
0100
1000
0100
0001
0010
0100
1000
,
0000
1000
0100
0010
0000
0010
0001
0100
,
0000
0100
0010
1000
0000
1000
1100
1010
,
0010
0100
0101
0011
0010
0100
1000
0110
,
0001
0110
1000
0001
1000
0001
1000
0010
,
0100
0001
1000
0000
1000
0100
1000
0000
1000
0010
0100
0000
0010
1000
0001
0000
,
0001
0100
0001
0000
0001
0010
0100
0000
0010
0001
1000
0000
0010
0000
1010
0000
,
1000
0020
0100
0000
0130
0000
0001
0000
1000
0200
0010
0000
0310
0000
0001
0000
,
1000
0010
0100
0000
0100
0010
1000
0001
0010
0100
0001
0100
0010
0001
0100
0000
,
0010
1000
0001
0000
0001
0100
0001
0000
0001
0010
0100
0000
0010
0001
1000
0000
,
1000
0100
1000
0000
1000
0010
0100
0000
0010
1000
0001
0000
0010
0000
0110
0000
,
0010
0000
0001
0000
1000
0000
1001
0000
1000
0000
0010
0000
0100
0000
0001
0100
,
0001
0000
0000
0000
0000
0000
0000
0000
0000
0000
0000
0000
0100
0000
0000
0000
0000
0000
0000
0000
0000
0000
0000
0000
0001
0000
0000
0000
0000
0000
0000
0000
0000
0000
0000
0000
0100
0000
0000
0000
0000
0000
0000
0000
0000
0000
0000
0000
0001
0000
0000
0000
0000
0000
0000
0000
0000
0000
0000
0000
0100
0000
0000
0000
0000
0000
0000
0000
0000
0000
0000
0000
0020
0030
0000
0000
0000
0000
0000
0000
0000
0000
0000
0000
2000
3000
0000
0000
0000
0000
0000
0000
0000
0000
0000
0000
0200
0300
0000
0000
0000
0000
0000
0000
0000
0000
0000
0000
0020
0030
0000
0000
0000
0000
0000
0000
0000
0000
0000
0000
0002
0003
0000
0000
0000
0000
0000
0000
0000
0000
0000
0000
0000
0000
0000
0000
0000
0000
0000
0000
0000
0000
0000
0000
0100
0000
0000
0000
0000
0000
0000
0000
0000
0000
0000
0000
0010
0000
0000
0000
0000
0000
0000
0000
0000
0000
0000
0000
0100
0000
0000
0000
0000
0000
0000
0000
0000
0000
0000
0000
0000
0000
0000
0000
0000
0000
0000
0000
0000
0000
0000
0000
,
0001
0000
1000
0000
0100
0010
0100
0000
1000
0000
0001
0000
1000
0100
1000
0010
,
1000
0001
1000
0100
1000
0010
1000
0001
1000
0100
0010
0000
0010
0100
0010
0000
,
0001
0000
1000
0000
0010
0100
0010
0000
1000
0000
0001
0010
0001
0100
0001
1000
,
0001
0010
0001
0100
0001
1000
0001
0010
0100
1000
0001
0000
0100
0000
0001
0000
,
1000
0000
0020
0000
0100
0001
2030
0000
0100
0000
3020
0000
0100
1000
0032
0000
,
0100
0000
0023
0000
0100
0001
2030
0000
3100
0000
2100
0000
0010
0000
3010
0000
,
1000
0000
0102
0000
0010
0000
0013
0000
0100
0000
1000
0010
0100
0000
0010
1000
,
0001
0000
1000
0100
0010
0001
1000
0100
0010
0001
1000
0000
0001
0100
0010
0000
,
0010
0001
0010
0000
0010
1000
0001
0000
1000
0100
0010
0000
0010
1000
0010
0000
,
0010
0001
1000
0000
0001
0100
0010
0000
0100
0000
1000
0000
0100
0000
0010
0000
,
0001
0000
2000
0000
0000
0000
3100
0000
0002
0000
0000
0000
1003
0100
0010
0000
,
0100
1000
0010
0000
0100
0001
0010
0100
1000
0010
0100
0000
0001
0010
0100
0000
,
0100
0001
0100
0000
0100
1000
0001
0000
1000
0010
0100
0000
0100
1000
0100
0000
,
0100
0001
1000
0000
0001
0010
0100
0000
1000
0000
1010
0000
1000
0010
0100
0000
,
0001
0000
0101
0000
0001
0010
0100
0000
1000
0000
0001
0100
0010
1000
0001
0000
,
0010
0000
1100
0000
1000
0000
0101
0000
0001
0000
1010
0000
1000
0001
0010
0000
,
0100
0000
0100
0000
0001
1000
0010
0000
0100
0000
0100
0000
1000
0001
0010
0000
,
0100
0000
0100
0000
0001
1000
0010
0000
0100
0000
0001
0000
0010
0100
1000
0010
,
1000
0100
0010
0000
0100
1000
0010
0000
0100
0000
0001
0010
0100
1000
0001
0010
,
0001
1000
0100
0010
0001
1000
0100
1000
0001
0010
0100
0000
1000
0001
0100
0000
,
0010
0000
0010
0000
0001
1000
0100
0000
0010
0000
0010
0000
1000
0001
0100
0000
,
0010
0000
0010
0000
0001
1000
0100
0000
0010
0000
0011
0000
0001
0010
0001
0010
,
0100
0000
1100
0000
1000
0010
1000
0010
0100
0000
0002
0000
0023
0100
2030
0000
,
3020
0000
0000
0000
0000
0000
0000
0000
0000
0000
0000
0000
0100
0000
0000
0000
0000
0000
0000
0000
0000
0000
0000
0000
0032
0000
0000
0000
0000
0000
0000
0000
0000
0000
0000
0000
0000
0000
0000
0000
0000
0000
0000
0000
0000
0000
0000
0000
0023
0000
0000
0000
0000
0000
0000
0000
0000
0000
0000
0000
0100
0000
0000
0000
0000
0000
0000
0000
0000
0000
0000
0000
2030
0000
0000
0000
0000
0000
0000
0000
0000
0000
0000
0000
0000
0000
0000
0000
0000
0000
0000
0000
0000
0000
0000
0000
0002
3003
0000
0000
0000
0000
0000
0000
0000
0000
0000
0000
0000
0000
0000
0000
0000
0000
0000
0000
0000
0000
0000
0000
1100
0000
0000
0000
0000
0000
0000
0000
0000
0000
0000
0000
0000
0000
0000
0000
0000
0000
0000
0000
0000
0000
0000
0000
1000
0000
0000
0000
0000
0000
0000
0000
0000
0000
0000
0000
0001
0000
0000
0000
0000
0000
0000
0000
0000
0000
0000
0000
0100
0000
0000
0000
0000
0000
0000
0000
0000
0000
0000
0000
0001
0000
0000
0000
0000
0000
0000
0000
0000
0000
0000
0000
,
1000
0000
0010
0000
0210
0000
0000
0000
0301
0000
0010
0100
0010
0000
0001
0000
0010
0000
0100
0000
2100
0000
0000
0000
3010
0000
0000
0000
0101
0000
0100
0000
,
0001
0000
0200
0000
0000
0000
0310
0000
1000
0000
0001
0010
0001
0000
1000
0000
1100
0000
0000
0000
0101
0000
0000
0000
0001
0000
0010
0000
0100
0000
1000
0000
,
0010
0000
0000
0000
1020
0000
0000
0000
0130
0000
0001
1000
0001
0000
0010
0000
0110
0000
0000
0000
0021
0000
0000
0000
0130
0000
1000
0000
0010
0000
0000
0000
,
0110
0010
1000
0100
0001
1000
0010
0002
2000
3003
0000
0000
0000
0000
0000
0000
;
