#TITLE:プシ;
#SUBTITLE:;
#ARTIST:r-906 feat.初音ミク;
#TITLETRANSLIT:Psi;
#SUBTITLETRANSLIT:;
#ARTISTTRANSLIT:r-906 feat.Hatsune Miku;
#GENRE:POP;
#CREDIT:;
#MUSIC:Psi.ogg;
#BANNER:Psi.png;
#BACKGROUND:Psi-bg.png;
#CDTITLE:;
#SAMPLESTART:24.859;
#SAMPLELENGTH:11.034;
#SELECTABLE:YES;
#OFFSET:1.348;
#BPMS:0.000=174.000;
#STOPS:;
#LASTBEATHINT:0.955289;
#BGCHANGES:7.750=Psi.avi=1.000=0=0=0=StretchNoLoop====,
99999.000=-nosongbg-=1.000=0=0=0=StretchNoLoop====
;
#FGCHANGES:;

//--------------- dance-single - ----------------
#NOTES:
     dance-single:
     :
     Medium:
     13:
     0,0,0,0,0:
0000
0000
0000
0000
,
0000
0000
0000
0000
,
0000
0000
0000
0000
,
0000
0000
0000
0000
,
0000
0000
0000
0000
,
0000
0000
0000
0000
,
0000
0000
0000
0000
,
0000
0000
0000
0000
,
0000
0000
0000
0000
,
0000
0000
0000
0000
,
0000
0000
0000
0000
,
0001
1000
0100
0000
0010
0001
1000
0000
,
0010
0100
0010
0000
1000
0001
1000
0000
,
0100
1000
0001
0000
0010
0100
1000
0000
,
0001
0100
0001
0000
1000
0010
1000
0000
,
0010
0100
0001
0010
0001
1000
0010
0100
,
0010
1000
0100
1000
0010
0100
0010
1000
,
0001
0100
0010
0100
0001
1000
0001
0010
,
0100
1000
0000
1100
0000
0000
0000
0000
,
1001
0001
0100
0010
1000
0001
0000
1000
,
0100
0010
0001
1000
0000
0010
0000
0100
,
0001
1000
0100
0010
0001
1000
0000
0001
,
0100
0010
1000
0001
0000
0001
0010
0100
,
1100
1000
0010
0100
0001
1000
0000
0001
,
0010
0100
1000
0001
0000
0100
0000
0100
,
0001
0010
0100
1000
0010
0100
0000
0010
,
1000
0001
0010
0100
0000
1000
0100
0010
,
0011
0001
0100
0010
0100
0001
0010
0100
,
0010
0001
1000
0010
0100
0101
0000
0101
,
0000
1000
0010
0100
0001
1000
0001
0010
,
0100
0010
0001
1000
0001
0100
0010
1000
,
1001
0001
0100
0001
0010
0100
0010
0100
,
1000
0001
1000
0001
0100
0010
0100
0010
,
1000
0100
0010
0001
1000
0100
0010
0001
,
0010
0100
1000
0001
0010
0200
0000
0000
,
1300
0100
0010
0100
1000
0001
0000
0100
,
0010
0100
0001
1000
0000
0000
1001
0000
,
0001
0100
1000
0100
0010
1000
0000
1000
,
0100
0001
0100
0010
0000
0010
0001
1000
,
0010
1000
0100
0001
0100
0010
0000
0010
,
0001
0100
1000
0100
0000
0110
0000
0110
,
0010
1000
0100
0010
0001
1000
0000
1000
,
0010
0100
0001
1000
0000
1000
0010
0100
,
0101
0001
0100
0001
0010
0001
0000
1000
,
0100
1000
0010
1000
0000
0101
0000
1100
,
0100
1000
0010
1000
0100
1000
0000
0001
,
0100
0001
0010
0001
0000
1000
0010
0100
,
0001
0100
1000
0100
0010
0001
0000
1000
,
0100
0010
1000
0001
0000
0011
0000
1100
,
1000
0100
0010
1000
0010
0001
0000
1000
,
0010
0001
0010
0100
0000
0001
0010
0100
,
1100
1000
0100
1000
0001
0100
0010
1000
,
0010
0100
0001
0010
0001
0100
0010
1000
,
0100
0100
1000
1000
0001
0001
0100
0100
,
1001
0010
0010
1000
0100
0001
0100
1000
,
1100
0001
0010
0100
1000
0010
0100
0001
,
1000
1000
0010
0010
0100
0100
0110
0110
,
0010
1000
0001
0010
1000
0010
0001
1000
,
0010
0100
0010
0100
1000
0100
0001
1000
,
0110
0001
0010
0100
1000
0010
1000
0100
,
0010
0001
0100
0001
0010
0001
1000
0010
,
1001
0010
0010
1001
0100
0100
0001
1000
,
1000
1000
0001
0100
0001
1000
0001
0010
,
1100
1000
0010
0100
0001
1000
0001
0010
,
0100
0010
0001
1000
0010
1000
1010
1010
,
0010
0100
0001
0010
0100
1000
0010
0100
,
0010
1000
0001
0100
0100
1000
0100
0100
,
0001
0000
1000
0100
1000
0000
0010
0000
0100
0000
0001
0000
1000
0000
0000
0000
,
1000
0000
0001
0100
0001
0000
1000
0000
0100
0000
0010
0000
0001
0000
0000
0000
,
0001
0000
1000
0100
1000
0000
0010
0000
0100
0000
0001
0000
1000
0000
0000
0000
,
0001
0100
0100
1000
0100
0100
0001
0100
,
0100
0000
1000
0001
1000
0000
0010
0000
0100
0000
0001
0000
0010
0000
0000
0000
,
0010
0000
0001
1000
0001
0000
0100
0000
0001
0000
0010
0000
0100
0000
0000
0000
,
0100
0000
1000
0001
1000
0000
0010
0000
0100
0000
0010
0000
1000
0000
0001
0000
,
0010
0000
0100
1000
0000
1000
0001
0000
,
1001
0000
1000
0010
1000
0010
0100
0101
,
0000
1010
0000
0101
0000
0001
0010
0000
,
0110
0000
0100
1000
0100
0010
0001
0011
,
0000
1100
0000
0011
0000
0001
1000
0010
,
0100
0100
0001
0001
1000
0100
0010
0001
,
0000
0010
0100
0010
0000
0001
0000
1000
,
0001
0000
0100
1000
0100
0001
0000
0101
,
0000
0110
0000
1001
0000
0001
0010
0000
,
0110
0000
0100
1000
0001
0100
0001
0012
,
0000
0103
0010
0100
0001
1000
0010
0000
,
0100
0000
0100
0001
0010
0100
1000
1100
,
0000
0101
0000
1100
0000
1000
0001
1000
,
0010
0100
0010
0100
0010
0100
0001
0020
,
0000
0130
1000
0001
0000
0001
0100
0000
,
0100
1000
0100
0001
0010
0100
0000
0100
,
0001
0100
1000
0010
0000
0010
0100
0000
,
1001
0001
0010
1000
0010
0001
0000
0001
,
0100
1000
0100
0001
0000
0001
0010
0100
,
1100
1000
0010
0001
1000
0100
0000
0100
,
0001
0010
1000
0010
0000
0010
0100
0000
,
1001
1000
0100
0001
1000
0010
0000
0010
,
0001
0100
1000
0100
0000
0100
0001
0010
,
0110
0000
0000
0000
;

//--------------- dance-single - ----------------
#NOTES:
     dance-single:
     :
     Hard:
     16:
     0,0,0,0,0:
0000
0000
0000
0000
,
0000
0000
0000
0000
,
0000
0000
0000
0000
,
0000
0000
0000
0000
,
0000
0000
0000
0000
,
0000
0000
0000
0000
,
0000
0000
0000
0000
,
0000
0000
0000
0000
,
0000
0000
0000
0000
,
0000
0000
0000
0000
,
0000
0000
0000
0000
,
0001
0000
1000
0100
0010
0000
0001
0000
1000
0000
0001
0100
0010
0000
1000
0000
,
0010
0000
0100
0001
0010
0000
0100
0000
0010
0000
0100
1000
0010
0000
0100
0000
,
0001
0000
1000
0010
0100
0000
0001
0000
1000
0000
0001
0010
0100
0000
1000
0000
,
0100
0000
0010
0001
0100
0000
0010
0000
0100
0000
0010
1000
0100
0000
0010
0000
,
0001
0000
1000
0010
0100
0000
0010
1000
0001
0000
0010
0100
1000
0000
0010
1000
,
0001
0000
0010
0100
0010
0000
0100
1000
0010
0000
0100
0010
0100
0000
0010
1000
,
0100
0100
1000
0001
0001
0001
1000
0010
,
0100
0001
1000
0001
0000
0000
0000
0000
,
0101
0000
0001
1000
0100
0000
0010
0000
0001
0000
1000
0000
0000
0000
0100
1000
,
0001
0010
0001
1000
0000
0010
0010
0000
,
1000
0000
1000
0001
0100
0000
0010
0000
1000
0000
0001
0000
0000
0000
0100
0001
,
1000
0000
0010
0000
1000
0000
0001
0000
0000
0000
1000
0010
0100
0000
0001
0000
,
1001
0000
1000
0001
0010
0000
0100
0000
1000
0000
0001
0000
0000
0000
0010
0001
,
1000
0010
1000
0001
0000
0100
0100
0000
,
0001
0000
0001
1000
0010
0000
0100
0000
0001
0000
1000
0000
0000
0000
0010
1000
,
0001
0000
0010
0000
0001
0000
1000
0000
0000
0000
0010
0100
0001
0000
0010
0000
,
0110
0000
0100
1000
0001
0000
0100
0000
0010
0000
0100
0000
0001
0000
0010
0001
,
1000
0000
0010
0000
0100
0000
0001
0000
1000
0000
0001
0010
0000
0100
1000
0000
,
1100
0000
0100
1000
0010
0000
0100
0000
0001
0000
0010
0000
0100
0000
1000
0001
,
0100
0000
0010
0000
1000
0000
0001
0000
0010
0000
0100
1000
0001
0000
0100
0000
,
0101
0001
1000
1000
0010
0010
0100
0100
,
0001
0001
0010
0010
0100
0100
1000
1000
,
0100
1000
0100
1000
0001
0100
0001
0100
0010
1000
0010
1000
0001
0010
0100
1000
,
0001
0010
0100
1000
0001
0100
0010
1000
0001
0100
0020
0000
0000
0000
0000
0000
,
0130
0000
0100
0001
1000
0000
0100
0000
1000
0000
0001
0000
0000
0000
0100
0001
,
1000
0100
1000
0001
0000
0000
1001
0000
,
0001
0000
1000
0010
0100
0000
0001
0000
0010
0000
0100
0000
1000
0010
1000
0010
,
0100
0000
0001
0010
0100
0000
0010
0000
0001
0000
1000
0010
0100
0000
0010
0000
,
1000
0000
0001
0010
0100
0000
0010
0000
0001
0000
1000
0000
0001
0100
0001
0100
,
0010
0000
0100
0001
1000
0000
0100
0000
0010
0001
0000
0001
1000
0000
0010
0000
,
0100
0000
0001
0010
0100
0000
0010
0000
0001
0000
0100
0000
0010
1000
0010
1000
,
0100
0000
0010
0001
1000
0000
0010
0000
0100
0000
0001
1000
0100
0000
0010
0000
,
1001
0000
0001
0010
0001
0000
0100
0000
0010
0000
1000
0000
0001
0010
0100
1000
,
0001
0000
0100
0010
0100
0000
0001
0000
1000
0000
1100
0000
0001
0000
0101
0000
,
1001
0000
1000
0100
1000
0000
0010
0000
0100
0000
0001
0000
1000
0100
0010
0001
,
1000
0000
0010
0100
0010
0000
1000
0000
0001
0000
1000
0100
1000
0000
0010
0000
,
0100
0000
0100
0001
1000
0000
0100
0000
0010
0000
0100
0000
1000
0001
0100
0010
,
1000
0000
0001
0010
0100
0000
1000
0000
0001
0010
0001
0010
0100
1000
0100
1000
,
0010
0000
0100
0001
0010
0000
0100
0000
1000
0000
0001
0000
0100
0010
0100
0001
,
0010
0000
0100
1000
0010
0000
0100
0000
1000
0000
0100
0001
0010
0000
0100
0000
,
1000
0010
1000
0000
0010
0100
0000
0010
1000
0100
0010
0000
0001
0000
0010
0001
,
0100
0010
0000
0100
0001
0000
1000
0100
0010
0100
1000
0001
0100
0000
0100
0000
,
0010
1000
0000
1000
0001
0000
0001
0010
0000
0010
0100
1000
0001
0000
0100
0000
,
0010
0000
0100
0001
1000
0001
0000
0001
0010
0000
0100
1000
0001
0000
0100
0000
,
0110
0000
0010
1000
0100
0010
0000
0100
0000
1000
0001
1000
0010
0000
0100
0000
,
0001
0010
0000
0010
0100
0000
0100
1000
0001
0100
0010
1000
0001
0000
0001
0000
,
1000
0100
1000
0100
0000
0010
0000
0100
1000
0001
0100
0000
0100
0001
1000
0000
,
0100
0010
0100
0000
1000
0001
0000
0001
0100
0010
0100
0010
1000
0000
0001
0000
,
1000
0000
0100
0010
0001
0000
1000
0100
0010
0000
0010
0000
0100
0000
0100
1000
,
0010
0000
0100
0001
0000
0001
0010
0100
0000
0100
1000
0010
0100
0000
0010
0000
,
1000
0100
0010
0001
1000
0001
1000
0001
0010
0100
1000
0001
0010
0000
0100
0000
,
0100
0000
1000
0000
0100
0000
0010
0000
0001
0010
0100
1000
0001
0000
0100
0000
,
1000
0000
0100
0000
0001
0010
0100
1000
0000
0001
0100
0000
0010
1000
0001
0000
,
0010
0100
0010
0000
0001
1000
0000
1000
0010
0000
0010
0100
0001
0000
0101
0000
,
0100
0001
0000
0001
1000
0000
1000
0100
0010
0000
0010
0001
1000
0000
0010
0000
,
0100
0000
0010
1000
0001
0100
0001
1000
0100
1000
0001
0100
0001
1000
0100
1000
,
0001
0000
0001
0100
0001
0000
1001
0000
0001
0100
1000
0100
0001
0000
0001
1000
,
0001
0000
0001
0010
0001
0000
1001
0000
0001
0100
0001
0000
1001
0000
1000
0010
,
1000
0000
1000
0100
1000
0000
1001
0000
1000
0100
0001
0100
1000
0001
1000
0000
,
1001
0000
1000
0100
1000
0001
0100
0001
1000
0100
1000
0001
0100
0001
1000
0000
,
1001
0000
1000
0010
1000
0000
1001
0000
1000
0010
0001
0010
1000
0000
1000
0001
,
1000
0000
1100
0000
1001
0000
0011
0000
0001
0010
1000
0010
0001
0000
0001
0100
,
0001
0000
0101
0000
1001
0000
1100
0000
1000
0001
1000
0000
1001
0000
0001
0010
,
0100
1000
0001
0010
0100
1000
0001
0000
0000
0000
0001
0000
1000
0000
0000
0000
,
1001
0000
0001
0100
0010
0000
0100
0000
0010
0000
1000
0000
0001
0000
0010
0000
,
0000
0100
1000
1010
0000
0100
0001
0000
,
1001
0000
1000
0100
1000
0000
0010
0100
0010
0000
0100
0001
1000
0000
0100
0000
,
0000
0000
0010
0000
0001
0000
0201
0000
0000
0000
0010
0000
0310
0000
0100
0001
,
1000
0000
0001
1000
0001
0000
1000
0001
1000
0000
0001
0010
0001
0010
0200
0000
,
0000
0310
0001
1001
0000
0110
0000
0001
,
0010
0000
0100
1000
0001
0000
1000
0000
0010
0000
0100
0000
0001
1000
0100
0000
,
0000
0110
1100
2001
0000
3001
0001
0100
,
1010
0000
1000
0010
0100
0000
0001
0000
0010
0000
0100
0000
1000
0000
2100
0000
,
0000
0000
3010
0000
0100
0000
1000
0000
0100
0000
0001
0000
0010
0000
0100
1000
,
0001
0000
0100
0010
0100
0000
1000
0000
0001
0000
0010
0000
1000
0100
0010
0000
,
0000
0000
0011
0000
0100
0000
2100
0000
0000
0000
0001
0000
3001
0000
1000
0010
,
0100
0000
0010
0100
0010
0000
0100
0010
0100
0000
0010
1000
0010
1000
0002
0000
,
0000
0013
0100
2000
0000
3001
0020
0000
,
0130
0000
0100
1000
0010
0000
0001
0000
0010
0000
1000
0000
0000
0000
0010
1000
,
0100
0001
0100
1000
0000
0010
1001
0000
,
1000
0000
1000
0010
0100
0000
1000
0000
0100
0000
0001
0000
0000
0000
0001
0010
,
0100
0000
0001
0000
0100
0000
1000
0000
0000
0000
0001
0100
1000
0000
0100
0000
,
0101
0000
0001
0010
0100
0000
0001
0000
0100
0000
1000
0000
0000
0000
1000
0010
,
0100
1000
0100
0001
0000
0010
1001
0000
,
1001
0000
0001
0100
0010
0000
0001
0000
0010
0000
1000
0000
0000
0000
1000
0100
,
0010
0000
1000
0000
0010
0000
0001
0000
0100
0000
1000
0100
0001
0000
1000
0000
,
1100
0000
0000
0000
;

//--------------- dance-single - ----------------
#NOTES:
     dance-single:
     :
     Challenge:
     18:
     1.03605,1.102414,0.348056,0.014206,1.111648,1021,972,49,2,0,0,1.03605,1.102414,0.348056,0.014206,1.111648,1021,972,49,2,0,0:
0000
0000
0000
0000
,
0000
0000
0000
0000
,
0000
0000
0000
0000
,
0000
0000
0000
0000
,
0000
0000
0000
0000
,
0000
0000
0000
0000
,
0000
0000
0000
0000
,
0000
0000
0000
0000
,
0000
0000
0000
0000
,
0000
0000
0000
0000
,
0000
0000
0000
0000
,
1100
0000
1000
0100
0010
0000
0100
0010
0001
0000
1000
0100
0010
0001
1000
0000
,
0101
0000
0001
0100
0010
0000
0100
0010
1000
0000
0001
0100
0010
1000
0001
0000
,
1010
0000
1000
0010
0100
0000
0010
0100
0001
0000
1000
0010
0100
0001
1000
0000
,
0011
0000
0001
0010
0100
0000
0010
0100
1000
0000
0001
0010
0100
1000
0001
0000
,
1100
0000
1000
0001
0100
0000
0010
1000
0001
0000
0010
0001
1000
0010
1000
0001
,
0010
0100
1000
0010
0100
0001
0010
0100
1000
0010
0100
0001
0010
0100
1000
0010
,
0100
0100
0100
0000
0100
0100
0000
0100
,
0100
0000
0100
0100
0000
0000
0000
0000
,
0101
0000
0100
0001
0010
0000
0100
0000
1000
0000
0001
0000
0000
0000
0100
0001
,
0010
0000
0100
0000
1000
0000
0001
0000
0001
0000
0001
0000
0100
0001
0100
0001
,
0010
0000
0100
1000
0010
0000
0100
0000
0001
0000
1000
0000
0000
0000
0100
1000
,
0010
0000
0100
0000
0001
0000
1000
0000
0010
0000
0100
0001
1000
0000
0100
0000
,
0011
0000
0001
0010
0100
0000
0010
0000
0001
0000
1000
0000
0000
0000
0001
0010
,
0100
0010
0001
1000
0010
0010
0010
0010
,
0010
0000
0100
0001
1000
0000
0100
0000
1000
0000
0001
0000
0000
0000
1000
0010
,
0100
0000
0000
0000
0000
0000
0010
0000
0000
0000
0000
0000
1000
0000
0000
0000
0000
0000
0001
0000
0000
0000
0000
0000
0000
0000
0000
0000
0000
0000
1000
0000
0000
0001
0000
0000
0100
0000
0010
0000
0100
0000
0010
0000
0100
0000
0010
0000
,
0100
0000
0010
1000
0001
0000
1000
0000
0011
0000
0101
0000
1000
0000
0010
1000
,
0001
0000
1000
0000
0011
0000
0101
0000
1000
0000
0001
0010
0100
1000
0001
0000
,
0011
0000
0010
0001
1000
0000
0001
0000
1010
0000
1100
0000
0001
0000
0010
0001
,
1000
0000
0001
0000
1010
0000
1100
0000
0001
0000
0100
0010
0100
0000
0001
0000
,
0011
0000
0010
0001
1000
0000
1001
0000
1010
0000
0010
1000
0001
0000
1001
0000
,
0101
0000
0100
0001
1000
0000
1001
0000
1100
0000
0100
1000
0001
0000
0101
0000
,
0100
0001
0100
0001
1000
0100
1000
0100
0010
0001
0010
0001
1000
0010
1000
0010
,
0100
0001
0010
0100
1000
0001
0010
0100
1000
0001
0020
0000
0000
0000
0000
0000
,
0130
0000
0100
1000
0010
0000
0100
0000
0001
0000
1000
0000
0000
0000
0100
1000
,
0010
0000
0000
0100
0000
0000
0001
0000
0000
1000
0000
0000
0000
0000
0000
0000
0000
0000
0001
0010
0100
1000
0001
0010
,
0100
0000
0010
0001
1000
0000
0010
0000
0100
0000
0010
0000
1000
0010
0100
0001
,
1000
0000
0100
0010
0100
0000
0010
0000
0001
0010
0001
0010
0100
0000
1000
0001
,
0100
0000
0010
1000
0001
0000
0010
0000
0100
0000
1000
0010
0100
0010
0100
0001
,
1000
0000
0000
0000
0000
0000
0010
0000
0000
0100
0000
0000
0001
0000
0000
0000
0000
0000
0010
0000
0000
0000
0000
0000
0100
0000
0000
1000
0000
0000
0100
0000
0000
1000
0000
0000
0001
0000
0000
0000
0000
0000
1000
0000
0010
0000
0100
0000
,
0001
0000
0010
0100
0010
0000
0001
0000
1000
0000
0010
1000
0001
0100
0010
1000
,
0001
0010
0100
1000
0010
0000
0100
0000
0001
0010
0100
1000
0001
0000
0100
0010
,
1001
0000
0001
0010
0100
0000
1000
0000
0001
0000
0100
0010
0100
1000
0100
0001
,
0010
0000
0000
0000
0000
0000
0100
0000
0000
1000
0000
0000
0010
0000
0000
0000
0000
0000
0100
0000
0000
0000
0000
0000
0001
0000
0000
1000
0000
0000
0001
0000
0000
1000
0000
0000
0100
0000
0010
0000
0001
0000
1000
0000
0100
0000
0010
0000
,
0001
0000
1000
0010
0100
0000
0001
0000
1000
0000
0001
0010
0100
1000
0010
0100
,
0001
0000
1000
0010
0100
0000
0010
0000
0100
0001
0010
0100
1000
0000
0001
0100
,
0010
0000
0100
0001
1000
0000
0100
0000
0010
0000
0100
1000
0100
0001
0100
1000
,
0001
0000
0000
0000
0000
0000
0100
0000
0000
0010
0000
0000
0100
0000
0000
0000
0000
0000
0001
0000
0000
0000
0000
0000
1000
0000
0000
0001
0000
0000
1000
0000
0000
0001
0000
0000
0100
0000
0010
0000
1000
0000
0001
0000
0100
0000
0010
0000
,
1000
0000
0001
0010
0100
0000
0010
0000
0100
0000
1000
0001
0100
0010
0100
0001
,
0010
0000
0100
1000
0010
0000
1000
0000
0001
0100
1000
0100
0001
0000
0010
0000
,
0110
0000
0100
1000
0010
0100
0010
1000
0001
0010
1000
0000
0010
0001
1000
0100
,
1000
0001
0100
0001
1000
0010
0100
0001
0010
0100
1000
0001
0100
0010
0100
0001
,
1000
0100
0000
0010
0100
0000
0001
0100
1000
0010
0100
0001
0100
0010
1000
0010
,
0001
0000
0010
0100
0010
1000
0010
0100
0010
1000
0001
0010
0100
0000
0010
0001
,
1000
0000
0001
0100
0010
0100
0000
0001
0000
0010
0100
1000
0001
0010
0100
1000
,
0001
0100
0001
0100
0010
1000
0010
1000
0100
0010
0001
1000
0010
0000
0110
0000
,
0100
0001
0010
0001
0100
0100
1000
0001
1000
0100
0100
0001
0010
0001
1000
0010
,
0100
0010
0100
0000
0100
0001
0010
0100
1000
0001
0100
0010
0100
0000
0110
0000
,
0010
1000
0100
0001
0100
1000
0001
1000
0010
0000
1010
0000
1000
0010
0100
1000
,
0001
0000
0001
0010
1000
0100
0010
0100
0000
0100
0001
0100
1000
0000
1001
0000
,
0001
1000
0010
0010
0010
1000
0001
1000
0100
0100
0100
1000
0001
0000
0110
0000
,
0110
0000
1000
0010
0100
0000
0010
1000
0001
0010
0100
1000
0001
0000
1000
0100
,
0010
0000
0100
1000
0001
0100
0010
0100
0000
0100
0010
0100
0001
0010
0100
1000
,
0100
0010
0001
0010
0100
1000
0000
1000
0010
0001
0010
0100
1000
0000
1100
0000
,
0100
0001
0010
0100
1000
0010
1000
0100
0010
0000
0010
0100
0010
0000
0010
0001
,
1000
0000
1000
0010
0100
1000
0001
0010
0100
0001
0010
0100
1000
0010
0100
0001
,
0010
0000
0000
0000
0000
0000
0100
0000
0000
1000
0000
0000
0001
0000
0000
0000
0000
0000
0001
0000
0000
0000
0000
0000
0001
0000
0010
0000
0100
0000
1000
0000
0000
0001
0000
0000
0100
0000
0000
0010
0000
0000
0100
0000
0000
0010
0000
0000
,
1000
0000
0000
0100
0000
0000
0010
0000
0000
0001
0000
0000
1000
0000
0000
0000
0000
0000
1000
0000
0000
0000
0000
0000
1000
0000
0010
0000
0100
0000
0001
0000
0000
0000
0000
0000
1001
0000
0000
0000
0000
0000
1000
0000
0000
0010
0000
0000
,
0100
0000
0000
0000
0000
0000
0001
0000
0000
0010
0000
0000
0100
0000
0000
0000
0000
0000
0100
0000
0000
0000
0000
0000
0100
0000
1000
0000
0001
0000
0010
0000
0000
0000
0000
0000
0100
0000
0000
1000
0000
0000
0001
0000
0100
0000
0010
0000
,
1000
0000
0000
0000
0000
0000
0001
0000
0000
0100
0000
0000
0001
0000
1000
0000
0001
0000
1000
0000
0000
0001
0000
0000
1000
0000
0000
0100
0000
0000
1000
0000
0001
0000
1000
0000
0001
0000
0000
0000
0000
0000
0010
0000
0000
0000
0000
0000
,
1100
0000
0000
0000
0000
0000
1000
0000
0000
0100
0000
0000
0010
0000
0000
0000
0000
0000
0100
0000
0000
0000
0000
0000
1000
0000
0100
0000
0010
0000
0001
0000
0000
1000
0000
0000
0001
0000
0000
0000
0000
0000
0100
0000
0000
0010
0000
0000
,
0100
0000
0000
0001
0000
0000
0100
0000
0000
0000
0000
0000
0101
0000
0000
0000
0000
0000
0101
0000
0000
0000
0000
0000
0001
0000
0100
0000
0010
0000
1000
0000
0000
0001
0000
0000
1000
0000
0000
0000
0000
0000
0010
0000
0000
1000
0000
0000
,
0001
0000
0000
0000
0000
0000
0010
0000
0000
0001
0000
0000
1000
0000
0000
0000
0000
0000
0100
0000
0000
0000
0000
0000
0010
0000
0100
0000
1000
0000
0010
0000
0000
0100
0000
0000
0001
0000
0000
0010
0000
0000
0100
0000
1000
0000
0010
0000
,
0100
0000
0000
0001
0000
0000
0010
0000
0000
0100
0000
0000
1000
0000
0010
0000
0100
0000
0001
0000
0000
0000
0000
0000
0000
0000
0000
0000
0000
0000
0001
0000
0000
0000
0000
0000
1000
0000
0000
0000
0000
0000
0000
0000
0000
0000
0000
0000
,
1001
0000
0000
0000
0000
0000
0001
0000
0010
0000
0100
0000
1000
0000
0000
0000
0000
0000
1000
0000
0000
0000
0000
0000
1100
0000
0000
0000
0000
0000
0011
0000
0000
0000
0000
0000
0001
0000
0000
0000
0000
0000
0001
0000
0000
0100
0000
0000
,
0010
0100
0001
0010
0100
1000
1100
0000
,
1001
0000
0000
0000
0000
0000
1000
0000
0010
0000
0100
0000
0001
0000
0000
0000
0000
0000
1000
0000
0000
0100
0000
0000
1000
0000
0000
0000
0000
0000
0001
0000
0000
0100
0000
0000
0001
0000
0000
0010
0000
0000
0100
0000
0000
0000
0000
0000
,
0100
0000
0010
0001
1000
0001
1000
0010
0100
0001
0010
0000
0110
0000
0100
1000
,
0010
0000
0010
2000
0010
0000
3010
0200
0010
0000
0310
1000
0001
0010
0200
0000
,
0000
0000
0310
0002
0010
0000
0013
0200
0010
0000
0310
0001
1000
0000
1000
0010
,
0100
0000
0001
0100
1000
0000
0100
0000
0010
0000
0100
0001
0010
1000
0002
0000
,
0000
0103
1000
1001
0001
1001
1001
0010
,
1001
0000
1000
0010
0100
0000
0010
0000
1010
0000
0101
0000
0001
0010
0200
0000
,
0000
0000
1300
0000
1001
0000
0001
0010
0100
0000
0010
0000
0001
0000
0010
0100
,
0010
0000
0001
1000
0001
0000
0100
0000
0010
0000
0100
0000
0001
1000
1100
0000
,
0001
0000
0101
0000
1000
0000
1100
0000
0001
0000
0110
0000
0110
0000
0001
1000
,
0010
0000
0100
0001
1000
0000
0100
0000
0011
0000
1100
0000
0001
0100
2000
0000
,
0000
0000
3100
0000
0001
0000
1000
0000
0001
0000
0010
0100
0010
0100
0010
0100
,
0010
0000
0100
1000
0010
0000
0100
0000
0110
0000
0101
0000
0000
0000
0100
0001
,
0010
0100
0110
1100
1000
0001
1001
0000
,
1001
0000
0001
0100
1000
0000
0100
0000
0110
0000
0101
0000
0001
0000
1000
0100
,
0001
0000
0100
0000
0110
0000
1100
0000
0000
0000
0010
0001
0100
0000
0010
0000
,
0110
0000
0100
0001
1000
0000
0100
0000
0011
0000
1100
0000
0000
0000
0001
1000
,
0010
0100
1010
0101
0001
0010
0110
0000
,
1001
0000
1000
0100
0001
0000
0100
0000
1100
0000
0101
0000
1000
0000
0001
0100
,
1000
0000
0100
0000
0101
0000
1100
0000
0001
0000
1000
0100
0001
0000
0100
0000
,
1100
0000
0000
0000
;
