#VERSION:0.83;
#TITLE:プロポーズ;
#SUBTITLE:;
#ARTIST:内緒のピアス feat. 可不;
#TITLETRANSLIT:Propose;
#SUBTITLETRANSLIT:;
#ARTISTTRANSLIT:Naisho no Pierce feat.KAFU;
#GENRE:POP;
#CREDIT:;
#MUSIC:Propose.ogg;
#BANNER:Propose.png;
#BACKGROUND:Propose-bg.png;
#CDTITLE:;
#SAMPLESTART:1.926;
#SAMPLELENGTH:11.429;
#SELECTABLE:YES;
#OFFSET:1.883;
#BPMS:0.000=126.000
,32.000=252.000
,137.000=126.000
,146.000=504.000
,152.000=252.000
,182.000=126.000
,183.500=252.000
;
#STOPS:;
#WARPS:146.000=6.000;
#DISPLAYBPM:126.000:252.000;
#BGCHANGES:6.000=Propose.avi=1.000=0=0=0=StretchNoLoop====,
99999.000=-nosongbg-=1.000=0=0=0=StretchNoLoop====
;
#FGCHANGES:;

//--------------- dance-single - ----------------
#NOTEDATA:;
#STEPSTYPE:dance-single;
#DESCRIPTION:;
#DIFFICULTY:Easy;
#METER:13;
#RADARVALUES:0,0,0,0,0;
#NOTES:
0000
0000
0000
0000
,
0000
0000
0000
0000
,
0001
0000
1000
0010
0000
0010
0100
0000
,
0100
0001
0000
0000
1000
0000
0001
0010
,
0000
0010
0100
0000
0100
1000
0000
0000
,
0001
0000
0100
0010
0000
0010
1000
0000
,
1000
0100
0000
0010
0001
0000
0001
0010
,
0100
1000
0010
0100
0001
1000
0000
0000
,
2200
3300
0000
0000
0000
0000
0000
0000
0000
0000
0000
0000
0000
0000
0000
0000
0000
0000
0000
0000
0000
0000
0000
0000
0000
0000
0000
0000
0000
0000
0000
0000
0000
0000
0000
0000
0000
0000
0000
0000
0000
0000
0000
0000
0000
0000
0000
0000
0000
0000
0000
0000
0000
0000
0000
0000
0000
0000
0000
0000
0000
0000
0000
0000
0000
0000
0000
0000
0000
0000
0000
0000
0000
0000
0000
0000
0000
0000
0000
0000
0000
0000
0000
0000
0000
0000
0000
0000
0000
0000
0000
0000
0000
0000
0000
0000
0100
0000
0000
0000
0000
0000
0000
0000
0000
0000
0000
0000
0000
0000
0000
0000
0000
0000
0000
0000
0000
0000
0000
0000
0000
0000
0000
0000
0000
0000
0000
0000
0000
0000
0000
0000
0000
0000
0000
0000
0000
0000
0000
0000
0000
0000
0000
0000
1000
0000
0000
0000
0000
0000
0000
0000
0000
0000
0000
0000
0000
0000
0000
0000
0000
0000
0000
0000
0000
0000
0000
0000
0000
0000
0000
0000
0000
0000
0000
0000
0000
0000
0000
0000
0000
0000
0000
0000
0000
0000
0000
0000
0000
0000
0000
0000
,
0000
1000
0001
0000
,
0001
1000
0100
0010
,
0100
0000
1000
0010
,
0000
0100
0001
0000
,
1000
0001
1000
0100
,
0010
0000
0010
0001
,
0000
0001
1000
0010
,
0100
0001
0000
1000
,
0010
0000
0010
0100
,
0001
1000
0100
0000
,
0100
0010
0000
0001
,
1000
0000
0001
0100
0000
0001
0010
0000
,
0100
0000
0010
0001
1000
0000
0010
0100
,
0000
0001
1000
0000
0100
0000
0010
0000
,
0100
0000
1000
0010
0000
0100
0001
0000
,
0010
0100
1100
1000
,
0001
0101
1000
0001
,
0010
0000
0100
1000
0000
0100
0001
0000
,
0100
0000
1000
0001
0100
0000
0010
1000
,
0000
0010
0100
0000
0001
1000
0100
0010
,
0001
0000
0100
0001
0100
0000
0010
0000
,
1000
0100
1000
0000
0001
0000
0010
0100
,
0010
0000
0001
0000
1000
0010
1000
0000
,
0100
0010
0001
1000
,
0001
0010
0100
0000
,
0100
0000
2000
0000
3010
1000
0100
1000
,
0001
0100
0001
1000
0100
1000
0001
0100
,
0001
1000
0100
1000
0020
0000
0000
0000
,
0000
0000
0000
0000
,
0000
0000
0000
0100
,
0100
0130
1000
0001
,
0010
0110
0100
1000
,
0001
0000
1000
1010
,
0010
1000
0001
0000
,
0001
0011
0010
0100
,
1000
0100
0010
0001
,
1000
0000
0000
0000
0000
0000
0000
0000
0000
0000
0000
0000
0000
0000
0000
0000
0000
0000
0000
0000
0000
0000
0000
0000
0000
0000
0000
0000
0000
0000
0000
0000
0000
0000
0000
0000
0000
0000
0000
0000
0000
0000
0000
0000
0000
0000
0000
0000
0010
0000
0000
0000
0000
0000
0000
0000
0000
0000
0000
0000
0000
0000
0000
0000
0000
0000
0000
0000
0000
0000
0000
0000
0000
0000
0000
0000
0000
0000
0000
0000
0000
0000
0000
0000
0000
0000
0000
0000
0000
0000
0000
0000
0000
0000
0000
0000
0200
0300
0000
0000
0000
0000
0000
0000
0000
0000
0000
0000
0000
0000
0000
0000
0000
0000
0000
0000
0000
0000
0000
0000
0000
0000
0000
0000
0000
0000
0000
0000
0000
0000
0000
0000
0000
0000
0000
0000
0000
0000
0000
0000
0000
0000
0000
0000
0000
0000
0000
0000
0000
0000
0000
0000
0000
0000
0000
0000
0000
0000
0000
0000
0000
0000
0000
0000
0000
0000
0000
0000
0202
0303
0000
0000
0000
0000
0000
0000
0000
0000
0000
0000
0000
0000
0000
0000
0000
0000
0000
0000
0000
0000
0000
0000
,
0000
1000
0000
0010
0000
1100
0000
0001
,
0000
0010
0000
0101
0000
1000
0000
0010
,
0000
1100
0000
0001
0000
0010
0000
0101
,
0000
1000
0000
0010
0000
1100
0000
0001
,
0000
1000
0000
0010
0000
0100
0000
0010
,
0000
1000
0000
0001
0000
1000
0000
0200
,
0000
0010
0000
1000
0000
0320
0000
0100
,
0000
0001
0000
0230
0000
1000
0000
0310
,
0000
0001
0000
1000
0000
0010
0000
0100
,
0000
0001
0000
1000
0000
0020
0000
0100
,
0000
1000
0000
0230
0000
0001
0000
0010
,
0000
0301
0000
1000
0000
0001
0000
1000
,
0000
0100
0000
0010
0000
0002
0000
1000
,
0000
0103
0000
0011
0000
1001
0000
1100
,
0000
0001
0000
0100
0000
0010
0000
1000
,
0000
0001
0010
0001
0000
1000
0000
0001
,
0100
0001
0000
1000
0000
0001
0010
0001
,
0000
0101
0000
1001
0000
0101
0000
1001
,
0000
1000
0010
0100
0000
0010
0000
1000
,
0100
0010
0000
0001
0000
1000
0010
0100
,
0000
0101
0000
0110
0000
1010
0000
1001
,
0000
0001
0010
0100
0000
0010
0000
0001
,
0100
0010
0000
1000
0000
0001
0010
0100
,
0000
1100
0000
1001
0000
0011
0000
1001
,
0000
0001
0010
0100
0010
0001
0000
1000
,
0010
0100
0010
1000
0000
0010
0100
0010
,
1000
0001
0010
0100
1000
0001
0010
0100
,
0000
1000
0001
0100
0000
0010
0000
0100
,
0001
1000
0000
0100
0000
0010
0001
1000
,
0000
1010
0000
0101
0000
1010
0000
1001
,
0000
0001
0010
0100
0000
0010
0000
0100
,
0010
0001
0000
1000
0000
0001
0010
0100
,
0000
1100
0000
0011
0000
1100
0000
1001
,
0000
0001
0100
0010
0000
0100
0000
0001
,
0010
0100
0000
1000
0000
0001
0010
0100
,
0000
0110
0000
1001
0000
0110
0000
1001
,
0000
0001
0010
0100
1000
0001
0000
0010
,
0100
1000
0001
0100
0000
0010
1000
0010
,
0100
0001
0100
0010
0100
0001
0010
0100
,
0000
1000
0100
0010
0000
0001
0000
0010
,
0100
1000
0000
0100
0000
0010
0001
1000
,
0000
0010
0000
0100
0000
0010
0000
0100
,
0000
0001
0100
0010
0000
1000
0000
0010
,
0100
0001
0000
0100
0000
0010
1000
0001
,
0000
0010
0000
0100
0000
0010
0000
0100
,
0000
1000
0100
0010
0000
0001
0000
0010
,
0100
1000
0000
0001
0000
1000
0100
0010
,
0000
0001
0000
0100
0000
0001
0000
0100
,
0000
0001
0010
0100
0000
1000
0000
0010
,
0100
0001
0000
1000
0000
0100
0010
0001
,
0000
1000
0000
0000
0000
0000
0000
0000
;

//--------------- dance-single - ----------------
#NOTEDATA:;
#STEPSTYPE:dance-single;
#DESCRIPTION:;
#DIFFICULTY:Medium;
#METER:15;
#RADARVALUES:0,0,0,0,0;
#NOTES:
0000
0000
0000
0000
,
0000
0000
0000
0000
,
0101
0000
0100
0001
0000
1000
0100
0000
,
0010
0100
0000
0100
1000
0000
0010
0100
,
0000
0001
0100
0000
0010
1000
0100
0010
,
0001
0000
1000
0100
0000
0010
0100
0000
,
0001
0100
0000
1000
0001
0000
1000
0010
,
0100
0001
0010
0100
1000
0001
0000
0100
,
0220
0330
0000
0000
0000
0000
0000
0000
0000
0000
0000
0000
0000
0000
0000
0000
0000
0000
0000
0000
0000
0000
0000
0000
0000
0000
0000
0000
0000
0000
0000
0000
0000
0000
0000
0000
0000
0000
0000
0000
0000
0000
0000
0000
0000
0000
0000
0000
1010
0000
0000
0000
0000
0000
0000
0000
0000
0000
0000
0000
0000
0000
0000
0000
0000
0000
0000
0000
0000
0000
0000
0000
0000
0000
0000
0000
0000
0000
0000
0000
0000
0000
0000
0000
0000
0000
0000
0000
0000
0000
0000
0000
0000
0000
0000
0000
0101
0000
0000
0000
0000
0000
0000
0000
0000
0000
0000
0000
0000
0000
0000
0000
0000
0000
0000
0000
0000
0000
0000
0000
0000
0000
0000
0000
0000
0000
0000
0000
0000
0000
0000
0000
0000
0000
0000
0000
0000
0000
0000
0000
0000
0000
0000
0000
0001
0000
0000
0000
0000
0000
0000
0000
0000
0000
0000
0000
0000
0000
0000
0000
0000
0000
0000
0000
0000
0000
0000
0000
0000
0000
0000
0000
0000
0000
0000
0000
0000
0000
0000
0000
0000
0000
0000
0000
0000
0000
0000
0000
0000
0000
0000
0000
,
0010
0100
1000
0010
0100
0001
0100
0010
,
1000
0001
0010
0000
0100
0000
1000
0000
,
0001
0000
1000
0100
0010
0001
1000
0000
,
0001
0100
0010
1000
0001
0010
0001
1000
,
0010
0100
0001
0000
1000
0000
0100
0000
,
0010
0000
0001
0010
0100
0010
0001
0000
,
1000
0100
0010
0100
1000
0000
0001
1000
,
0010
1000
0001
0000
1000
0010
0100
0001
,
0010
0000
0100
1000
0001
0000
0101
0000
,
1001
0000
1100
0000
1000
0100
0010
0001
,
1000
0100
0010
0000
0001
0000
1000
0000
,
1100
0000
0100
1000
0000
0001
0100
0000
,
0010
0000
1000
0100
0001
0000
0100
0010
,
0000
0100
1000
0000
1100
0000
1001
0000
,
0101
0000
0100
0001
0000
0001
0010
0000
,
0100
1000
1100
1000
,
0001
0101
0001
0100
,
0110
0000
0010
1000
0000
1000
0001
0000
,
0010
0000
0100
1000
0010
0000
0100
0001
,
0000
0010
0100
0000
1000
0100
0010
0001
,
1000
0000
0001
0010
0100
0000
1000
0000
,
0100
0010
0001
0100
0010
1000
0100
1000
,
0001
0000
1000
0000
0010
0100
0010
1000
,
0001
0101
1010
0101
,
0001
1000
0100
0010
0001
1000
0001
1000
,
0001
1000
0200
0000
0310
0001
0000
0000
,
0001
0000
0000
1000
0000
0000
1000
0000
,
0000
0010
0000
0000
0020
0000
0000
0000
,
0000
0000
0000
0000
,
0000
0000
0000
0100
,
0100
0000
0130
0000
1001
0000
0001
0010
,
0100
0010
0001
0000
1000
0000
0010
0100
,
0010
0000
1000
0000
0001
0010
0001
0000
,
1000
0000
0001
1000
0100
0010
0100
1000
,
0001
1000
0010
0000
0100
0001
0010
1000
,
0010
0001
1000
0001
0100
0001
1000
0010
,
0001
0000
0000
0000
0000
0000
0000
0000
0000
0000
0000
0000
0000
0000
0000
0000
0000
0000
0000
0000
0000
0000
0000
0000
0010
0000
0000
0000
0000
0000
0000
0000
0000
0000
0000
0000
0000
0000
0000
0000
0000
0000
0000
0000
0000
0000
0000
0000
1000
0000
0000
0000
0000
0000
0000
0000
0000
0000
0000
0000
0000
0000
0000
0000
0000
0000
0000
0000
0000
0000
0000
0000
0001
0000
0000
0000
0000
0000
0000
0000
0000
0000
0000
0000
0000
0000
0000
0000
0000
0000
0000
0000
0000
0000
0000
0000
0020
0030
0000
0000
0000
0000
0000
0000
0000
0000
0000
0000
0000
0000
0000
0000
0000
0000
0000
0000
0000
0000
0000
0000
0000
0000
0000
0000
0000
0000
0000
0000
0000
0000
0000
0000
0000
0000
0000
0000
0000
0000
0000
0000
0000
0000
0000
0000
0000
0000
0000
0000
0000
0000
0000
0000
0000
0000
0000
0000
0000
0000
0000
0000
0000
0000
0000
0000
0000
0000
0000
0000
2200
3300
0000
0000
0000
0000
0000
0000
0000
0000
0000
0000
0000
0000
0000
0000
0000
0000
0000
0000
0000
0000
0000
0000
,
0000
1000
0010
0100
0000
0101
0000
0001
,
0010
0100
0000
1100
0000
1000
0010
0100
,
0000
0101
0000
0001
0010
0100
0000
1100
,
0000
1000
0010
0100
0000
0101
0000
0001
,
0010
0100
0000
1000
0001
1000
0010
0100
,
0010
1000
0000
0001
0010
0001
0010
0100
,
0000
0100
1000
0001
0000
1001
0000
1000
,
0000
0001
0010
0100
0000
1000
0100
0010
,
0001
1000
0001
0010
1000
0010
0001
1000
,
0000
1000
0010
0001
0000
0001
0010
1000
,
0100
0010
0001
1000
0000
0011
0000
1100
,
0000
0001
0010
0100
1000
0001
0010
1000
,
0000
0010
0001
1000
0010
0100
0000
0010
,
1000
0001
0000
0011
0000
1100
0000
1001
,
0000
0001
1000
0100
0010
0100
1000
0010
,
0000
0100
0001
0010
0100
0010
0000
0100
,
1000
0010
0100
0010
0000
0100
0001
0010
,
0100
0010
0000
0011
0000
1001
0000
1010
,
0000
0010
1000
0100
0010
0100
0000
0010
,
0001
0100
0010
0100
0000
0010
1000
0100
,
0010
0100
0000
1100
0000
1001
0000
0011
,
0000
0010
0001
0100
0010
0001
0000
0010
,
1000
0100
0010
1000
0000
0010
0001
0100
,
0010
0001
0000
0011
0000
0110
0000
1001
,
0001
0100
0010
1000
0100
0010
0100
0001
,
0100
1000
0010
0100
0001
0100
0010
0100
,
1000
1100
0000
0110
0000
0101
0000
1001
,
0000
0001
0010
0100
0010
1000
0000
0001
,
0100
0010
0100
1000
0000
0001
0100
0010
,
0100
1000
0000
1100
0000
0110
0000
0101
,
0000
1000
0100
0010
0100
0001
0000
1000
,
0010
0100
0010
0001
0000
1000
0010
0100
,
0010
0001
0000
0011
0000
0110
0000
1010
,
0000
0001
0010
0100
0010
1000
0000
0001
,
0100
0010
0100
1000
0000
0001
0100
0010
,
0100
1000
0001
0010
1000
0100
1000
0001
,
0010
1000
0010
0001
1000
0010
0100
0001
,
0010
0001
1000
0010
0001
0010
0100
1000
,
0100
0110
0000
1010
0000
0101
0000
0001
,
0010
0100
1000
0001
1000
0100
0010
0001
,
1000
0001
0010
0100
1000
0001
1000
0100
,
0010
0001
0100
0010
0100
1000
0100
0001
,
0100
0010
1000
0001
1000
0010
0100
0001
,
1000
0001
0100
0010
1000
0001
1000
0010
,
0100
0001
0010
0100
0010
1000
0010
0001
,
0010
0100
1000
0001
1000
0010
0100
0001
,
1000
0001
0010
0100
1000
0001
1000
0010
,
0100
0001
0100
0010
0100
1000
0100
0001
,
0010
0100
1000
0001
0010
1000
0001
0100
,
0010
1000
0001
0100
1000
0001
0100
1000
,
0001
0010
0000
0000
0000
0000
0000
0000
;

//--------------- dance-single - ----------------
#NOTEDATA:;
#STEPSTYPE:dance-single;
#DESCRIPTION:;
#DIFFICULTY:Hard;
#METER:18;
#RADARVALUES:0,0,0,0,0;
#NOTES:
0000
0000
0000
0000
,
0000
0000
0000
0000
,
0101
0000
0100
0001
0000
1000
0100
1000
,
0010
0100
0000
0100
0001
0000
1000
0100
,
0000
0000
0000
0010
0000
0000
0100
0000
0000
0000
0000
0000
1000
0000
0000
0001
0000
0000
1000
0100
0010
0001
1000
0100
,
0010
0000
0001
0100
0000
0010
1000
0100
,
1000
0001
0000
0001
0100
0000
0010
1000
,
0001
0000
1000
0100
0010
0000
0100
1000
0001
1000
0010
0000
0110
0000
0100
0000
,
0202
0303
0000
0000
0000
0000
0000
0000
0000
0000
0000
0000
0000
0000
0000
0000
0000
0000
0000
0000
0000
0000
0000
0000
0000
0000
0000
0000
0000
0000
0000
0000
0000
0000
0000
0000
0000
0000
0000
0000
0000
0000
0000
0000
0000
0000
0000
0000
0011
0000
0000
0000
0000
0000
0000
0000
0000
0000
0000
0000
0000
0000
0000
0000
0000
0000
0000
0000
0000
0000
0000
0000
0000
0000
0000
0000
0000
0000
0000
0000
0000
0000
0000
0000
0000
0000
0000
0000
0000
0000
0000
0000
0000
0000
0000
0000
1100
0000
0000
0000
0000
0000
0000
0000
0000
0000
0000
0000
0000
0000
0000
0000
0000
0000
0000
0000
0000
0000
0000
0000
0000
0000
0000
0000
0000
0000
0000
0000
0000
0000
0000
0000
0000
0000
0000
0000
0000
0000
0000
0000
0000
0000
0000
0000
1000
0000
0000
0000
0000
0000
0000
0000
0000
0000
0000
0000
0000
0000
0000
0000
0000
0000
0000
0000
0000
0000
0000
0000
0000
0000
0000
0000
0000
0000
0000
0000
0000
0000
0000
0000
0000
0000
0000
0000
0000
0000
0000
0000
0000
0000
0000
0000
,
0001
0000
1000
0000
0010
0100
0001
0000
1000
0000
0100
0000
1000
0000
0001
0000
,
0100
0001
0010
0000
0100
1000
0001
1000
,
0010
1000
0100
0000
1000
0000
0010
0000
0100
0000
0001
0000
1000
0000
0000
0000
,
0001
0000
0100
0000
0001
0000
1000
0000
0001
0010
0100
0000
0010
0000
0001
0000
,
0010
0000
0100
0000
1000
0000
0000
0000
0001
1000
0100
0000
0010
0000
0100
0000
,
1000
0000
0001
0100
0001
1000
0100
0000
,
0010
0000
0100
0000
1000
0001
1000
0000
0010
0000
0100
0000
0001
0000
1000
0000
,
0010
0000
1000
0000
0001
0000
0000
0000
0010
0000
0100
0000
1000
0001
0100
0001
,
1000
0010
0100
0010
1000
0000
1100
0000
,
0101
0000
0000
0000
1001
0000
0001
0000
1000
0100
1000
0000
0010
0000
0100
0000
,
0001
0010
0100
0000
1000
0001
0010
0100
,
1100
0000
0001
0101
0000
1000
1100
0000
,
1000
0010
0100
0001
0011
0000
1000
1010
,
0000
0001
0011
0000
0110
0000
1100
0000
,
1001
0000
0001
0011
0000
1000
1100
0000
,
0001
0010
0100
1000
1100
0000
0011
0000
,
1100
0101
1010
0101
,
1001
0000
0001
1100
0000
1000
0101
0000
,
0001
0010
0100
1000
0110
0000
0010
1001
,
0000
0000
0110
0000
0000
0000
1000
0000
0001
0010
0100
1000
0001
0010
0100
1000
,
0001
0000
0100
0001
0010
0000
0110
0000
,
0100
0000
1000
0000
0001
0010
0100
0000
1000
0000
0001
0000
0100
0000
0001
0000
,
1000
0100
0110
0000
0010
0001
1000
0010
,
1000
1010
1001
0101
,
0001
0000
0010
0000
0001
0000
0100
0010
0100
0000
0001
0000
1000
0000
0001
0000
,
1000
0001
0200
0000
0310
1000
0100
1000
,
0001
0010
0001
1000
0010
1000
0001
0100
,
0001
1000
0100
0010
0200
0000
0000
0000
,
0000
0000
0000
0000
,
0000
0000
0000
0000
0000
0000
0010
0300
,
0110
0000
0110
0000
0100
0010
0001
0010
,
0100
1000
0010
0000
0100
0010
0100
0001
,
1000
0000
0001
0010
0001
0010
0100
0000
,
1000
0001
1000
0001
0100
0001
0010
0100
,
1000
0000
0001
0000
1000
0100
1000
0000
0010
0000
0100
0000
0001
0000
1000
0000
,
0001
0100
0001
0000
0010
0000
0100
0000
1000
0000
0001
0000
1000
0100
0010
0000
,
0001
0000
0000
0000
0000
0000
0000
0000
0000
0000
0000
0000
0000
0000
0000
0000
0000
0000
0000
0000
0000
0000
0000
0000
1000
0000
0000
0000
0000
0000
0000
0000
0000
0000
0000
0000
0000
0000
0000
0000
0000
0000
0000
0000
0000
0000
0000
0000
0010
0000
0000
0000
0000
0000
0000
0000
0000
0000
0000
0000
0000
0000
0000
0000
0000
0000
0000
0000
0000
0000
0000
0000
0100
0000
0000
0000
0000
0000
0000
0000
0000
0000
0000
0000
0000
0000
0000
0000
0000
0000
0000
0000
0000
0000
0000
0000
0002
0003
0000
0000
0000
0000
0000
0000
0000
0000
0000
0000
0000
0000
0000
0000
0000
0000
0000
0000
0000
0000
0000
0000
0000
0000
0000
0000
0000
0000
0000
0000
0000
0000
0000
0000
0000
0000
0000
0000
0000
0000
0000
0000
0000
0000
0000
0000
0000
0000
0000
0000
0000
0000
0000
0000
0000
0000
0000
0000
0000
0000
0000
0000
0000
0000
0000
0000
0000
0000
0000
0000
0202
0303
0000
0000
0000
0000
0000
0000
0000
0000
0000
0000
0000
0000
0000
0000
0000
0000
0000
0000
0000
0000
0000
0000
,
1000
0010
0100
0001
0000
1100
0001
0010
,
0100
1000
0000
0101
1000
0010
0100
0001
,
0000
1100
0001
0010
0100
1000
0000
0101
,
1000
0010
0100
0001
0000
1100
0001
0010
,
0100
0000
1000
0000
0001
0000
1000
0100
1000
0000
0001
0100
0001
0000
1000
0001
,
1000
0010
0100
0001
1000
0001
1000
1100
,
0000
1000
0010
0100
0001
0101
0000
0001
,
0010
0100
1000
1010
0000
0010
0100
0001
,
0010
0000
0001
1000
0001
1000
0100
0000
0010
0000
0100
0000
1000
0000
0001
0000
,
1000
0010
0100
0000
0010
0000
1000
0000
0100
0000
0010
0000
0001
1000
0100
0000
,
0010
0000
0001
0000
1000
0000
0010
0000
0100
0001
1000
0000
0010
0000
0100
0000
,
0001
1000
0100
1000
0100
1000
0001
0101
,
0000
0100
0010
0100
0010
1001
0000
0010
,
0100
0010
0100
1001
0000
1100
0000
0101
,
0000
0000
0001
0000
1000
0000
0100
0000
0010
0000
0100
0000
1000
0000
0001
0010
,
0100
0010
0001
0000
1000
0000
0010
0000
1000
0000
0001
0100
0010
0000
1000
0000
,
0001
0000
1000
0000
0100
0000
0010
0001
1000
0000
0001
0000
0100
0000
0001
0000
,
1000
0000
1100
0000
0000
0000
0001
0000
1000
0001
0100
0001
0100
0001
0100
0001
,
1000
0000
0001
0000
1000
0000
0010
0000
1000
0000
0001
0100
0010
0000
1000
0000
,
0010
0000
0100
0000
0001
0000
1000
0100
0010
0000
0001
0000
1000
0000
0001
0000
,
0100
0000
0101
0000
0000
0000
1000
0000
0001
1000
0100
1000
0100
1000
0100
1000
,
0001
0000
1000
0000
0010
0000
0100
0000
0001
0000
0010
0100
1000
0000
0001
0000
,
0100
0000
0010
0000
0100
0000
0001
1000
0100
0000
0010
0000
0100
0000
1000
0000
,
0001
0000
0011
0000
0000
0000
0001
0000
1000
0001
0100
0001
0100
0001
0100
0001
,
1000
0010
0100
0001
1000
0000
0001
0100
0010
0100
0001
0000
1000
0000
0001
0000
,
1000
0010
0100
0000
0010
1000
0001
0000
0010
0000
0100
0000
1000
0000
0001
0000
,
0100
0101
0000
1010
0000
0101
0000
0001
,
1000
0000
0100
0000
1000
0000
0010
0000
0100
0000
0001
0010
0100
0000
1000
0000
,
0001
0000
1000
0000
0010
0000
0100
0001
1000
0000
0100
0000
0010
0000
0001
0000
,
1000
0000
1100
0000
0000
0000
0001
0000
1000
0001
0100
0001
0100
0001
0100
0001
,
1000
0000
0001
0000
1000
0000
0100
0000
0010
0000
0001
1000
0010
0000
0100
0000
,
0010
0000
1000
0000
0001
0000
0010
0100
1000
0000
0001
0000
1000
0000
0001
0000
,
0100
0000
0101
0000
0000
0000
1000
0000
0001
1000
0100
1000
0100
1000
0100
1000
,
0001
0000
1000
0000
0100
0000
0010
0000
0100
1000
0001
0000
0010
0000
0100
0000
,
1000
0000
0001
0000
0010
0100
1000
0000
0001
0000
0100
0000
0010
0000
1000
0000
,
0001
0000
0101
0000
0000
0000
1000
0000
0001
1000
0100
1000
0100
1000
0100
1000
,
0001
0010
0100
1000
0001
0000
1000
0100
0010
0100
1000
0000
0001
0000
0010
0000
,
0100
1000
0001
0000
1000
0010
0100
0000
0001
0000
1000
0000
0100
0000
0010
0000
,
0001
0000
0011
0000
0000
0000
1100
0000
0000
0000
0011
0000
0000
0000
0001
1000
,
0001
0000
0010
0000
0100
0000
1000
0000
0010
0000
1000
0001
1000
0000
0100
0000
,
0010
0000
0001
0000
0100
0000
0001
1000
0001
0000
0010
0000
0100
0000
1000
0000
,
0001
0000
0101
0000
0000
0000
1100
0000
0000
0000
0101
0000
0000
0000
0001
1000
,
0001
0000
0100
0000
0010
0000
1000
0000
0100
0000
1000
0001
1000
0000
0010
0000
,
0100
0000
0001
0000
0010
0000
0001
1000
0001
0000
0100
0000
0010
0000
1000
0000
,
0001
0000
0011
0000
0000
0000
1010
0000
0000
0000
0011
0000
0000
0000
1000
0001
,
1000
0000
0100
0000
0010
0000
0001
0000
0100
0000
0001
1000
0001
0000
0010
0000
,
0100
0000
1000
0000
0010
0000
1000
0001
1000
0000
0100
0000
0010
0000
0001
0000
,
1000
0000
1010
0000
0000
0000
0011
0000
0000
0000
1010
0000
0000
0000
1000
0001
,
1000
0000
0010
0000
0100
0000
0001
0000
0010
0000
0001
1000
0001
0000
0100
0000
,
0010
0000
1000
0000
0100
0000
1000
0001
1000
0000
0010
0000
0100
0000
0001
0000
,
1000
1100
0000
0000
0000
0000
0000
0000
;

//--------------- dance-single - ----------------
#NOTEDATA:;
#STEPSTYPE:dance-single;
#DESCRIPTION:;
#DIFFICULTY:Challenge;
#METER:19;
#RADARVALUES:0.769405,0.854144,0,0,0.433691,534,534,0,0,0,0,0.769405,0.854144,0,0,0.433691,534,534,0,0,0,0;
#NOTES:
0000
0000
0000
0000
,
0000
0000
0000
0000
,
0102
0000
0000
0000
0003
0000
1100
0010
,
1000
0001
0010
0100
0120
0000
0000
0032
,
0000
0000
0000
0000
0000
0000
0000
0000
2003
0000
0000
0000
0000
0000
0000
0000
0000
0000
0000
0000
3001
0000
0000
0000
1000
0100
0010
0001
1000
0100
0010
0001
,
2000
0000
0000
0000
0000
0000
3010
0100
,
0001
0020
0000
0130
2000
0000
0000
3001
,
0100
0000
0000
0000
0010
0000
1000
0001
1000
0000
0010
0000
0100
0000
0001
0000
1000
0000
0100
0000
0010
0000
0000
0000
0110
0000
0000
0000
0110
0000
0000
0000
,
2002
3003
0000
0000
0000
0000
0000
0000
0000
0000
0000
0000
0000
0000
0000
0000
0000
0000
0000
0000
0000
0000
0000
0000
0000
0000
0000
0000
0000
0000
0000
0000
0000
0000
0000
0000
0000
0000
0000
0000
0000
0000
0000
0000
0000
0000
0000
0000
0011
0000
0000
0000
0000
0000
0000
0000
0000
0000
0000
0000
0000
0000
0000
0000
0000
0000
0000
0000
0000
0000
0000
0000
0000
0000
0000
0000
0000
0000
0000
0000
0000
0000
0000
0000
0000
0000
0000
0000
0000
0000
0000
0000
0000
0000
0000
0000
1100
0000
0000
0000
0000
0000
0000
0000
0000
0000
0000
0000
0000
0000
0000
0000
0000
0000
0000
0000
0000
0000
0000
0000
0010
0000
0000
0000
0000
0000
0000
0000
0000
0000
0000
0000
0000
0000
0000
0000
0000
0000
0000
0000
0000
0000
0000
0000
0001
0000
0000
0000
0000
0000
0000
0000
0000
0000
0000
0000
0000
0000
0000
0000
0000
0000
0000
0000
0000
0000
0000
0000
1000
0000
0000
0000
0000
0000
0000
0000
0000
0000
0000
0000
0000
0000
0000
0000
0000
0000
0000
0000
0000
0000
0000
0000
,
0001
0000
0010
0000
0001
0000
1000
0100
0010
0000
0001
0000
1000
0000
0010
0000
,
0100
0000
0001
0000
1100
0000
0000
0000
0001
0000
1000
0000
0100
0000
1000
0001
,
0100
0010
1000
0010
0101
0000
1100
0000
,
0101
0000
1000
0000
0010
0000
0100
0001
1000
0000
0010
0000
0100
0000
0001
0000
,
0010
0000
0000
0000
1100
0000
0000
0000
0001
1000
0100
0000
0010
0000
0100
0000
,
1001
0000
0001
1000
0010
0100
0101
0001
,
0010
0000
0100
0000
1000
0000
0001
0100
0010
0000
1000
0000
0001
0000
1000
0000
,
1010
0000
0000
0000
0101
0000
0000
0000
1010
0000
0010
0000
1000
0000
0001
0010
,
0100
1000
0001
1000
0100
0000
1100
0001
,
0010
0000
0100
0000
1000
0000
0001
0100
0001
0100
0001
0000
1000
0000
0010
0000
,
0100
0000
0001
0000
1000
0000
0001
0000
1000
0100
0010
0000
0001
0000
1000
0000
,
1100
0000
0001
0101
0000
1000
1100
0000
,
0001
0010
0100
1000
0101
1000
0001
1100
,
0001
1000
0101
0000
0011
0000
0101
0001
,
1001
0000
1000
1100
1000
0001
0110
0000
,
1000
0001
0100
0010
1001
0000
1001
0100
,
0010
0000
0110
0000
0110
1000
0001
0000
,
0011
0000
0010
1100
0000
0010
0101
0000
,
1100
0010
0100
0001
0110
1000
0001
0011
,
0000
0000
1100
0000
0000
0000
1000
0000
0001
0000
1000
0100
0010
0001
1000
0100
,
0010
0001
1000
0100
0010
0000
0001
0000
1000
0000
0010
0000
0101
0000
0000
0000
,
0001
0000
0010
0000
0100
0000
1000
0001
1000
0000
0010
0000
0100
0000
0001
0000
,
0010
0000
0110
0000
1000
0001
0010
0100
,
1100
0000
1100
0000
0101
0000
0101
0001
,
0010
0000
0100
0000
1000
0000
0001
0100
0001
0000
1000
0000
0010
0000
0100
0000
,
0010
1000
0200
0000
0000
0310
0000
0000
,
0000
0000
0000
0010
0000
0000
0000
0000
,
0000
0010
0000
0000
0200
0000
0000
0000
,
0000
0000
0000
0000
,
M0MM
M0MM
M0MM
M0MM
M0MM
M0MM
M0MM
M0MM
M0MM
M0MM
M0MM
0300
0110
0000
0000
0000
,
0110
0000
0110
0000
1001
0000
0001
0010
,
0100
1000
1100
0001
1000
0010
0100
0001
,
1000
0100
1000
0000
0001
0010
0001
0000
1000
0000
0001
1000
0001
1000
0100
0010
,
0001
0000
1000
0000
0001
0100
0001
0000
1000
0010
1000
0000
0001
1000
0001
1000
,
0100
0000
0010
0000
0001
0010
0100
0010
0001
1000
0100
1000
0001
0010
0100
1000
,
0001
0000
0100
0000
0001
1000
0010
1000
0001
0000
0100
0000
0010
1000
0010
0100
,
0001
0000
0000
0000
0000
0000
0000
0000
0000
0000
0000
0000
1000
0000
0000
0000
0000
0000
0000
0000
0000
0000
0000
0000
0001
0000
0000
0000
0000
0000
0000
0000
0000
0000
0000
0000
1000
0000
0000
0000
0000
0000
0000
0000
0000
0000
0000
0000
0010
0000
0000
0000
0000
0000
0000
0000
0000
0000
0000
0000
0000
0000
0000
0000
0000
0000
0000
0000
0000
0000
0000
0000
0100
0000
0000
0000
0000
0000
0000
0000
0000
0000
0000
0000
0000
0000
0000
0000
0000
0000
0000
0000
0000
0000
0000
0000
0002
0003
0000
0000
0000
0000
0000
0000
0000
0000
0000
0000
0000
0000
0000
0000
0000
0000
0000
0000
0000
0000
0000
0000
0010
0000
0000
0000
0000
0000
0000
0000
0000
0000
0000
0000
0000
0000
0000
0000
0000
0000
0000
0000
0000
0000
0000
0000
0100
0000
0000
0000
0000
0000
0000
0000
0000
0000
0000
0000
0000
0000
0000
0000
0000
0000
0000
0000
0000
0000
0000
0000
2000
3000
0000
0000
0000
0000
0000
0000
0000
0000
0000
0000
0100
0000
0000
0000
0000
0000
0000
0000
0000
0000
0000
0000
,
0001
0000
0100
0000
1000
0000
0001
0000
1000
0000
0001
0100
1000
0000
0100
0000
,
0001
0000
1000
0000
0001
0000
1000
0100
0001
0000
0100
0000
1000
0000
0001
0000
,
1000
0000
0001
0100
1000
0000
0100
0000
0001
0000
1000
0000
0001
0000
1000
0100
,
0001
0000
0100
0000
1000
0000
0001
0000
1000
0000
0001
0100
1000
0000
0100
0000
,
0001
0000
1000
0000
0001
0000
1000
0100
1000
0001
1000
0001
0100
0001
1000
0001
,
0010
0100
1000
0000
0100
0000
0010
0000
0001
0000
1000
0000
0010
0000
0110
0000
,
1000
0001
0100
0010
0100
1001
0001
0010
,
0100
0000
1000
0000
0001
0100
0001
0000
1000
0100
1000
0000
0010
0000
0100
0000
,
0001
0000
1000
0001
0100
0001
0100
0001
0100
0001
1000
0000
0001
0000
1000
0010
,
1000
0010
0100
0000
0001
0000
1000
0000
0100
0000
0010
0001
0010
0001
1000
0000
,
0010
0000
0100
0000
0001
0000
1000
0100
1000
0100
0010
0000
0001
0000
0101
0000
,
0100
0010
1000
1100
0100
0010
0001
0110
,
1000
0001
0010
0001
1000
1100
0100
0010
,
0001
0100
0010
1001
0100
1001
0010
1001
,
0100
0000
0010
0000
1000
0000
0100
0000
0010
0000
0100
0000
1000
0000
0001
0100
,
0001
0000
0010
0000
0100
0000
1000
0000
0001
0000
1000
0100
1000
0000
0010
0000
,
0100
0000
0001
0000
1000
0000
0001
0100
0001
0000
1000
0000
0001
0000
1000
0001
,
0100
0001
1000
0001
0100
0001
1000
0001
0100
0001
1000
0001
0100
0001
1000
0001
,
0100
0000
0010
0000
1000
0000
0001
0000
0010
0000
0100
1000
0100
0000
0010
0000
,
0001
0000
1000
0000
0010
0000
0100
0001
0100
0000
0010
0000
1000
0000
0001
1000
,
0100
1000
0001
1000
0100
1000
0001
1000
0100
1000
0001
1000
0100
1000
0001
1000
,
0100
0000
0010
0000
0001
0000
1000
0000
0010
0000
0100
0001
0100
0000
0010
0000
,
1000
0000
0001
0000
0010
0000
0100
1000
0100
0000
0010
0000
0001
0000
1000
0010
,
0100
0010
1000
0010
0100
0010
1000
0010
0100
0010
1000
0010
0100
0001
1000
0100
,
1000
0001
0100
0001
1000
0100
0010
0001
1000
0100
0010
0000
0001
0000
1000
0000
,
0001
0010
0100
1000
0001
0010
0100
0000
1000
0000
0001
0000
1000
0000
0010
0000
,
0100
0000
0101
0000
0001
0000
1100
0000
1000
0000
0101
0000
0001
0000
1000
0100
,
0010
0000
0100
0000
1000
0000
0001
0000
1000
0000
0001
0100
0010
0000
0100
0000
,
0001
0000
1000
0000
0001
0000
1000
0100
0010
0000
0100
0000
1000
0000
0001
1000
,
0100
1000
0001
1000
0100
1000
0001
0100
0001
1000
0001
0100
0001
1000
0001
0010
,
0100
0000
1000
0000
0001
0000
0100
0000
0001
0000
1000
0010
0100
0000
0001
0000
,
1000
0000
0100
0000
1000
0000
0001
0010
0100
0000
1000
0000
0001
0000
1000
0001
,
0100
0001
1000
0001
0100
0001
1000
0100
1000
0001
1000
0100
1000
0001
0010
0100
,
1000
0000
0001
0000
0100
0000
0010
0000
0100
0000
0001
1000
0100
0000
0010
0000
,
0001
0000
0100
0000
0010
0000
1000
0001
0100
0000
0010
0000
0100
0000
0001
1000
,
0001
0100
0001
1000
0010
0100
0001
1000
0100
1000
0001
1000
0100
0010
0001
1000
,
0100
1000
0001
0010
0001
1000
0100
0010
0001
1000
0100
0000
1000
0000
0001
0000
,
1000
0100
0010
0001
1000
0100
0010
0000
0001
0000
1000
0000
0100
0000
1100
0000
,
1000
0000
0101
0000
0001
0000
1010
0000
0100
0000
0101
0000
1000
0000
0001
0010
,
0100
0000
1000
0000
0001
0000
1000
0000
0100
0000
0010
0001
1000
0000
0010
0000
,
0100
0000
0001
0000
1000
0000
0001
0100
0010
0000
1000
0000
0100
0000
1000
0000
,
0001
0000
1100
0000
0010
0000
1100
0000
0001
0000
1100
0000
0001
0000
0010
0100
,
1000
0000
0010
0000
0100
0000
0001
0000
1000
0000
0010
0100
0001
0000
0010
0000
,
0100
0000
1000
0000
0001
0000
0010
0100
1000
0000
0010
0000
0100
0000
0001
0000
,
1000
0000
0101
0000
0010
0000
0101
0000
1000
0000
0101
0000
0010
0000
0100
1000
,
0001
0000
0010
0000
0100
0000
1000
0000
0001
0000
0100
0010
1000
0000
0100
0000
,
0010
0000
0001
0000
1000
0000
0010
0100
0001
0000
1000
0000
0100
0000
0010
0000
,
0001
0000
0110
0000
1000
0000
0110
0000
0001
0000
0110
0000
1000
0000
0001
0010
,
0100
0000
0001
0000
1000
0000
0010
0000
0100
0000
1000
0010
0100
0000
1000
0000
,
0001
0000
0010
0000
1000
0000
0100
0010
0001
0000
1000
0000
0100
0000
0010
0000
,
0001
1001
0000
0000
0000
0000
0000
0000
;
