#TITLE:ポッピンキャンディ☆フィーバー!;
#SUBTITLE:;
#ARTIST:キノシタ(kinoshita) feat.音街ウナ・鏡音リン;
#TITLETRANSLIT:Poppin' Candy Fever!;
#SUBTITLETRANSLIT:;
#ARTISTTRANSLIT:kinoshita;
#GENRE:POP;
#CREDIT:;
#MUSIC:Poppin' Candy Fever!.ogg;
#BANNER:Poppin' Candy Fever!.png;
#BACKGROUND:Poppin' Candy Fever!-bg.png;
#CDTITLE:;
#SAMPLESTART:65.239;
#SAMPLELENGTH:10.579;
#SELECTABLE:YES;
#OFFSET:1.235;
#BPMS:0.000=190.000;
#STOPS:312.500=0.316
,313.500=0.316
;
#LASTBEATHINT:0.744167;
#BGCHANGES:8.500=Poppin' Candy Fever!.avi=1.000=0=0=0=StretchNoLoop====,
99999.000=-nosongbg-=1.000=0=0=0=StretchNoLoop====
;
#FGCHANGES:;

//--------------- dance-single - ----------------
#NOTES:
     dance-single:
     :
     Medium:
     12:
     0,0,0,0,0:
0000
0000
0000
0000
,
0000
0000
0000
0000
,
0000
0000
0000
0000
,
0000
0000
0000
0000
,
0000
0000
0000
0000
,
0000
0000
0000
0000
,
0000
0000
0000
0000
,
0000
0000
0000
0000
,
0000
0000
0000
0000
,
0000
0000
0000
0000
,
0000
0000
0000
0000
,
0001
0100
0001
0000
0010
0001
0010
0000
,
0100
0000
0000
1000
0010
0000
0100
0000
0001
0000
0000
0000
1001
0000
0000
0000
,
1000
0010
1000
0000
0100
1000
0100
0000
,
0010
0000
0000
0001
1000
0000
0010
0000
0100
0000
0000
0000
0110
0000
0000
0000
,
0100
0001
1000
0000
0100
1000
0001
0000
,
0100
0000
0000
0010
1000
0000
0001
0000
0010
0000
0000
0000
1100
0000
0000
0000
,
1000
0100
0010
0100
1000
0001
0100
0000
,
1001
0000
1000
0010
0200
0000
0301
0000
,
1000
0000
1000
0000
0010
0100
0010
0000
,
2000
0000
3001
0002
0000
0013
0000
0200
,
0000
1300
0001
0000
0100
0000
1000
0100
,
0020
0000
1030
0002
0000
0013
0000
0100
,
0000
0100
1000
0001
0000
0001
0100
1000
,
0000
1000
0100
0001
0000
1000
0100
0010
,
0002
0000
1003
0000
0110
0000
0001
1000
,
0000
0001
0010
0100
1000
0000
1001
0000
,
0101
1100
0101
1100
,
0002
0000
1003
2000
0000
3010
0000
0110
,
0000
1000
0100
0000
0010
0001
1000
0000
,
0020
0000
0130
0200
0000
0301
0000
1100
,
0000
0100
1000
0000
1000
0010
0100
0000
,
0100
0001
1000
0001
0000
0000
1000
0001
,
1000
0001
0010
0100
0000
0100
1000
0001
,
0000
1000
0001
1000
0001
0000
0110
0000
,
0011
0101
1010
1100
,
0110
0000
0011
0000
0001
0100
0010
0000
,
1010
0101
0011
1100
,
1001
0000
0110
0000
1000
0100
0010
0000
,
0011
1100
1010
0101
,
1001
0110
2001
3200
,
0310
0010
0100
0100
,
2000
3200
0320
0032
,
1003
0001
1000
0001
0100
0000
0010
0000
,
1000
0100
0010
0001
1000
1010
0000
0101
,
0000
1001
0000
1100
0000
0011
0000
0001
,
2000
3020
0230
0301
,
1000
0001
1000
0000
0010
0100
0010
0000
,
0100
0001
1000
0100
0010
0000
0110
0000
,
0020
0032
2003
3020
,
0032
2003
3200
0302
,
1003
1100
0101
1100
,
1000
0000
0001
1000
0001
0100
0100
0100
,
0001
0000
0100
0001
1000
0000
1100
0000
,
0010
0000
0010
0001
1000
0000
0001
0200
,
0000
1300
0100
0001
0010
0100
1000
0002
,
0000
0103
0010
0000
1001
0000
0001
0020
,
0000
1030
0010
0001
0200
0000
1300
0200
,
0000
0310
1000
0001
0010
0000
0110
0000
,
1100
0101
1100
0101
,
1000
0100
0100
0100
1000
0001
1000
0000
,
0110
0000
1001
0000
0001
0010
0100
0000
,
1000
0100
0010
0000
0001
1000
0001
0100
,
0000
0010
0100
0010
1000
0100
0010
0002
,
0000
1003
0010
0000
0110
0000
0001
1000
,
0000
1000
0100
0001
0200
0000
1300
0020
,
0000
0130
0001
1000
0010
0000
0101
0000
,
1010
0011
1010
0011
,
1100
1001
0110
1001
,
0011
0000
0001
1000
0000
1000
0010
0001
,
0000
0010
0000
2000
0000
3001
0010
0001
,
1000
0000
1000
0010
0000
0010
0100
0001
,
0000
0001
0000
2000
0000
3001
0010
0100
,
1000
0001
0000
0200
0000
0310
1000
0010
,
1000
0001
0010
0100
2000
0000
0000
0000
,
3001
0000
0100
0010
0000
1000
0000
0002
,
0000
1003
0100
1000
0100
0001
0100
0001
,
0100
1000
0010
0100
0001
0000
1001
0000
,
0001
0000
0000
0000
0000
0000
0000
0000
0000
0000
0000
0000
0000
0000
0000
0000
0000
0000
0000
0000
0000
0000
0000
0000
2000
3000
0000
0000
0000
0000
0000
0000
0000
0000
0000
0000
0000
0000
0000
0000
0000
0000
0000
0000
0000
0000
0000
0000
0010
0000
0000
0000
0000
0000
0000
0000
0000
0000
0000
0000
0000
0000
0000
0000
0000
0000
0000
0000
0000
0000
0000
0000
0200
0300
0000
0000
0000
0000
0000
0000
0000
0000
0000
0000
0000
0000
0000
0000
0000
0000
0000
0000
0000
0000
0000
0000
0110
0000
0000
0000
0000
0000
0000
0000
0000
0000
0000
0000
0000
0000
0000
0000
0000
0000
0000
0000
0000
0000
0000
0000
0000
0000
0000
0000
0000
0000
0000
0000
0000
0000
0000
0000
0000
0000
0000
0000
0000
0000
0000
0000
0000
0000
0000
0000
0110
0000
0000
0000
0000
0000
0000
0000
0000
0000
0000
0000
0000
0000
0000
0000
0000
0000
0000
0000
0000
0000
0000
0000
0000
0000
0000
0000
0000
0000
0000
0000
0000
0000
0000
0000
0000
0000
0000
0000
0000
0000
0000
0000
0000
0000
0000
0000
,
1001
0000
0001
0020
0000
0130
1000
0000
,
0001
0100
1000
0200
0000
0301
1000
0000
,
1001
0000
0001
0200
0000
0310
1000
0001
,
0020
0000
0130
2000
0000
3001
0100
1000
,
0100
0001
0010
0000
0011
0000
1100
0000
,
1000
0001
1000
0000
0001
0100
0100
0100
,
0001
1000
0001
1000
0110
0000
1001
0000
,
2000
0000
3010
0200
0000
0301
0010
0100
,
2000
0000
3001
0200
0000
1300
0100
0001
,
0010
1000
0010
0100
0000
0100
2000
0000
,
3001
0000
0100
0020
0000
1030
0001
0000
,
0020
0000
0130
2000
0000
3001
0200
0000
,
0310
1000
0001
0000
0011
0000
1100
0000
,
1010
0000
0100
0001
1000
0000
1001
0000
,
0110
0000
1001
0000
0001
0100
0001
0000
,
0010
0001
0010
0000
0100
1000
0100
0000
,
1000
0010
1000
0000
0010
0100
0010
0000
,
1000
0001
1000
0000
0010
0000
0100
0001
,
1000
0000
0100
0000
0010
0001
0100
0000
,
0100
0001
0010
0000
0100
1000
0010
0000
,
0010
1000
0100
0000
0001
0100
1000
0000
,
0001
0100
1000
0001
0010
0000
1000
0000
,
1001
0000
0000
0000
;

//--------------- dance-single - ----------------
#NOTES:
     dance-single:
     :
     Hard:
     15:
     0,0,0,0,0:
0000
0000
0000
0000
,
0000
0000
0000
0000
,
0000
0000
0000
0000
,
0000
0000
0000
0000
,
0000
0000
0000
0000
,
0000
0000
0000
0000
,
0000
0000
0000
0000
,
0000
0000
0000
0000
,
0000
0000
0000
0000
,
0000
0000
0000
0000
,
0000
0000
0000
0000
,
1000
0000
0001
0100
0001
0000
0010
0000
0100
0000
1000
0100
1000
0000
0010
0000
,
0100
0000
0000
0001
1000
0000
0100
0000
0010
0000
0100
1000
0001
0000
0000
0000
,
0001
0000
1000
0100
1000
0000
0010
0000
0100
0000
0001
0100
0001
0000
0010
0000
,
0100
0000
1000
0001
1000
0000
0010
0000
0100
0000
0010
1000
0001
0000
0000
0000
,
0010
0000
0100
1000
0100
0000
1000
0000
0001
0000
0100
0001
0100
0000
0010
0000
,
1000
0000
0000
0001
0010
0000
0100
0000
0010
0000
0100
1000
0001
0000
0000
0000
,
1000
0001
0100
0001
1000
0001
0100
0001
1000
0000
0010
0100
0010
0000
0100
0000
,
0001
0000
1000
0100
1000
0000
0010
0000
0120
0000
0000
0000
1030
0000
0000
0000
,
0001
0010
0100
0010
0001
1000
0010
0100
,
0002
0000
1003
2000
0000
3100
0000
0020
,
0000
0031
0100
1000
0100
0010
1000
0100
,
0020
0000
0031
0002
0000
1003
0010
0100
,
0000
0100
0001
1000
0000
1000
0000
0001
,
0000
0001
0010
0100
0000
0100
1000
0001
,
2000
0000
3010
0100
0010
0100
0001
1000
,
0000
0001
0010
0100
1000
0000
1001
0000
,
0001
0100
1000
0100
0001
0100
1000
0100
,
0002
0000
1003
2000
0000
3100
0000
0110
,
0000
1000
0100
0001
0100
1000
0100
0001
,
0200
0000
1300
2000
0000
3001
0000
1020
,
0000
0130
0001
1000
0001
0010
0100
0010
,
0001
0000
1000
0010
0100
0000
0001
0000
0000
0000
1000
0001
0010
0000
0100
0000
,
0010
0000
0100
0000
0010
0000
0001
0000
0000
0000
0100
0010
1000
0000
0001
0000
,
0000
0100
0010
0100
0010
0000
0110
0000
,
0010
0000
1000
0001
1000
0000
0100
0000
0010
0000
0001
1000
0001
0000
0100
0000
,
0010
0000
1000
0001
1000
0000
0200
0000
0000
0000
0310
0001
1000
0000
0001
0000
,
1000
0000
0010
0100
0010
0000
1000
0000
0001
0000
0010
0100
0010
0000
0001
0000
,
1000
0000
0010
0100
0010
0000
1000
0000
0001
0000
0010
0000
0100
0000
1000
0000
,
0010
0000
0100
0001
1000
0000
0100
0000
0010
0000
0100
1000
0001
0000
0100
0000
,
0010
0000
0100
0001
1000
0000
0100
0000
0020
0000
0000
0000
0230
0000
0000
0000
,
1300
1000
0010
0010
0100
0100
0001
0001
,
2100
3000
0210
0300
0021
0030
1002
0000
,
1003
0001
1000
0001
0100
0000
0010
0000
,
1000
0100
0010
0001
1000
0000
0000
0001
,
1000
0010
1000
0010
0001
0010
1000
0001
,
0011
1100
1001
0001
,
1000
0001
1000
0001
0010
0000
0100
0010
,
0100
0000
0000
0010
0000
0000
0001
0000
0000
1000
0000
0000
0010
0000
0000
0000
0000
0000
0110
0000
0000
0000
0010
0000
,
1000
0000
0000
1100
0000
1000
0001
0000
0000
0101
0000
0001
,
0010
0000
0000
0000
0000
0000
0000
0000
0000
0000
0000
0000
0110
0000
0000
0000
0000
0000
0000
0000
0100
0000
0000
0000
1000
0000
0000
0000
0000
0000
0001
0000
0000
0000
0000
0000
0000
0000
0000
0100
0000
0000
0000
0000
0000
0000
0000
0000
,
0210
1000
0001
1000
,
0301
0000
1000
0001
1000
0000
0001
0000
0010
0000
0100
0000
0100
0000
0100
0000
,
0110
0010
0001
1000
1010
0000
0101
0001
,
0010
0000
1000
0000
0010
0000
0001
0000
1000
0010
0000
0000
1010
0000
2000
0000
,
0000
0000
3001
0100
0001
0000
1000
0100
1000
0000
0100
0000
0010
0000
0021
0000
,
0000
0130
1000
0000
1001
0000
0001
0120
,
0000
1030
0001
1000
0210
0000
0301
2100
,
0000
0000
3001
0000
0100
0000
1000
0000
0100
0000
0001
0010
0200
0000
0000
0000
,
0310
0000
0001
1000
0001
0000
1000
0001
1000
0000
0010
0100
0010
0000
1000
0000
,
0001
0000
0010
0000
0010
0000
0010
0000
0100
0000
0100
0000
1000
0100
0010
0001
,
1000
0010
0100
0001
0101
0000
1010
2000
,
0000
0000
3001
0010
0100
0000
0010
0000
0001
1000
0000
0000
0010
0000
0210
0000
,
0000
0000
0301
0000
0120
0000
1030
0000
0001
0000
0010
0100
1000
0000
2100
0000
,
0000
3001
0100
0010
0200
0001
0301
1001
,
0000
0000
1000
0100
0010
0000
0100
0000
1000
0001
0000
0000
0101
0000
0200
0000
,
0000
0000
0310
0000
1000
0000
0100
0000
0010
0000
0100
1000
0001
0000
0000
0000
,
1000
0000
0010
0100
0010
0000
0100
0010
0100
0000
0010
1000
0001
0000
1000
0000
,
0001
1001
0110
1001
,
0011
0000
0010
0100
0000
0100
1000
0001
,
0000
0001
0000
0101
0000
0100
0010
0100
,
0010
0000
0010
1000
0000
1000
0100
0010
,
0000
0010
0000
0011
0000
0001
0010
0100
,
1000
0000
1100
0000
0000
0000
1010
0000
0000
0000
0010
0000
0100
0000
0010
1000
,
0010
0000
0100
0001
0100
0000
0010
1000
0010
1000
0010
1000
0010
1000
0010
1000
,
0001
0010
1000
0001
0100
1000
0010
0200
,
0000
0301
0001
1000
1000
0001
0001
1000
,
0100
0010
0001
1000
1001
0000
1000
0000
,
0010
0000
0000
0000
0000
0000
0000
0000
0000
0000
0000
0000
0000
0000
0000
0000
0000
0000
0000
0000
0000
0000
0000
0000
0220
0330
0000
0000
0000
0000
0000
0000
0000
0000
0000
0000
0000
0000
0000
0000
0000
0000
0000
0000
0000
0000
0000
0000
1000
0000
0000
0000
0000
0000
0000
0000
0000
0000
0000
0000
0000
0000
0000
0000
0000
0000
0000
0000
0000
0000
0000
0000
2002
3003
0000
0000
0000
0000
0000
0000
0000
0000
0000
0000
0000
0000
0000
0000
0000
0000
0000
0000
0000
0000
0000
0000
0011
0000
0000
0000
0000
0000
0000
0000
0000
0000
0000
0000
0000
0000
0000
0000
0000
0000
0000
0000
0000
0000
0000
0000
0000
0000
0000
0000
0000
0000
0000
0000
0000
0000
0000
0000
0000
0000
0000
0000
0000
0000
0000
0000
0000
0000
0000
0000
0110
0000
0000
0000
0000
0000
0000
0000
0000
0000
0000
0000
0000
0000
0000
0000
0000
0000
0000
0000
0000
0000
0000
0000
0000
0000
0000
0000
0000
0000
0000
0000
0000
0000
0000
0000
0000
0000
0000
0000
0000
0000
0000
0000
0000
0000
0000
0000
,
1100
0000
0000
0000
1001
0000
2000
0000
0000
0000
3010
0100
0001
0000
0100
0010
,
1000
0000
0100
0000
0001
0000
0200
0000
0000
0000
0310
0001
1000
0000
0010
0000
,
0110
0000
0000
0000
1010
0000
0200
0000
0000
0000
0310
1000
0001
0000
0010
0000
,
0011
0000
0000
0001
1000
0000
1010
0000
0000
0000
0010
1000
0100
0000
0010
0000
,
0001
0000
1000
0000
0010
0100
0010
0100
0010
0000
1010
0000
0100
0000
0101
0000
,
0001
0000
1000
0100
1000
0000
0001
0000
1000
0000
0100
0000
0100
0000
0100
0000
,
0010
0010
0001
1000
0110
0000
1001
1000
,
0200
0000
0000
0000
0310
0000
0011
0000
0000
0000
0001
0100
0010
0000
0100
0000
,
0001
0010
0000
0000
0110
0000
0200
0000
0000
0000
1300
0010
0100
0000
0010
1000
,
0001
0010
0100
1100
0000
0110
0020
0000
,
0031
0000
1000
0010
0100
0000
0020
0000
0000
0000
1030
0000
0001
0000
0100
0000
,
0110
0000
0000
0000
0101
0000
0002
0000
0000
0000
1003
0100
0010
0000
0100
0000
,
1000
0000
0010
0100
0002
0000
0000
0000
1003
0000
0100
0010
0100
0000
0010
0100
,
0010
0000
0100
1000
0001
0000
0100
0000
1000
0000
0100
0000
0110
0000
0000
0000
,
1001
0000
0110
0000
0001
0100
0101
0000
,
1000
0010
1010
0000
1000
0100
1100
0000
,
0001
0010
0011
0000
1000
0001
0110
0000
,
0100
0000
0010
0000
1001
0000
0000
0000
1000
0000
0001
0010
0100
0000
0010
0001
,
1000
0001
0000
0100
0010
0000
1000
0000
0100
0000
0010
0000
0011
0000
0000
0000
,
0001
0100
1010
0000
1000
0010
0101
0000
,
0001
0000
0010
0000
1100
0000
0000
0000
0110
0000
0010
0100
0010
0000
0000
0000
,
1001
0000
0000
0000
0000
0000
0001
0000
0000
0000
0000
0000
1000
0000
0000
0100
0000
0000
0010
0000
0000
0001
0000
0000
1000
0000
0000
0000
0000
0000
0000
0000
0000
0000
0000
0000
1000
0000
0000
0000
0010
0000
0000
0000
0100
0000
0000
0000
,
0001
0000
0000
0000
;

//--------------- dance-single - ----------------
#NOTES:
     dance-single:
     :
     Challenge:
     18:
     0.851326,1.07916,0.399333,0.061436,0.176628,776,724,52,8,0,0,0.851326,1.07916,0.399333,0.061436,0.176628,776,724,52,8,0,0:
0000
0000
0000
0000
,
0000
0000
0000
0000
,
0000
0000
0000
0000
,
0000
0000
0000
0000
,
0000
0000
0000
0000
,
0000
0000
0000
0000
,
0000
0000
0000
0000
,
0000
0000
0000
0000
,
0000
0000
0000
0000
,
0000
0000
0000
0000
,
0001
0000
1000
0010
0100
0000
0010
0000
0110
0000
0000
0000
1001
0000
0000
0000
,
1100
0000
0010
0100
1000
0000
0010
0000
0101
0000
0010
0100
0001
0000
0010
0000
,
0110
0000
0100
1000
0010
0000
0100
0000
0010
0000
0100
0001
1000
0000
0000
0000
,
0011
0000
0100
0010
0001
0000
0100
0000
1010
0000
0100
0010
1000
0000
0100
0000
,
0110
0000
0010
0001
1000
0000
0010
0000
0100
0000
1000
0100
0010
0100
1000
0100
,
0010
0000
0100
0001
0010
0000
0100
0000
0011
0000
0100
1000
0010
0000
0100
0000
,
0110
0000
0010
1000
0001
0000
0010
0000
0100
0000
0010
0001
1000
0000
0000
0000
,
0001
0100
1000
0100
0001
0100
1000
0100
0001
0000
1000
0100
0010
0000
0100
0000
,
0110
0000
0010
0001
1000
0000
0001
0000
1002
0000
0000
0000
0103
0000
0000
0000
,
0010
1000
0001
0010
1000
0010
0001
1000
,
1020
0000
0130
0201
0000
0301
0011
0020
,
0000
0130
1000
0100
1000
0010
0100
0001
,
1002
0000
1003
1020
0000
0130
0001
1100
,
0000
1000
0010
0101
0000
0001
0100
1010
,
0000
1000
0100
0011
0000
0001
0100
1000
,
0200
0000
0310
0010
1000
0100
0010
0011
,
0000
0000
0000
0001
0000
0000
0010
0000
0000
0100
0000
0000
1100
0000
0000
0000
0000
0000
1000
0100
0010
0001
1000
0100
,
0010
0000
0001
0010
0100
0000
1000
0000
0001
0000
0100
0010
1000
0000
0001
0000
,
2100
0000
3010
0120
0000
0130
0001
0101
,
0000
0000
0100
0001
0010
0000
0100
1000
0010
0000
0100
0001
0010
0000
0100
0000
,
2100
0000
3001
0102
0000
0103
0010
0120
,
0000
0000
1030
0100
0010
0000
0100
0000
1000
0000
0001
0000
0100
0000
1000
0000
,
0100
0000
0001
0010
0100
0000
1100
0000
0000
0000
1000
0010
0100
0000
0010
0000
,
0100
0001
0100
0001
1000
0100
1000
0100
0010
0001
0010
0001
1000
0010
0100
0000
,
0000
0110
0110
1001
0120
0000
0130
0000
,
0001
0000
0010
0100
0010
0000
1000
0000
0001
0000
0100
0010
0100
0000
1000
0000
,
0001
0000
0100
0010
0100
0000
1000
0000
0001
0000
0010
1000
0100
0000
0010
0000
,
0100
0000
1000
0001
1000
0000
0010
0000
0100
0000
0001
1000
0001
0000
0010
0000
,
0100
0000
0010
0001
1000
0000
0010
0000
0100
0001
0010
0001
0100
0001
0010
0001
,
0100
0000
0010
1000
0100
0000
0001
0000
1000
0000
0010
0001
0100
0000
1000
0000
,
0100
0001
0010
0100
1000
0000
0010
0000
0001
0000
1000
0100
0020
0000
0000
0000
,
0130
0000
0001
0010
0001
0000
0010
0100
0010
0000
1000
0010
1000
0010
0001
0100
,
2000
0000
0000
0000
0000
0000
3200
0000
0000
0000
0000
0000
0302
0000
0000
0000
0000
0000
1003
0100
0010
0001
1000
0100
,
0010
0001
1000
0001
0110
0000
1001
0000
,
1000
0010
0100
0001
1000
0110
0000
0110
,
0001
1000
0010
0100
0001
0010
0100
1000
,
0011
0000
0110
0000
0110
1001
0000
1001
,
0001
0000
0000
1000
0000
0000
0001
0100
0001
0100
0001
0100
0001
0000
0000
0010
0000
0000
0100
1000
0100
1000
0100
1000
,
0100
0000
0000
0010
0001
0010
0001
0000
0000
1000
0010
1000
0010
0000
0000
0000
0000
0000
0110
0000
0000
0000
0010
0000
,
1000
0000
0000
0001
0010
1000
0001
0000
0000
0100
1000
0001
,
0100
0000
0000
0000
0000
0000
0000
0000
0000
0000
0000
0000
1000
0000
0000
0000
0100
0000
0000
0000
0001
0000
0000
0000
0010
0000
0000
0000
0000
0000
0100
0000
0000
0000
0000
0000
0000
0000
0000
1000
0000
0000
0000
0000
0000
0000
0000
0000
,
0201
1000
0001
1000
,
0310
0000
0010
0100
0010
0000
1000
0000
0001
0000
1100
0000
0101
0000
1100
0000
,
0101
0000
0100
0001
0010
0000
0100
0010
0001
0000
0100
0000
0010
0000
1000
0000
,
1100
0000
0100
1000
0010
0000
0100
0010
1000
0000
0001
0000
0010
0000
0120
0000
,
0000
0000
0130
1000
0010
0000
0100
0001
0010
0000
0100
1000
0001
0000
0201
0000
,
0000
0000
0310
1000
0001
0000
0010
0000
0200
0000
0010
0000
0310
0000
0120
0000
,
0000
0000
0130
1000
0001
0000
1000
0010
0100
0000
0001
0000
0010
0000
2100
0000
,
0000
0000
3001
0000
0101
0000
0100
0000
0001
0000
1000
0010
0100
0000
0001
0000
,
1001
0000
1000
0100
0001
0000
0001
0100
1000
0000
1000
0010
0100
0000
0001
0000
,
1002
0000
0000
0000
0000
0000
0100
0000
0000
0000
0000
0000
0100
0000
0000
0000
0000
0000
0103
0000
0000
0000
0000
0000
0010
0000
0000
1000
0000
0000
0010
0000
0000
1000
0000
0000
0100
0000
0010
0000
0001
0000
1000
0000
0100
0000
0010
0000
,
0001
0000
1000
0010
0100
0000
0100
0001
0010
0000
0100
0000
1000
0000
0001
0000
,
1000
0000
0100
0010
0001
0000
0001
1000
0010
0000
0100
0000
0001
0000
0011
0000
,
0000
0000
0010
0001
0100
0000
0100
0001
0010
0000
0100
1000
0001
0000
0201
0000
,
0000
0000
0310
1000
0001
0000
0010
0000
0200
0000
1000
0000
1300
0000
0110
0000
,
0000
0000
0010
0001
1000
0000
1000
0010
0100
0000
0001
0000
0010
0000
2100
0000
,
0000
0000
3100
0000
0110
0000
0010
0000
0001
0000
1000
0010
1000
0000
0010
0000
,
0100
0000
0001
0100
1000
0000
1000
0100
0001
0000
0001
0010
0100
0000
1000
0000
,
0001
0010
0110
0000
1001
0000
0110
0000
,
1010
0000
1100
0101
0000
0001
0011
0110
,
0000
0100
1001
1010
0000
0100
0001
0101
,
0110
0000
1010
0101
0000
0001
0011
1100
,
0000
0000
0100
0000
0110
0000
1001
0000
0000
0000
0001
0010
0100
1000
0001
0010
,
0100
0000
0000
1100
0000
0000
0000
0000
0000
1001
0000
0000
0000
0000
0000
0001
0100
0010
1000
0001
0100
0010
1000
0001
,
0100
0000
0010
0100
0010
0000
0100
0001
1000
0001
1000
0001
0010
0100
0010
0100
,
1000
0001
1000
1100
0001
0101
1000
1010
,
0000
0000
0000
0000
0000
0000
0100
0000
0000
0010
0000
0000
0100
0000
0000
0000
0000
0000
0001
0000
0000
0000
0000
0000
1000
0000
0000
0000
0000
0000
0001
0000
0010
0000
0100
0000
1000
0000
0001
0000
0010
0000
0100
0000
0000
0000
0000
0000
,
1000
0000
0001
0000
1000
0000
0001
0000
1001
0000
0000
0000
1000
0100
0010
0001
,
0100
0000
0000
0000
0000
0000
0000
0000
0000
0000
0000
0000
0000
0000
0000
0000
0000
0000
0000
0000
0000
0000
0000
0000
0220
0330
0000
0000
0000
0000
0000
0000
0000
0000
0000
0000
0000
0000
0000
0000
0000
0000
0000
0000
0000
0000
0000
0000
1001
0000
0000
0000
0000
0000
0000
0000
0000
0000
0000
0000
0000
0000
0000
0000
0000
0000
0000
0000
0000
0000
0000
0000
2002
3003
0000
0000
0000
0000
0000
0000
0000
0000
0000
0000
0000
0000
0000
0000
0000
0000
0000
0000
0000
0000
0000
0000
0110
0000
0000
0000
0000
0000
0000
0000
0000
0000
0000
0000
0000
0000
0000
0000
0000
0000
0000
0000
0000
0000
0000
0000
0000
0000
0000
0000
0000
0000
0000
0000
0000
0000
0000
0000
0000
0000
0000
0000
0000
0000
0000
0000
0000
0000
0000
0000
1001
0000
0000
0000
0000
0000
0000
0000
0000
0000
0000
0000
0000
0000
0000
0000
0000
0000
0000
0000
0000
0000
0000
0000
0000
0000
0000
0000
0000
0000
0000
0000
0000
0000
0000
0000
0000
0000
0000
0000
0000
0000
0000
0000
0000
0000
0000
0000
,
0110
0000
0000
0000
1001
0000
0100
0000
0011
0000
0010
0001
1000
0000
1000
0010
,
0100
0000
1000
0000
0100
0000
0001
0000
1000
0000
0001
0100
0010
0100
0001
1000
,
0001
0010
0100
0010
0001
0000
1000
0000
1001
0000
0001
1000
0010
0000
0100
0000
,
1001
0000
1000
0001
0010
0000
0100
0000
0110
0000
0010
0001
0100
0000
0010
1000
,
0100
0000
0010
0001
0100
0010
1000
0100
0010
0000
0100
0000
0010
0000
0100
0000
,
1000
0000
0001
0100
0001
0000
1000
0000
1100
0000
0110
0000
0101
0000
1001
0000
,
0011
0110
1010
1001
1100
0000
1001
1000
,
0001
0000
1000
0100
0010
0000
0100
0000
1000
0000
0001
0100
0010
0000
0010
1000
,
0001
0000
0010
0000
0100
1000
0100
0010
0001
0000
1000
0010
0100
0000
0100
0001
,
1000
0000
0100
0010
0100
0000
0001
0000
0100
0000
1000
0100
0010
0100
1000
0001
,
1000
0010
0100
0010
1000
0000
0010
0000
0000
0000
0100
0001
0100
0000
0010
1000
,
0010
0000
1000
0001
0010
0100
1000
0010
1000
0000
0001
0100
0001
0000
1000
0100
,
1000
0000
0010
0100
0010
0000
1000
0100
0010
0100
1000
0001
0100
0010
0100
0001
,
1000
0100
0010
0001
1000
0010
0001
1000
0100
0001
1000
0001
1000
0001
0010
1000
,
0001
0100
1000
0001
1000
0001
0010
0100
1100
0000
1100
0000
1100
0000
0000
0000
,
0011
0011
0011
0000
0101
0101
0101
0000
,
1010
1010
1010
0000
0110
0110
1001
0000
,
1001
0000
1001
0000
1001
0000
0001
0000
1000
0100
0010
0001
1000
0001
0010
0100
,
1000
0010
0000
1000
0100
0010
0001
1000
1010
0000
1010
0000
1001
0000
0000
0000
,
0011
0011
1001
0000
1100
1100
1001
0000
,
0101
0000
0101
0000
1001
0000
0000
0000
1100
0000
0001
1000
0100
0000
0010
0000
,
0011
0000
0000
0000
0000
0000
0001
0000
0000
0010
0000
0000
1000
0000
0000
0001
0000
0000
0100
0000
0000
1000
0000
0000
0001
0000
0000
0000
0000
0000
0000
0000
0000
0000
0000
0000
1000
0000
0000
0000
0010
0000
0000
0000
0100
0000
0000
0000
,
1001
0000
0000
0000
;
