#TITLE:ポンコツ!異世界シアター;
#SUBTITLE:;
#ARTIST:シャルティア、めぐみん、レム、ヴィーシャ;
#TITLETRANSLIT:Ponkotsu! Isekai Theater;
#SUBTITLETRANSLIT:;
#ARTISTTRANSLIT:Chartia;
#GENRE:ANIME;
#CREDIT:;
#MUSIC:Ponkotsu! Isekai Theater.ogg;
#BANNER:Ponkotsu! Isekai Theater.png;
#BACKGROUND:Ponkotsu! Isekai Theater-bg.png;
#CDTITLE:;
#SAMPLESTART:64.721;
#SAMPLELENGTH:11.636;
#SELECTABLE:YES;
#OFFSET:0.030;
#BPMS:0.000=165.000
,126.500=143.000
,140.000=165.000
;
#STOPS:;
#BGCHANGES:;
#FGCHANGES:;

//--------------- dance-single - ----------------
#NOTES:
     dance-single:
     :
     Hard:
     13:
     0,0,0,0,0:
0000
0000
0000
0000
,
0000
0000
0000
0000
,
0000
0000
0000
2002
,
0000
0000
0000
0000
0000
0000
0000
3000
,
2003
0000
0000
3002
0000
0023
0230
0000
0000
0320
0000
0000
,
0032
0000
2003
3020
0000
0000
0230
0000
0000
0302
0000
0000
,
2003
0000
0000
0000
0200
0000
0000
3000
,
0020
0000
0000
0300
0002
0000
0000
0033
,
0110
0000
0000
0000
1001
0000
0000
0000
1000
0000
0001
0010
0000
0001
0100
0000
,
0020
0000
1000
1030
0000
0010
0100
0010
,
1000
0000
0000
1010
0000
0000
0010
0000
0100
0000
0000
0000
0101
0000
0000
0000
,
1100
0000
0000
0101
0000
0000
0001
0000
1001
0000
0000
0000
0110
0000
0000
0000
,
0001
0100
0010
1000
0001
0100
0010
1000
,
0002
0023
0230
1300
,
0001
0100
0001
1000
0000
0000
1000
0100
1000
0001
0000
0000
,
0001
1000
0001
1000
0001
1000
0001
0000
0000
0110
0000
0000
,
0110
0001
1000
0001
0100
0000
0100
0010
,
1010
0000
1000
0000
0001
0000
0100
0000
0001
0000
1000
0100
1000
0000
0100
1000
,
0100
0010
0001
1000
1100
0000
1000
0001
,
0101
1100
0101
1100
,
1000
0010
0001
0010
1000
0010
0001
0010
,
0100
1000
0100
0001
0100
1000
0100
0001
,
1000
0000
1000
0100
0010
0000
0010
0001
,
0100
0010
0100
0010
0100
0000
1001
0000
,
0110
0000
0010
1000
0000
0010
0100
0000
0001
0000
0010
0000
0100
0000
1000
0000
,
0001
0000
1000
0000
0100
0000
0010
0000
0001
0000
1000
0100
0000
1000
0001
0000
,
0010
0000
0001
0000
0010
0000
0100
0000
1000
0000
0001
0100
0000
0100
0001
0000
,
1000
0100
1000
0000
0100
0010
0100
0000
1000
0100
1000
0000
0100
0010
0100
0000
,
0010
0000
0001
0100
0001
0000
1000
0000
0010
0000
0100
0010
0000
0100
0010
0000
,
1000
0000
0001
1000
0001
0000
1000
0000
0001
0100
0001
0100
0001
0000
0010
0000
,
0100
0010
0001
1000
0100
0010
0001
1000
,
0010
0100
0010
0100
0010
1000
0001
0010
,
0100
1000
0100
1000
0100
1000
0010
0000
0010
0100
0010
0100
,
0001
0000
0001
1000
0001
1000
0010
0000
0010
0000
0100
0000
,
0100
0000
0001
0010
0001
0010
0001
0000
1000
0100
1000
0100
,
0010
0001
0010
0100
0010
1000
0010
0001
,
1000
0000
0001
0100
0001
0000
0001
0100
0001
0000
0010
0000
0100
0000
1000
0000
,
0010
0100
0001
1000
0020
0000
0130
0000
,
0001
0000
1000
0100
1000
0000
1000
0100
1000
0000
0010
0000
0100
0000
0010
0000
,
1000
0000
0000
0100
0000
0000
0020
0000
0000
0000
0000
0000
0031
0000
0010
0000
0100
0000
1000
0000
0001
0000
0010
0000
,
0100
1000
0001
1000
0010
1000
0001
0000
0000
1000
0100
1000
,
0001
0100
0001
1000
0000
0000
0001
0010
0001
1000
0010
1000
,
0200
0000
0302
0000
0203
0000
1300
0001
,
1001
0000
0000
0110
0000
0101
1100
0000
,
0011
0000
0000
0010
0000
0000
0100
0000
0001
0000
0000
0100
0000
0000
1000
0000
,
0001
0000
0000
0100
0000
0000
1000
0000
0200
0000
0001
0000
0301
0000
0100
0000
,
0110
0000
0000
1000
0000
0000
1000
0000
0100
0000
0000
0000
0110
0000
0000
0000
,
0011
0000
0000
1100
0000
0000
1010
0000
1001
0000
0000
0000
1000
0000
0001
0010
,
0002
1000
1003
0001
0100
0010
1000
0100
,
0110
1001
0110
1001
,
0010
1000
0100
0020
0000
0000
0031
1000
0010
0200
0000
0000
,
1300
0000
0100
0000
0001
0000
1000
0000
0100
0000
0001
0000
0200
0000
0000
0300
0000
0000
1001
0000
0000
0001
0000
0000
,
1000
0000
0000
0100
0000
0000
0010
0000
0011
0000
0000
0001
0000
0000
0100
0000
,
1010
0000
0000
1000
0000
0000
0001
0000
0200
0000
0010
0000
0310
0000
0010
1000
,
0001
0000
0000
0010
0000
0000
0100
0000
1000
0000
0000
0000
0001
0000
0000
0000
,
1010
0000
0000
0101
0000
0000
1010
0000
0101
0000
0100
0000
0001
0000
1000
0001
,
1000
0000
0000
0001
1000
0001
1000
0010
,
0110
0000
1001
0000
0110
0000
0010
0001
,
1000
0000
1000
0010
0001
0000
1000
0100
,
0001
1100
0101
1100
,
1001
0000
0001
0100
0000
0100
1000
0000
1000
0001
0000
0001
,
0010
0000
0010
1000
0000
1001
0000
0000
0000
2002
0000
0000
,
3003
0000
0000
0000
;

//--------------- dance-single - ----------------
#NOTES:
     dance-single:
     :
     Challenge:
     16:
     0,0,0,0,0:
0000
0000
0000
0000
,
0000
0000
0000
0000
,
0000
0000
0000
2002
,
0000
0000
0000
0000
0000
0000
0000
0003
,
3002
0000
0000
2003
0000
3020
0230
0000
0000
0320
0000
0000
,
2030
0000
3002
0023
0000
0000
0230
0000
0000
2300
0000
0000
,
3002
0000
0000
0000
0200
0000
0000
0003
,
0020
0000
0000
0300
2000
0000
0000
3030
,
0110
0000
0000
0000
1001
0000
0000
0000
0011
0000
0010
0100
0000
0010
0001
0000
,
1001
0000
0000
0100
0020
0000
1000
0000
1030
0001
0010
0100
1000
0000
0010
0000
,
0110
0000
0000
0100
0001
0000
0010
0000
0100
0000
0010
0001
0100
0010
0100
0010
,
1000
0000
0000
0000
1001
0000
1000
0001
0010
0000
0100
1000
0100
1000
0100
0010
,
0001
0000
0010
0000
0100
0000
0010
0001
0100
0000
1000
0000
0100
0000
0010
0000
,
1000
0000
0001
0100
0001
0000
0010
0001
0010
0000
0100
0010
0100
0000
1000
0000
,
1000
0010
0100
1001
0000
0000
0001
0010
0100
1001
0000
0000
,
0010
0100
0010
0100
0010
0100
1001
0000
0000
0110
0000
0000
,
0110
0001
1000
0001
0100
0000
0100
0010
,
1001
0000
1000
0000
0001
0000
0100
0000
0001
0010
0100
0010
0001
0010
0100
1000
,
1100
0001
0010
0001
1100
0000
0001
1000
,
1100
0100
0101
0100
1100
0100
1001
0000
,
1010
0000
0010
0100
0001
0000
0010
0000
0100
0000
0010
0001
1000
0000
0010
0000
,
0100
0000
0010
0100
0001
0000
0010
0100
1000
0000
0010
1000
0001
0000
0100
0001
,
0010
0000
0000
0010
0100
0000
0100
1000
0010
0000
0000
0010
0100
0000
0001
0000
,
1000
0100
1000
0001
1000
0100
1000
0001
0010
0000
0000
0000
0110
0000
0000
0000
,
0110
0000
0010
0001
0100
0000
1000
0000
0100
0000
0001
0010
0000
0001
0100
0000
,
0010
0000
1000
0100
0010
0000
0001
0000
1000
0000
0010
0100
0000
0010
1000
0000
,
0001
0000
1000
0010
0100
0000
1000
0000
0100
0000
0001
0010
0000
1000
0010
0000
,
0001
0100
0010
0100
0001
1000
0100
0010
0100
1000
0001
0100
0010
0100
0001
0010
,
0100
0000
0100
1000
0010
0000
0001
0000
0010
1000
0100
0000
0001
0000
0100
0000
,
1000
0000
0001
0100
0010
0000
0001
0000
0010
1000
0100
0001
1000
0000
0001
0000
,
0100
0000
1000
0000
0001
0000
0100
0000
1000
0000
0001
0000
0010
1000
0001
1000
,
0100
0010
0100
0010
0100
0010
0100
0010
0100
0000
1000
0000
0001
0000
0010
0000
,
0100
1000
0100
1000
0010
0100
0110
0000
0010
1000
0010
0100
,
0101
0000
0001
0010
0100
1000
1001
0000
0011
0000
1010
0000
,
1001
0000
0001
1000
0001
0100
0101
0000
1000
0010
1000
0001
,
1000
0100
1000
0100
0010
0001
0010
0001
,
1000
0010
1000
0100
0010
0001
0100
0001
1000
0000
0001
0000
0100
0000
1001
0000
,
1000
0000
0001
0100
0010
0000
0010
1000
0000
1000
0001
0000
0001
0010
0000
0010
,
0100
1000
0100
0010
0001
0010
0100
0010
0001
0000
1000
0000
0100
0000
0010
0000
,
0001
0000
0000
0000
0000
0000
1000
0000
0000
0010
0000
0000
0000
0000
0000
0010
0000
0000
0100
0000
0000
0000
0000
0000
0100
0000
0000
0000
0001
0000
0000
0000
0100
0000
0000
0000
0010
0000
0000
0000
1000
0000
0000
0000
0010
0000
0000
0000
,
1000
0010
0010
0001
0100
0100
1000
0000
0000
0001
0010
0010
,
1000
0100
0100
0001
0000
0000
1000
0010
0010
0001
0100
0100
,
2000
0000
0000
0000
3002
0000
0000
0000
0023
0000
0000
0000
0130
1000
0001
0010
,
0100
0000
0000
0110
0000
1001
1001
0000
,
0011
0000
0000
0010
0100
0000
0100
1000
0001
0000
0000
0100
0010
0000
0010
1000
,
0001
0000
0000
0001
1000
0000
0100
0010
0002
0000
1000
0000
1003
0000
0100
0000
,
0110
0000
0000
0001
1000
0000
1000
0001
0100
0000
0000
0100
1000
0000
0100
0000
,
0110
0000
0000
0110
0000
0000
1010
0000
0101
0000
0000
0000
1001
0000
0001
0010
,
0200
0000
0010
0000
0310
0000
0001
1000
0001
0000
0100
0000
1010
0000
0100
0000
,
0102
1000
2003
3001
0110
0000
2001
0000
,
3010
1000
0100
0002
0000
0000
1003
0010
0001
2000
0000
0000
,
3001
0000
0000
0000
0100
0000
0000
0000
1000
0000
0000
0000
0001
0000
0000
0000
0010
0000
0000
0000
1000
0000
0000
0000
0002
0000
0000
0000
0000
0000
0000
0000
0000
0000
0000
0000
1003
0000
0000
0100
0000
0000
0010
0000
0000
0001
0000
0000
,
0100
0000
0000
0100
0010
0000
1000
0000
1010
0000
0010
0100
0000
0010
1000
0000
,
0101
0000
0000
0100
0001
0000
0001
1000
0200
0000
0001
0000
0301
0000
0100
1000
,
0001
0000
0000
0001
0100
0000
0010
0000
1000
0000
0100
0001
0100
0000
1000
0000
,
1010
0000
0000
0101
0000
0000
1010
0000
1000
0010
0100
0001
1000
0000
1000
0010
,
0100
0000
0000
0001
0100
0001
1001
0000
0000
1000
0100
0010
,
1000
0000
0000
0000
0010
0000
0000
0000
0001
0000
0000
0000
0100
0000
0000
0000
0010
0000
0000
0000
0100
0000
0000
0000
1000
0000
0000
0001
0000
0000
0010
0000
0000
0100
0000
0000
0001
0000
0000
0010
0000
0000
0100
0000
0000
1000
0000
0000
,
0001
0000
0000
0000
0011
0000
1100
0000
0001
0010
0100
0010
0001
0010
0100
1000
,
0100
1001
1100
0101
,
0110
0000
1000
0010
0000
0100
0010
0000
0001
0010
0000
1000
,
0100
0000
0001
0100
0000
1001
0000
0000
0000
2002
0000
0000
,
3003
0000
0000
0000
;
