#TITLE:Plazma;
#SUBTITLE:;
#ARTIST:米津玄師;
#TITLETRANSLIT:Plazma;
#SUBTITLETRANSLIT:;
#ARTISTTRANSLIT:Yonezu Kenshi;
#GENRE:ANIME;
#CREDIT:;
#MUSIC:Plazma.ogg;
#BANNER:Plazma.png;
#BACKGROUND:Plazma-bg.png;
#CDTITLE:;
#SAMPLESTART:56.303;
#SAMPLELENGTH:11.445;
#SELECTABLE:YES;
#OFFSET:1.616;
#BPMS:0.000=173.000;
#STOPS:;
#LASTBEATHINT:1.716601;
#BGCHANGES:4.000=Plazma.avi=1.000=0=0=0=StretchNoLoop====,
99999.000=-nosongbg-=1.000=0=0=0=StretchNoLoop====
;
#FGCHANGES:;

//--------------- dance-single - ----------------
#NOTES:
     dance-single:
     :
     Medium:
     13:
     0,0,0,0,0:
0000
0000
0000
0000
,
0000
0000
0000
0000
,
0001
1000
0010
0100
0001
0000
0001
0010
,
0000
1100
0000
0100
1000
0001
0100
1000
,
0100
0001
1000
0001
0010
1000
0010
0001
,
0000
0000
0000
0000
0000
1000
0010
0100
,
0001
1000
0001
0010
0100
0000
0100
1000
,
0000
1001
0000
0001
0100
1000
0100
0001
,
1000
0000
0001
0010
1000
0010
0001
1000
,
0010
0000
0010
0000
0010
0100
0010
0100
,
0002
0000
0000
0000
1003
0000
0000
0000
1100
0000
0000
0100
0000
0000
1000
0000
,
0001
0100
0000
0010
0000
0100
0001
0000
1000
0100
0000
0100
1000
0000
0001
0000
,
2000
0000
0000
0000
3001
0000
0000
0000
0101
0000
0000
0100
0000
0000
0001
0000
,
1000
0100
0000
0010
0000
0100
1000
0000
0001
0000
0100
0010
0100
0000
0000
0000
,
0002
0000
0000
0000
1003
0000
0000
0000
1100
0000
0000
0100
0000
0000
1000
0000
,
0010
0100
0000
0001
0000
0100
0010
0000
1000
0100
0000
0100
1000
0000
0001
0000
,
2000
0000
0000
0000
3001
0000
0000
0000
0101
0000
0000
0100
0000
0000
0001
0000
,
1000
0001
0000
0100
0000
0001
0010
0000
0100
0000
1000
0000
0001
0000
1000
0000
,
0010
0100
0001
0010
0100
0000
0100
1000
,
0000
0001
0000
0100
0010
0100
0001
1000
,
0100
0000
1000
0010
0100
0001
0010
0200
,
1000
0000
1000
0000
1300
0010
0100
0001
,
0010
0100
0010
0001
1000
0001
0100
1000
,
0000
0100
0000
0001
1000
0001
0010
1000
,
0010
0000
0100
1000
0001
0000
1100
0000
,
0101
0000
0001
1000
0001
0000
0010
0100
,
1000
0000
0001
0000
0100
0010
1000
0001
,
0010
0000
0100
0000
0000
1000
0100
0001
,
0100
0000
1000
0000
0001
0100
1000
0100
,
0010
0000
1000
0000
0001
1000
0100
0010
,
0001
0000
0000
0000
1000
0000
0000
0001
0100
0000
0010
0000
1000
0000
0001
0000
,
0010
0000
0100
0000
1000
0010
0001
1000
,
0100
0000
0000
0001
0010
0000
0000
0100
,
1000
1000
0001
0000
,
1000
0000
0001
0100
0001
0000
1000
0100
,
1000
0000
0001
0010
1000
0000
1000
0010
,
0001
0000
0001
0100
0001
0000
1000
0100
,
1000
0000
0001
0010
1000
0010
0001
1000
,
1001
0000
0001
0100
0100
1000
0100
0100
,
0001
0000
0010
0100
0000
1000
0001
0000
0000
0011
0000
1100
,
0000
1000
0010
0100
0001
0000
1000
0001
,
1000
1000
0001
0001
0020
0000
0130
1000
,
0011
0000
1010
0000
0101
0000
0001
0010
,
0000
0100
1000
0001
1000
0000
0010
0100
,
0010
0000
1000
0100
0001
0100
1000
0010
,
0011
0000
1010
0000
1100
0000
1000
0100
,
0001
0000
0100
1000
0010
0100
0010
1000
,
1100
0000
0010
0001
1000
0000
0001
0100
,
1000
0000
1000
0100
0001
0000
0001
0010
,
0100
0000
0100
0000
1000
0001
0100
0001
,
1010
0000
0101
0000
0011
0000
0010
0100
,
0000
1000
0100
0010
0001
0000
1000
0010
,
0001
0000
1000
0100
0001
0010
1000
0001
,
0101
0000
1100
0000
1001
0000
1001
0100
,
0010
0000
1000
0001
1000
0010
0100
0001
,
0010
0000
0100
1000
0010
0100
0001
0010
,
0011
0000
1100
0000
1001
0000
1000
0001
,
0100
0000
0010
0000
0100
0000
0100
0001
,
0020
0000
0000
0000
0130
0000
0000
0000
0110
0000
0000
0001
0000
0000
1000
0000
,
0001
0100
0000
1000
0000
0100
0001
0000
1000
0100
0000
0010
0100
0000
1000
0000
,
0020
0000
0000
0000
0130
0000
0000
0000
0110
0000
0000
1000
0000
0000
0001
0000
,
1000
0100
0000
0001
0000
0100
1000
0000
0001
0000
0100
0010
0100
0000
0000
0000
,
0020
0000
0000
0000
0130
0000
0000
0000
0110
0000
0000
1000
0000
0000
0001
0000
,
1000
0010
0000
0001
0000
0010
1000
0000
0001
0010
0000
0100
0010
0000
1000
0000
,
0020
0000
0000
0000
0130
0000
0000
0000
0110
0000
0000
0001
0000
0000
1000
0000
,
0010
0100
0001
1000
1001
0000
0000
0000
;

//--------------- dance-single - ----------------
#NOTES:
     dance-single:
     :
     Hard:
     16:
     0,0,0,0,0:
0000
0000
0000
0000
,
0000
0000
0000
0000
,
0001
1000
0010
0100
0010
0000
1000
0001
,
0000
0010
0000
0100
1000
0001
0100
1000
,
0100
0010
1000
0000
0001
0010
0100
1000
,
0000
0000
0000
0000
0000
1000
0010
1000
,
0001
0100
0010
0100
0001
0000
1000
0100
,
0000
0100
0000
0010
0001
1000
0001
1000
,
0010
0000
0100
0001
1000
0010
0100
0001
,
1000
0000
0001
0100
0001
0000
1000
0000
0001
0010
0001
0010
0100
1000
0100
1000
,
0020
0000
0000
0000
0130
0000
0000
0000
0110
0000
0100
0001
0000
1000
0001
0000
,
0010
0100
0000
1000
0000
0001
0100
0000
0010
1000
0001
1000
0001
0000
0010
0000
,
0200
0000
0000
0000
0310
0000
0000
0000
0110
0000
0100
1000
0000
0001
1000
0000
,
0010
0100
0000
0001
0000
1000
0100
0000
0010
0001
1000
0001
1000
0000
0100
0000
,
0020
0000
0000
0000
0031
0000
0000
0000
1001
0000
0001
0010
0000
0100
0010
0000
,
0001
1000
0000
0010
0000
0100
0001
0000
1000
0001
0100
0001
0100
0000
0010
0000
,
0200
0000
0000
0000
0301
0000
0000
0000
1001
0000
1000
0010
0000
0100
0010
0000
,
1000
0001
0010
0000
0100
1000
0001
1000
0001
0000
0100
0000
0010
0000
0100
0001
,
1000
0000
0100
0000
0001
0000
0100
0000
1000
0000
0001
0100
0000
0001
0100
0000
,
0001
0000
0010
0000
0100
0000
1000
0000
0001
0000
1000
0100
1000
0000
0010
0000
,
0100
0000
0001
1000
0001
0000
0100
0000
0001
0000
0010
0100
0000
0010
0100
0000
,
1000
0000
0001
0100
0001
0000
1000
0100
1000
0000
0001
0100
0001
0000
0010
0000
,
0100
0000
1000
0100
0010
0000
0100
0000
1000
0000
0001
0100
0000
0001
0100
0000
,
0001
0000
1000
0100
1000
0000
0001
0100
0001
0100
0001
0010
0100
0000
1000
0000
,
0001
0000
0100
0010
0100
0000
0001
1000
0001
0000
0010
0000
0100
1000
0001
0010
,
0100
0000
1000
0001
0100
0000
0001
0010
0100
0000
0000
0000
1000
0000
0001
0000
,
0100
0000
1000
0100
0010
0000
1000
0000
0001
0000
0010
0100
0001
0000
0100
0000
,
1000
0000
0001
0100
1000
0000
0100
0000
0010
0000
1000
0001
0000
1000
0001
0000
,
0010
0000
0100
1000
0001
0000
0100
0000
0010
0000
0100
0001
1000
0000
0100
0000
,
0010
0001
0000
1000
0000
0010
0100
0001
0000
0000
1000
0100
0010
0000
0100
1000
,
0002
0000
2003
0000
3020
0000
0230
0000
0301
0010
0000
0100
1000
0000
0001
0000
,
0100
1000
0000
0100
0000
0010
1000
0001
1000
0000
0001
0010
0100
0000
1000
0000
,
0001
0000
1000
0100
0010
0000
0100
0000
1000
0000
0001
0100
0010
0000
1000
0000
,
0001
0000
0000
0010
0000
0000
0000
0000
0000
0100
0000
0000
0000
0000
0000
1000
0000
0000
0001
0000
0000
1000
0000
0000
0000
0000
0000
0000
0000
0000
0010
0000
0000
0100
0000
0000
0001
0000
0000
0000
1000
0000
0000
0000
0001
0000
0000
0000
,
1000
0000
0000
0000
0001
0100
0010
1000
0000
0000
0000
0000
1000
0100
0010
0001
,
0000
0000
0000
0000
0001
0010
0100
1000
0000
0000
0010
0000
0100
0000
0001
0000
,
1001
0000
0000
0000
1000
0010
0000
0100
0000
0000
0000
0000
0001
0010
0000
0100
,
0000
0000
0000
0000
1000
0010
0000
0100
0000
0000
0001
0000
1000
0100
1000
0000
,
1001
0000
0000
0000
1000
0010
0100
0010
0100
0000
0001
0000
1000
0000
0100
0000
,
1000
0001
0100
0001
1000
0100
0010
0000
0000
0001
1000
0001
,
0000
0000
0100
0000
0010
1000
0010
0000
0100
0000
0000
0001
0000
1000
0100
0000
,
0010
0000
0001
1000
0001
1000
0001
1000
0020
0000
0000
0000
0130
0000
0010
0000
,
1001
0000
0000
0001
0100
0000
0010
0000
1010
0000
0000
1000
0100
0000
0010
0000
,
0001
0000
1000
0100
0010
0000
0010
0100
1000
0000
0000
0000
0001
0000
0100
0010
,
0100
0000
1000
0100
0001
0000
0010
0100
0010
0000
1000
0010
0001
0000
0010
0000
,
0011
0000
1001
0000
1100
0000
0001
1000
,
0001
0000
0100
0010
0100
0000
1000
0000
0001
0000
0010
0100
0010
0000
1000
0000
,
1100
0000
0000
0000
0100
0000
1000
0000
0001
0000
0000
0000
0010
0000
0100
1000
,
0001
0000
0001
1000
0100
0000
0010
0001
1000
0000
1000
0001
0010
0000
0100
0000
,
1000
0001
0000
0000
0010
0100
1000
0001
0000
0100
0010
0100
0010
0000
1000
0000
,
1100
0000
0000
1000
0010
0000
0100
0000
0101
0000
0000
0001
0010
0000
0100
0000
,
1000
0000
0001
0100
0010
0000
0010
0100
0001
0000
0000
0000
1000
0000
0100
0010
,
0100
0000
0001
0100
1000
0000
0010
0100
0010
0000
0001
0010
1000
0000
0010
0000
,
1010
0000
1001
0000
0110
0010
1001
0100
,
0001
0000
0010
0100
1000
0000
0001
0000
1000
0000
0010
0100
0001
0000
1000
0000
,
0001
0000
0010
0100
1000
0000
0001
0100
0001
1000
0001
0010
0100
0000
1000
0000
,
1100
0000
0000
0000
0101
0000
0000
0000
1001
0000
0000
0000
0001
0100
1000
0100
,
0001
0000
0000
0000
0010
0000
0000
0000
0100
0000
0000
0000
1000
0000
1000
0001
,
0200
0000
0000
0000
0310
0000
0000
0000
0110
0000
0010
1000
0000
0001
1000
0000
,
0100
0010
0000
0001
0000
1000
0001
0000
1000
0010
0001
0010
1000
0000
0100
0000
,
0020
0000
0000
0000
0130
0000
0000
0000
0110
0000
0010
0001
0000
1000
0001
0000
,
0100
0010
0000
1000
0000
0001
1000
0000
0001
0100
1000
0100
0001
0000
0010
0000
,
0200
0000
0000
0000
1300
0000
0000
0000
1001
0000
1000
0100
0000
0010
0100
0000
,
1000
0001
0000
0100
0000
0010
1000
0000
0001
0010
1000
0010
0001
0000
0100
0000
,
0020
0000
0000
0000
1030
0000
0000
0000
1001
0000
0001
0100
0000
0010
0100
0000
,
0001
1000
0001
0000
1000
0100
0001
0100
1000
0000
0000
0000
0000
0000
0000
0000
;

//--------------- dance-single - ----------------
#NOTES:
     dance-single:
     :
     Challenge:
     18:
     0.80627,0.617335,0,0,0,509,509,0,0,0,0,0.80627,0.617335,0,0,0,509,509,0,0,0,0:
0000
0000
0000
0000
,
0000
0000
0000
0000
,
0101
0000
0000
0001
0010
0000
0000
0010
,
0000
0100
0000
1000
0001
0000
1000
0010
,
0100
0000
0000
0000
0000
0000
0100
0000
0001
0000
0000
0000
0000
1000
0100
0000
,
1000
0010
0000
0100
0000
0001
0010
0100
0000
0010
0100
1000
0001
0000
0100
0000
,
0010
0000
0000
0000
0000
0000
0010
0000
1000
0000
0000
0000
0000
1000
0001
0000
,
0000
0010
0000
0010
0100
0000
1000
0001
,
1000
0000
0000
0000
0000
0000
0000
0000
0000
0000
0000
0000
0000
0000
0000
0000
0000
0000
0001
0000
0100
0000
0001
0000
0100
0000
0000
0000
0000
0000
0010
0000
0000
1000
0000
0000
0001
0000
0010
0000
0100
0000
1000
0000
0001
0000
0010
0000
,
0100
0000
0000
0000
0000
0000
0000
0000
0000
0000
0000
0000
1000
0000
0000
0000
0000
0000
0001
0000
0000
0000
0000
0000
1000
0000
0000
0000
0000
0000
0001
0000
0000
0000
0000
0000
1000
0000
0000
0000
0000
0000
0001
0000
0000
0000
0000
0000
1000
0000
0000
0000
0000
0000
0000
0000
0000
0000
0000
0000
0010
0000
0000
0000
0000
0000
0100
0000
0000
0000
0000
0000
0001
0000
0000
0000
1000
0000
0000
0000
0100
0000
0000
0000
1000
0000
0000
0001
0000
0000
1000
0000
0000
0001
0000
0000
,
0020
0000
0000
0000
0000
0000
0000
0000
0000
0000
0000
0000
0130
0000
0000
0000
0000
0000
1000
0000
0000
0000
0000
0000
0001
0000
0000
0100
0000
0000
0001
0000
0000
1000
0000
0000
0001
0000
0010
0000
0100
0000
1000
0000
0000
0010
0000
0000
,
0100
0000
0000
0020
0000
0000
0000
0000
0000
0100
0000
0000
0000
0000
0000
1030
0000
0000
0001
0000
0000
0100
0000
0000
0010
0000
0000
0100
0000
0000
1000
0000
0000
0100
0000
0000
0001
0000
0000
0000
0000
0000
1000
0000
0100
0000
0010
0000
,
0002
0000
0000
0000
0000
0000
0000
0000
0000
0000
0000
0000
0103
0000
0000
0000
0000
0000
0001
0000
0000
0000
0000
0000
1000
0000
0000
0100
0000
0000
1000
0000
0000
0001
0000
0000
1000
0000
0010
0000
0100
0000
0001
0000
0000
0010
0000
0000
,
0100
0000
0000
0020
0000
0000
0000
0000
0000
0100
0000
0000
0000
0000
0000
0031
0000
0000
1000
0000
0000
0100
0000
0000
0010
0000
0000
0100
0000
0000
0001
0000
0000
0100
0000
0000
1000
0000
0000
0000
0000
0000
0001
0000
0100
0000
0010
0000
,
2000
0000
0000
0000
0000
0000
0000
0000
0000
0000
0000
0000
3010
0000
0000
0000
0000
0000
1000
0000
0000
0000
0000
0000
0001
0000
0000
0010
0000
0000
0001
0000
0000
1000
0000
0000
0001
0000
0100
0000
0010
0000
1000
0000
0000
0100
0000
0000
,
0010
0000
0000
0200
0000
0000
0000
0000
0000
0010
0000
0000
0000
0000
0000
1300
0000
0000
0001
0000
0000
0010
0000
0000
0100
0000
0000
0010
0000
0000
1000
0000
0000
0010
0000
0000
0001
0000
0000
0000
0000
0000
1000
0000
0010
0000
0100
0000
,
0002
0000
0000
0000
0000
0000
0000
0000
0000
0000
0000
0000
0013
0000
0000
0000
0000
0000
0001
0000
0000
0000
0000
0000
1000
0000
0000
0010
0000
0000
1000
0000
0000
0001
0000
0000
1000
0000
0100
0000
0010
0000
0001
0000
0000
0100
0000
0000
,
0010
0000
0000
0100
0000
0000
0000
0000
0000
0010
0000
0000
1000
0000
0000
0001
0000
0000
0010
0000
0000
0100
0000
0000
1000
0000
0000
0000
0000
0000
0100
0000
0000
0000
0000
0000
0010
0000
0000
0000
0000
0000
0001
0000
1000
0000
0001
0000
,
1000
0000
0010
0100
0010
0000
1000
0000
0001
0000
1000
0100
0010
0000
0100
1000
,
0010
0000
0100
0001
1000
0000
0001
0000
1000
0100
1000
0010
1000
0000
0001
0100
,
0001
0000
0010
0100
1000
0000
0001
0100
0000
0010
0100
0000
1000
0100
0010
1000
,
0001
0000
1000
0100
0001
0000
0100
1000
0001
0010
0100
1000
0010
0000
0100
0001
,
0010
0000
0100
1000
0001
0000
0100
0010
0100
0001
0010
0000
0100
1000
0000
0010
,
0100
0000
1000
0100
0010
0000
0100
0001
1000
0100
0010
0000
0100
1000
0001
0100
,
1000
0000
0100
0001
1000
0000
0001
0010
0100
1000
0010
0000
0100
0001
1000
0010
,
1000
0000
0000
0100
0000
0000
1000
0000
0000
0001
0000
0000
0010
0000
0000
0000
0000
0000
0100
0000
0000
1000
0000
0000
0001
0000
0000
1000
0000
0000
0000
0000
0000
1000
0000
0000
0010
0000
0000
0000
0000
0000
0100
0000
0001
0000
0100
0000
,
0001
0000
0000
0000
0000
0000
0010
0000
0000
0000
0000
0000
0100
0000
1000
0000
0100
0000
1000
0000
0000
0000
0000
0000
0001
0000
0000
0100
0000
0000
0010
0000
0000
0000
0000
0000
1000
0000
0001
0000
1000
0000
0001
0000
0000
0000
0000
0000
,
0010
0000
0000
0000
0000
0000
0100
0000
0000
0000
0000
0000
0010
0000
0001
0000
0010
0000
0001
0000
0000
0000
0000
0000
1000
0000
0000
0000
0000
0000
0001
0000
0000
0100
0000
0000
0000
0000
0000
0001
0000
0000
1000
0000
0000
0000
0000
0000
,
0001
0000
0000
0000
0000
0000
0100
0000
0000
0000
0000
0000
0001
0000
0100
0000
0001
0000
0100
0000
0000
0000
0000
0000
0010
0000
0000
1000
0000
0000
0001
0000
0000
0000
0000
0000
1000
0000
0100
0000
1000
0000
0100
0000
0000
0000
0000
0000
,
0010
0000
0000
0001
0000
0000
0000
0000
0000
1000
0000
0000
0000
0000
0000
0010
0000
0000
0100
0000
0000
0010
0000
0000
0000
0000
0000
0000
0000
0000
1000
0000
0000
0001
0000
0000
1000
0000
0000
0000
0000
0000
0001
0000
0010
0000
0100
0000
,
2000
0000
0000
3020
0000
0000
0230
0000
0000
0302
0000
0000
0023
0000
0000
0230
0000
0000
1300
0001
0010
0100
0000
0000
,
1000
0010
0000
0100
0000
0010
0100
0001
1000
0000
0001
0010
0100
0000
1000
0000
,
0001
0000
0000
0000
0000
0000
1000
0000
0000
0100
0000
0000
0010
0000
0000
0000
0000
0000
0001
0000
0000
1000
0000
0000
0001
0000
0000
0000
0000
0000
0010
0000
0000
0100
0000
0000
1000
0000
0001
0000
1000
0000
0001
0000
0000
0000
0000
0000
,
1000
0000
0000
0010
0000
0000
0000
0000
0000
0100
0000
0000
0000
0000
0000
0001
0000
0000
1000
0000
0000
0100
0000
0000
0000
0000
0000
0000
0000
0000
0010
0000
0000
0001
0000
0000
1000
0000
0000
0000
1000
0000
0000
0000
1000
0000
0000
0000
,
0001
0000
0000
0000
0001
0000
0000
0000
0001
0000
0000
0000
1000
0000
0000
0010
0000
0000
0001
0000
0000
1000
0000
0000
0000
0000
0000
0000
0000
0000
0100
0000
0000
0000
0000
0000
0001
0000
0000
0010
0000
0000
1000
0000
0000
0001
0000
0000
,
0000
0000
0100
0000
1000
0010
0001
1000
0000
0000
0100
0000
0001
1000
0001
0000
,
0100
0000
0010
0000
1000
0100
0000
0011
0000
0000
0010
0000
0001
0100
0000
1010
,
0000
0000
0010
0000
1000
0100
0000
0011
0000
0000
0010
0000
0001
1000
0100
0000
,
1000
0010
0100
0010
1000
0001
0010
0100
1000
0001
0100
0010
0100
0001
1000
0010
,
1000
0000
0100
0000
0100
0000
0001
0000
0010
0000
0010
0000
1000
0000
0000
0001
0000
0000
0100
0000
0010
0000
0100
0000
,
0001
1000
0001
0100
1000
0100
0010
1000
0001
1000
0100
0001
0100
0010
0001
1000
,
0010
0000
0000
0000
0000
0000
0000
0000
0000
0000
0000
0000
0100
0000
0000
0000
0000
0000
0001
0000
0000
0000
0000
0000
1000
0000
0000
0000
0001
0000
0000
0000
1000
0000
0000
0000
0001
0000
0000
1000
0000
0000
0001
0000
0000
1000
0000
0000
0010
0000
0000
0000
0000
0000
0000
0000
0000
0000
0000
0000
0000
0000
0000
0000
0000
0000
0000
0000
0000
0000
0000
0000
0100
0000
0000
0000
0000
0000
0000
0000
0000
0000
0000
0000
0010
0000
0000
0000
0000
0000
0000
0000
0000
0000
0000
0000
,
1001
0000
0000
0000
0000
0000
0001
0000
0000
0100
0000
0000
1000
0000
0000
0000
0000
0000
0100
0000
0000
0010
0000
0000
1000
0000
0000
0100
0000
0000
0010
0000
0000
0001
0000
0000
1000
0000
0100
0000
1000
0000
0010
0000
0000
0000
0000
0000
,
0100
0001
0000
0010
0000
0100
1000
0001
1000
0000
0010
0100
0010
0000
1000
0000
,
0001
0000
0000
0100
0000
0000
0010
0000
0000
0100
0000
0000
0001
0000
0000
0100
0000
0000
1000
0000
0000
0100
0000
0000
0001
0000
0000
1000
0000
0000
0100
0000
0000
1000
0000
0000
0001
0000
0010
0000
0100
0000
1000
0000
0100
0000
0010
0000
,
0001
0000
1000
0010
0100
0000
0001
0010
0100
0000
1000
0001
1000
0000
0010
0000
,
0100
0000
0000
0001
0000
0000
1000
0000
0000
0100
0000
0000
0001
0000
0000
0000
0000
0000
0100
0000
0000
1000
0000
0000
0010
0000
0000
0000
0000
0000
1000
0000
0000
0001
0000
0000
0010
0000
0100
0000
0010
0000
0100
0000
0000
0000
0000
0000
,
1000
0001
0000
0001
0100
0010
1000
0100
1000
0001
0100
0010
0100
0000
0001
0000
,
1000
0000
0000
0100
0000
0000
0001
0000
0000
0000
0000
0000
1000
0000
0000
0010
0000
0000
0001
0000
0000
0000
0000
0000
1000
0000
0000
0010
0000
0000
0001
0000
0000
0000
0000
0000
1000
0000
0100
0000
0001
0000
0010
0000
0000
0000
0000
0000
,
0100
0000
0000
0010
0000
0000
0000
0000
0000
0000
0000
0000
0001
0000
0000
0010
0000
0000
0100
0000
0000
1000
0000
0000
0000
0000
0000
0010
0000
0000
0100
0000
0000
0010
0000
0000
1000
0000
0000
0000
0000
0000
0001
0000
0010
0000
0100
0000
,
1000
0000
0000
0000
0000
0000
0001
0000
0000
0010
0000
0000
1000
0000
0000
0000
0000
0000
0010
0000
0000
0001
0000
0000
1000
0000
0000
0001
0000
0000
1000
0000
0000
0010
0000
0000
0100
0000
0001
0000
0010
0000
0100
0000
0000
0000
0000
0000
,
1000
0010
0000
0100
0000
0100
0001
0010
1000
0000
0010
0100
0010
0000
0001
0000
,
1000
0000
0000
0100
0000
0000
0010
0000
0000
0100
0000
0000
1000
0000
0000
0100
0000
0000
0001
0000
0000
0100
0000
0000
1000
0000
0000
0001
0000
0000
0100
0000
0000
0001
0000
0000
1000
0000
0010
0000
0100
0000
0001
0000
0100
0000
0010
0000
,
1000
0000
0000
0000
0000
0000
0001
0000
0000
0010
0000
0000
0100
0000
0000
0000
0000
0000
1000
0000
0000
0010
0000
0000
0100
0000
0000
0000
0000
0000
0001
0000
0000
1000
0000
0000
0110
0000
0000
0000
0000
0000
0001
0000
0010
0000
0100
0000
,
1000
0000
0000
0000
0000
0000
0001
0000
0000
0010
0000
0000
0100
0000
0000
0000
0000
0000
1000
0000
0000
0010
0000
0000
0100
0000
0000
0000
0000
0000
0001
0000
1000
0000
0001
0000
1000
0000
0000
0000
0000
0000
0010
0000
0000
0000
0000
0000
,
0100
0001
0000
1000
0100
0010
0100
1000
0001
0100
0010
0100
1000
0000
0100
0000
,
0101
0000
0000
0000
0000
0000
0001
0000
0000
0010
0000
0000
1000
0000
0000
0000
0000
0000
1000
0000
0000
0010
0000
0000
0001
0000
0000
0000
0000
0000
1000
0000
0000
0000
0000
0000
0001
0000
1000
0000
0001
0000
1000
0000
0000
0100
0000
0000
,
0010
0000
0000
0000
0000
0000
0000
0000
0100
0000
0000
0000
0000
0000
0000
0000
0100
0000
0000
0000
0000
0000
0000
0000
0100
0000
0000
0000
1000
0001
1000
0001
,
0020
0000
0000
0000
0000
0000
0000
0000
0000
0000
0000
0000
0130
0000
0000
0000
0000
0000
1000
0000
0000
0000
0000
0000
0001
0000
0000
0100
0000
0000
0001
0000
0000
1000
0000
0000
0001
0000
0010
0000
0100
0000
1000
0000
0000
0010
0000
0000
,
0100
0000
0000
0020
0000
0000
0000
0000
0000
0100
0000
0000
0000
0000
0000
1030
0000
0000
0001
0000
0000
0100
0000
0000
0010
0000
0000
0100
0000
0000
1000
0000
0000
0100
0000
0000
0001
0000
0000
0000
0000
0000
1000
0000
0100
0000
0010
0000
,
0002
0000
0000
0000
0000
0000
0000
0000
0000
0000
0000
0000
0103
0000
0000
0000
0000
0000
0001
0000
0000
0000
0000
0000
1000
0000
0000
0100
0000
0000
1000
0000
0000
0001
0000
0000
1000
0000
0010
0000
0100
0000
0001
0000
0000
0010
0000
0000
,
0100
0000
0000
0020
0000
0000
0000
0000
0000
0100
0000
0000
0000
0000
0000
0031
0000
0000
1000
0000
0000
0100
0000
0000
0010
0000
0000
0100
0000
0000
0001
0000
0000
0100
0000
0000
1000
0000
0000
0000
0000
0000
0001
0000
0100
0000
0010
0000
,
2000
0000
0000
0000
0000
0000
0000
0000
0000
0000
0000
0000
3010
0000
0000
0000
0000
0000
1000
0000
0000
0000
0000
0000
0001
0000
0000
0010
0000
0000
0001
0000
0000
1000
0000
0000
0001
0000
0100
0000
0010
0000
1000
0000
0000
0100
0000
0000
,
0010
0000
0000
0200
0000
0000
0000
0000
0000
0010
0000
0000
0000
0000
0000
1300
0000
0000
0001
0000
0000
0010
0000
0000
0100
0000
0000
0010
0000
0000
1000
0000
0000
0010
0000
0000
0001
0000
0000
0000
0000
0000
1000
0000
0010
0000
0100
0000
,
0002
0000
0000
0000
0000
0000
0000
0000
0000
0000
0000
0000
0013
0000
0000
0000
0000
0000
0001
0000
0000
0000
0000
0000
1000
0000
0000
0010
0000
0000
1000
0000
0000
0001
0000
0000
1000
0000
0100
0000
0010
0000
0001
0000
0000
0100
0000
0000
,
0010
0100
0000
0010
1000
0001
0010
0100
1000
0000
0000
0000
0000
0000
0000
0000
;
