#TITLE:Payload;
#SUBTITLE:;
#ARTIST:雄之助 feat. 初音ミク & 水槽;
#TITLETRANSLIT:Payload;
#SUBTITLETRANSLIT:;
#ARTISTTRANSLIT:Yunosuke feat.Hatsune Miku & Suisoh;
#GENRE:POP;
#CREDIT:;
#MUSIC:Payload.ogg;
#BANNER:Payload.png;
#BACKGROUND:Payload-bg.png;
#CDTITLE:;
#SAMPLESTART:49.480;
#SAMPLELENGTH:11.636;
#SELECTABLE:YES;
#OFFSET:1.429;
#BPMS:0.000=165.000
,76.000=82.500
,84.000=165.000
,132.000=82.500
,132.500=165.000
,227.500=82.500
,235.500=165.000
,283.500=82.500
,284.000=165.000
;
#STOPS:;
#LASTBEATHINT:1.128628;
#BGCHANGES:6.000=Payload.avi=1.000=0=0=0=StretchNoLoop====,
99999.000=-nosongbg-=1.000=0=0=0=StretchNoLoop====
;
#FGCHANGES:;

//--------------- dance-single - ----------------
#NOTES:
     dance-single:
     :
     Medium:
     12:
     0,0,0,0,0:
0000
0000
0000
0000
,
0000
0000
0000
0000
,
0000
0000
0000
0000
,
0000
0000
0001
0000
1000
0000
0010
0100
,
0001
0020
0000
0000
0130
0000
0000
1000
,
0001
0000
0000
0100
0000
0000
0001
0000
1000
0000
0000
0000
0000
0000
0001
0000
,
0010
0000
0001
1000
0000
0001
0100
0000
,
0010
0000
1000
0000
0001
0000
0001
0010
,
0100
1000
0000
0000
1001
0000
0000
1000
,
0001
0000
0000
0100
0000
0000
0001
0000
1000
0000
0000
0000
0000
0000
1000
0000
,
0001
0000
0000
0010
0000
0000
0100
0000
1000
0000
0000
0001
0000
0000
0100
0000
,
0101
0000
0001
0010
0100
1000
0001
0010
,
0100
0000
0000
1000
0000
0000
0001
0000
0100
0000
0000
0001
0000
0000
1000
0000
,
0100
1100
0001
0101
,
1000
0001
0100
0001
0010
0000
0100
0000
,
1100
0000
1000
0010
0100
0001
1000
0010
,
0100
0001
0000
1000
0001
0000
0001
1000
,
0100
0000
0000
0010
0000
0000
0100
0000
1000
0000
0000
0000
0001
0000
1000
0000
,
0000
0001
0100
1000
0001
0010
1000
0000
,
0002
0003
0000
0000
0000
0000
0000
0000
0000
0000
0000
0000
0000
0000
0000
0000
0000
0000
0000
0000
0000
0000
0000
0000
0100
0000
0000
0000
0000
0000
0000
0000
0000
0000
0000
0000
0000
0000
0000
0000
0000
0000
0000
0000
0000
0000
0000
0000
0001
0000
0000
0000
0000
0000
0000
0000
0000
0000
0000
0000
0000
0000
0000
0000
0000
0000
0000
0000
0000
0000
0000
0000
1000
0000
0000
0000
0000
0000
0000
0000
0000
0000
0000
0000
0000
0000
0000
0000
0000
0000
0000
0000
0000
0000
0000
0000
0100
0000
0000
0000
0000
0000
0000
0000
0000
0000
0000
0000
0000
0000
0000
0000
0000
0000
0000
0000
0000
0000
0000
0000
0000
0000
0000
0000
0000
0000
0000
0000
0000
0000
0000
0000
0000
0000
0000
0000
0000
0000
0000
0000
0000
0000
0000
0000
0010
0000
0000
0000
0000
0000
0000
0000
0000
0000
0000
0000
0000
0000
0000
0000
0000
0000
0000
0000
0000
0000
0000
0000
0100
0000
0000
0000
0000
0000
0000
0000
0000
0000
0000
0000
0000
0000
0000
0000
0000
0000
0000
0000
0000
0000
0000
0000
,
1000
0001
0100
0010
0100
0000
0010
1000
,
0001
0000
0001
0010
0100
0000
0100
1000
,
0001
0000
0001
0100
0010
0000
0010
1000
,
0001
0000
0000
0001
0000
0000
0010
0000
0100
0000
0000
0100
0000
0000
1000
0000
,
0001
0010
0100
1000
0001
0100
0110
0000
,
1010
0000
0101
0000
0001
0010
0100
1000
,
0001
0100
0000
0010
1000
0001
0010
1000
,
0010
0001
0000
0100
0000
0010
1000
0100
,
0000
0010
0001
1000
0000
0010
0000
0100
,
0001
1000
0100
0001
0100
1000
0001
0100
,
0010
1000
0000
0001
0010
1000
0010
0001
,
1000
0010
0000
1010
0000
0101
0000
0001
,
0000
0010
0100
0000
1000
0000
0001
0000
,
0220
0330
0000
0000
0000
0000
0000
0000
0000
0000
0000
0000
0000
0000
0000
0000
0000
0000
0000
0000
0000
0000
0000
0000
1001
0000
0000
0000
0000
0000
0000
0000
0000
0000
0000
0000
0000
0000
0000
0000
0000
0000
0000
0000
0000
0000
0000
0000
0000
0000
0000
0000
0000
0000
0000
0000
0000
0000
0000
0000
0000
0000
0000
0000
0000
0000
0000
0000
0000
0000
0000
0000
0001
0000
0000
0000
0000
0000
0000
0000
0000
0000
0000
0000
0000
0000
0000
0000
0000
0000
0000
0000
0000
0000
0000
0000
0100
0000
0000
0000
0000
0000
0000
0000
0000
0000
0000
0000
0000
0000
0000
0000
0000
0000
0000
0000
0000
0000
0000
0000
1000
0000
0000
0000
0000
0000
0000
0000
0000
0000
0000
0000
0000
0000
0000
0000
0000
0000
0000
0000
0000
0000
0000
0000
0000
0000
0000
0000
0000
0000
0000
0000
0000
0000
0000
0000
0000
0000
0000
0000
0000
0000
0000
0000
0000
0000
0000
0000
1000
0000
0000
0000
0000
0000
0000
0000
0000
0000
0000
0000
0000
0000
0000
0000
0000
0000
0000
0000
0000
0000
0000
0000
,
0100
0001
0000
0001
0010
0100
0000
0010
,
0001
1000
0010
0000
0100
0001
1000
0000
,
0001
0010
0100
1100
0000
0011
0000
1000
,
0010
0100
0001
0000
0001
1000
0100
0001
,
1000
0010
0001
0000
1000
0010
0100
0010
,
0100
1020
0130
0201
,
0301
0010
0100
2000
0000
3010
0000
0110
,
0000
0000
0000
0000
0000
0000
0001
0000
0000
0000
0000
0000
0000
1000
0000
0000
,
0000
0001
0000
0200
0000
0320
0000
1030
,
0100
1000
0001
0100
0001
0001
0100
0010
,
0010
1000
0100
0100
0010
0002
0000
0023
,
0000
0230
0000
1300
0020
0000
0130
0020
,
0000
0031
0020
0000
0130
0001
1000
0002
,
0023
0230
2300
3020
0230
0302
0023
0000
,
0230
0000
2300
0000
3002
0000
0103
0000
0000
0110
0000
0000
0001
0000
1001
0000
,
0000
0000
0000
1100
0000
0000
0101
0000
,
0000
2001
0000
3020
0000
0230
0000
0301
,
1000
0010
0100
0001
1000
1000
0010
0100
,
0100
0001
0010
0010
0100
1000
0001
1000
,
0000
0001
0010
0100
1000
0001
0010
0100
,
1000
0001
0100
0000
0100
0010
0100
0001
,
1000
1000
0001
0100
0100
0001
0020
0000
,
0130
0000
0000
0000
0000
0000
0000
0000
0000
0000
0000
0000
0000
0000
0000
0000
0000
0000
0000
0000
0000
0000
0000
0000
1000
0000
0000
0000
0000
0000
0000
0000
0000
0000
0000
0000
0000
0000
0000
0000
0000
0000
0000
0000
0000
0000
0000
0000
0001
0000
0000
0000
0000
0000
0000
0000
0000
0000
0000
0000
0000
0000
0000
0000
0000
0000
0000
0000
0000
0000
0000
0000
0100
0000
0000
0000
0000
0000
0000
0000
0000
0000
0000
0000
0000
0000
0000
0000
0000
0000
0000
0000
0000
0000
0000
0000
0010
0000
0000
0000
0000
0000
0000
0000
0000
0000
0000
0000
0000
0000
0000
0000
0000
0000
0000
0000
0000
0000
0000
0000
1000
0000
0000
0000
0000
0000
0000
0000
0000
0000
0000
0000
0000
0000
0000
0000
0000
0000
0000
0000
0000
0000
0000
0000
0000
0000
0000
0000
0000
0000
0000
0000
0000
0000
0000
0000
0000
0000
0000
0000
0000
0000
0000
0000
0000
0000
0000
0000
0002
0003
0000
0000
0000
0000
0000
0000
0000
0000
0000
0000
0000
0000
0000
0000
0000
0000
0000
0000
0000
0000
0000
0000
,
0010
0100
1000
0001
0000
1000
0010
0100
,
0001
1000
0001
0010
0100
1000
0001
0100
,
0000
0010
1000
0001
0000
0010
0100
1000
,
0000
0001
0100
1000
0000
0001
0010
1000
,
0000
0001
0001
0010
0010
0100
0100
1000
,
0000
1000
0000
0000
0001
0000
0100
0000
0010
0000
0100
0000
0001
0000
1001
0000
,
0000
0110
0000
0100
0001
1000
0100
0001
,
0100
0000
0100
1000
0010
0001
1000
0100
,
0010
1000
0100
0011
,
1100
0000
1010
0000
0101
0000
0001
0010
,
1000
0010
0001
0100
1000
0100
0010
1000
,
0001
0000
1000
0100
0001
0100
1000
0010
,
0100
0000
0010
0000
1000
0000
0001
0010
,
0000
0000
0000
0000
0000
0000
0000
0000
0000
0000
0000
0000
0000
0000
0000
0000
0000
0000
0000
0000
0000
0000
0000
0000
0110
0000
0000
0000
0000
0000
0000
0000
0000
0000
0000
0000
0000
0000
0000
0000
0000
0000
0000
0000
0000
0000
0000
0000
0000
0000
0000
0000
0000
0000
0000
0000
0000
0000
0000
0000
0000
0000
0000
0000
0000
0000
0000
0000
0000
0000
0000
0000
1000
0000
0000
0000
0000
0000
0000
0000
0000
0000
0000
0000
0000
0000
0000
0000
0000
0000
0000
0000
0000
0000
0000
0000
0000
0000
0000
0000
0000
0000
0000
0000
0000
0000
0000
0000
0000
0000
0000
0000
0000
0000
0000
0000
0000
0000
0000
0000
1001
0000
0000
0000
0000
0000
0000
0000
0000
0000
0000
0000
0000
0000
0000
0000
0000
0000
0000
0000
0000
0000
0000
0000
0000
0000
0000
0000
0000
0000
0000
0000
0000
0000
0000
0000
0000
0000
0000
0000
0000
0000
0000
0000
0000
0000
0000
0000
0210
0300
0000
0000
0000
0000
0000
0000
0000
0000
0000
0000
0000
0000
0000
0000
0000
0000
0000
0000
0000
0000
0000
0000
,
1001
0000
1000
0100
0001
0000
0001
0100
,
1000
0000
1000
0010
0100
0000
0010
1000
,
0001
0010
0100
1000
0001
0000
0001
1000
,
0100
1000
0010
0100
0001
1000
0100
0000
,
1001
0000
0001
0010
1000
0000
0001
0100
,
1000
0000
0001
0100
1000
0100
0001
0010
,
0000
0100
0000
1100
0000
1000
0000
0001
,
0100
0010
1000
0000
0001
0000
1100
0000
,
1000
0010
0100
0001
1000
0001
0010
0100
,
1000
0001
0000
0001
0100
0001
1000
0010
,
0100
0001
0010
0001
1000
0100
0000
0010
,
0001
1000
0010
0100
0022
0000
0033
0000
;

//--------------- dance-single - ----------------
#NOTES:
     dance-single:
     :
     Hard:
     15:
     0,0,0,0,0:
0000
0000
0000
0000
,
0000
0000
0000
0000
,
0000
0000
0000
0000
,
1001
0000
0001
0100
1000
0100
0001
0100
,
0001
1000
0001
0010
1000
0010
0001
0100
,
0001
0000
1000
0100
0000
1000
0010
0000
0100
0000
0001
0000
0010
0000
0001
0000
,
0010
0100
1000
0001
0100
0010
1001
0000
,
1001
0000
1000
0100
0001
0100
1000
0100
,
1000
0001
1000
0010
0001
0010
1000
0100
,
1000
0000
0001
0100
0000
0001
0010
0000
0100
0000
1000
0000
0010
0000
1000
0000
,
0010
0000
0100
0001
0000
0001
1000
0000
1000
0000
0001
0010
0000
0010
0100
0000
,
1001
0000
1000
0000
0001
0010
0100
0000
1000
0000
0001
0010
0100
0000
1000
0000
,
0010
0000
0000
0110
0000
0000
0100
0000
0001
0000
1000
0100
0010
0000
0100
0000
,
1100
1001
0101
1001
,
0011
0000
0001
1000
0100
0000
0010
0000
0100
0000
0010
0001
1000
0000
0010
0000
,
0110
0000
0000
0000
1000
0010
0100
0000
0001
0000
1000
0010
0100
0000
0001
0000
,
0010
0000
0100
0000
1000
0100
1000
0000
0001
0000
1000
0000
0001
0000
0100
0000
,
0010
0000
0000
1000
0010
0000
0100
0000
0101
0000
0001
0000
1000
0000
0001
0000
,
0000
0001
0010
0100
1000
0010
0100
0000
,
0202
0303
0000
0000
0000
0000
0000
0000
0000
0000
0000
0000
0000
0000
0000
0000
0000
0000
0000
0000
0000
0000
0000
0000
0001
0000
0000
0000
0000
0000
0000
0000
0000
0000
0000
0000
0000
0000
0000
0000
0000
0000
0000
0000
0000
0000
0000
0000
1000
0000
0000
0000
0000
0000
0000
0000
0000
0000
0000
0000
0000
0000
0000
0000
0000
0000
0000
0000
0000
0000
0000
0000
0010
0000
0000
0000
0000
0000
0000
0000
0000
0000
0000
0000
0000
0000
0000
0000
0000
0000
0000
0000
0000
0000
0000
0000
0100
0000
0000
0000
0000
0000
0000
0000
0000
0000
0000
0000
0000
0000
0000
0000
0000
0000
0000
0000
0000
0000
0000
0000
0000
0000
0000
0000
0000
0000
0000
0000
0000
0000
0000
0000
0000
0000
0000
0000
0000
0000
0000
0000
0000
0000
0000
0000
0001
0000
0000
0000
0000
0000
0000
0000
0000
0000
0000
0000
0100
0000
0000
0000
0000
0000
0000
0000
0000
0000
0000
0000
0001
0000
0000
0000
0000
0000
0000
0000
0000
0000
0000
0000
0100
0000
0000
0000
0000
0000
0000
0000
0000
0000
0000
0000
,
0001
0010
0100
1000
0010
0000
0100
0000
0001
0000
0000
1000
0000
1000
0100
0010
,
0001
0000
0000
0001
0100
0000
0010
0000
1000
0000
0000
1000
0100
0000
0010
0000
,
0001
0000
0000
0001
0100
0000
0010
0000
1000
0000
0000
1000
0100
0000
0010
0000
,
0001
0100
0001
0100
0010
0000
1000
0000
0001
0010
0001
0010
0100
0000
1000
0000
,
0001
0000
0100
0000
1000
0000
0100
0000
0001
0000
0010
0100
0010
0000
0000
0000
,
1001
0000
1000
0000
0010
0000
0100
0001
0010
0000
1000
0000
0010
0001
0100
0000
,
0010
0000
0110
0000
0000
0000
1000
0000
0010
0000
0100
0001
1000
0000
0001
0010
,
0100
0000
1000
0000
0000
0000
1100
0000
0000
0000
0011
0000
0001
0100
0010
0100
,
0001
0000
1000
0100
0010
0000
0100
0000
1000
0000
0001
0000
0100
0010
0100
0010
,
1000
0000
0001
0010
0100
0000
0001
0100
0010
0000
0001
0000
1000
0000
0010
0000
,
0100
0000
0101
0000
0000
0000
1010
0000
1000
0010
0100
0001
0010
0000
0100
0000
,
1000
0000
1100
0000
0000
0000
1002
0000
0000
0000
0103
0000
0010
0000
1000
0001
,
1000
0000
0100
0000
0110
0000
0000
0000
0011
0000
0001
1000
0010
0000
0100
0000
,
0220
0330
0000
0000
0000
0000
0000
0000
0000
0000
0000
0000
0000
0000
0000
0000
0000
0000
0000
0000
0000
0000
0000
0000
1001
0000
0000
0000
0000
0000
0000
0000
0000
0000
0000
0000
0000
0000
0000
0000
0000
0000
0000
0000
0000
0000
0000
0000
0000
0000
0000
0000
0000
0000
0000
0000
0000
0000
0000
0000
0000
0000
0000
0000
0000
0000
0000
0000
0000
0000
0000
0000
0001
0000
0000
0000
0000
0000
0000
0000
0000
0000
0000
0000
0000
0000
0000
0000
0000
0000
0000
0000
0000
0000
0000
0000
0010
0000
0000
0000
0000
0000
0000
0000
0000
0000
0000
0000
0000
0000
0000
0000
0000
0000
0000
0000
0000
0000
0000
0000
0100
0000
0000
0000
0000
0000
0000
0000
0000
0000
0000
0000
0000
0000
0000
0000
0000
0000
0000
0000
0000
0000
0000
0000
1000
0000
0000
0000
0000
0000
0000
0000
0000
0000
0000
0000
0000
0000
0000
0000
0000
0000
0000
0000
0000
0000
0000
0000
0100
0000
0000
0000
0000
0000
0000
0000
0000
0000
0000
0000
0000
0000
0000
0000
0000
0000
0000
0000
0000
0000
0000
0000
,
0010
0001
1000
0000
0010
0000
0100
0001
1000
0001
1000
0000
0001
0000
0100
0000
,
0010
0100
0002
0000
1003
0100
0010
0100
,
1000
0100
1000
0000
0010
0100
0010
0000
0100
0001
0100
0000
0001
0010
0100
0000
,
0000
0000
1001
0000
0000
0000
1000
0000
0001
0000
0100
0000
1000
0000
0100
0001
,
1000
0001
0010
0000
1000
0000
0010
0001
1000
0001
0100
0000
0010
0000
0100
0000
,
0002
0000
0023
0000
0130
1000
2100
0000
,
3010
0100
0001
0020
0000
0230
0000
2300
,
0000
0000
0000
0000
0000
0000
0010
0000
0000
0000
0000
0000
0000
0010
0000
0000
,
0000
0000
0010
0000
0000
0000
3200
0000
0000
0000
0320
0000
0000
0000
0031
0010
,
0100
1000
0001
0010
0100
0000
0020
0000
0100
0000
0100
0000
0000
0000
1000
0000
,
1000
0000
0000
0000
0001
0000
0031
0000
1000
0000
0010
0100
0001
1000
0010
0100
,
0001
0020
0000
0130
2000
0000
3001
0200
,
0000
0301
0010
0100
1000
0001
1000
0010
,
0100
0001
1000
0100
0010
0100
1000
0001
,
0100
0000
1000
0000
0100
0000
0001
0010
0000
0011
0000
0000
0001
0000
2000
0000
,
0000
0000
0000
3020
0000
0000
0230
0000
,
0000
0000
0302
0000
0000
0000
1003
0100
0010
0001
2000
0000
0000
0000
3010
0000
,
0100
0001
0100
0001
1000
0000
0200
0000
0010
0000
0310
0000
0002
0000
1000
0000
,
1003
0000
0020
0000
0100
0000
0130
0000
0001
0010
0001
0010
0100
1000
0001
0000
,
0000
0000
0001
0010
0100
1000
0001
0010
0100
1000
0001
0000
1000
0000
0010
0000
,
0100
0000
0001
1000
0001
0000
0000
0000
1000
0000
0010
0000
0100
0000
0020
0000
,
1000
0130
0002
1000
0013
0001
2000
0000
,
3001
0000
0000
0000
0000
0000
0000
0000
0000
0000
0000
0000
0000
0000
0000
0000
0000
0000
0000
0000
0000
0000
0000
0000
0010
0000
0000
0000
0000
0000
0000
0000
0000
0000
0000
0000
0000
0000
0000
0000
0000
0000
0000
0000
0000
0000
0000
0000
0100
0000
0000
0000
0000
0000
0000
0000
0000
0000
0000
0000
0000
0000
0000
0000
0000
0000
0000
0000
0000
0000
0000
0000
1000
0000
0000
0000
0000
0000
0000
0000
0000
0000
0000
0000
0000
0000
0000
0000
0000
0000
0000
0000
0000
0000
0000
0000
0001
0000
0000
0000
0000
0000
0000
0000
0000
0000
0000
0000
0000
0000
0000
0000
0000
0000
0000
0000
0000
0000
0000
0000
0100
0000
0000
0000
0000
0000
0000
0000
0000
0000
0000
0000
0000
0000
0000
0000
0000
0000
0000
0000
0000
0000
0000
0000
0000
0000
0000
0000
0000
0000
0000
0000
0000
0000
0000
0000
0000
0000
0000
0000
0000
0000
0000
0000
0000
0000
0000
0000
0200
0300
0000
0000
0000
0000
0000
0000
0000
0000
0000
0000
0000
0000
0000
0000
0000
0000
0000
0000
0000
0000
0000
0000
,
0001
0000
1000
0000
0100
0000
0010
0000
0000
0000
0001
0100
0001
0100
0001
0010
,
0100
1000
0001
0000
0100
0000
1000
0000
0100
0000
0001
0000
0010
0000
0110
0000
,
0000
0100
1000
0000
0010
0000
0100
0000
0000
0100
0001
0000
0010
0000
0100
0000
,
0000
0100
1000
0000
0010
0000
0100
0000
0000
0100
0001
0000
0010
0000
0100
0000
,
1000
0001
1000
0000
0010
0000
0100
0000
0001
1000
0001
0000
0010
0100
1000
0000
,
0001
0100
0000
0010
0100
0000
0001
0000
1000
0000
0110
0000
0000
0000
0110
0000
,
0000
0000
1001
0000
0001
0000
0100
0000
1000
0100
0010
0000
0100
0001
0010
0000
,
0200
0000
0000
0000
0301
0000
0100
0000
1000
0010
0100
0000
1000
0000
0100
0000
,
0001
0000
0011
0000
1100
0000
1000
0010
,
0100
0001
0010
0000
0100
1000
0010
0000
0100
0000
0001
0010
0100
1000
0001
0000
,
1000
0010
0100
0000
1000
0000
0100
0000
0001
0010
0100
0000
0001
0000
0100
0000
,
2000
0000
0000
0000
3001
0000
0100
0000
0010
1000
0001
0000
0010
0000
0100
0000
,
1100
0000
1001
0000
0001
0100
0010
0110
,
0000
0000
0000
0000
0000
0000
0000
0000
0000
0000
0000
0000
0000
0000
0000
0000
0000
0000
0000
0000
0000
0000
0000
0000
0001
0000
0000
0000
0000
0000
0000
0000
0000
0000
0000
0000
0000
0000
0000
0000
0000
0000
0000
0000
0000
0000
0000
0000
1000
0000
0000
0000
0000
0000
0000
0000
0000
0000
0000
0000
0100
0000
0000
0000
0000
0000
0000
0000
0000
0000
0000
0000
1000
0000
0000
0000
0000
0000
0000
0000
0000
0000
0000
0000
0001
0000
0000
0000
0000
0000
0000
0000
0000
0000
0000
0000
0000
0000
0000
0000
0000
0000
0000
0000
0000
0000
0000
0000
0100
0000
0000
0000
0000
0000
0000
0000
0000
0000
0000
0000
0010
0000
0000
0000
0000
0000
0000
0000
0000
0000
0000
0000
0000
0000
0000
0000
0000
0000
0000
0000
0000
0000
0000
0000
0100
0000
0000
0000
0000
0000
0000
0000
0000
0000
0000
0000
0000
0000
0000
0000
0000
0000
0000
0000
0000
0000
0000
0000
0220
0330
0000
0000
0000
0000
0000
0000
0000
0000
0000
0000
0000
0000
0000
0000
0000
0000
0000
0000
0000
0000
0000
0000
,
1001
0000
0000
0000
0001
0000
1000
0100
0010
0000
0100
0000
1000
0000
0001
0100
,
0010
0000
1000
0000
0010
0100
0001
0010
1000
0000
0010
0000
0100
0000
1000
0000
,
0001
0000
0102
0000
0000
0000
1003
0000
0010
0000
0100
0000
0001
0000
0010
0100
,
0010
0000
0001
1000
0001
0000
0100
0010
0100
0000
0001
0000
1001
0000
0000
0000
,
0110
0000
0000
0000
1000
0010
0100
0010
1000
0000
0001
0000
0010
0000
0100
1000
,
0001
0000
0100
0010
0100
0000
0010
1000
0001
0000
0010
0000
0100
0000
1200
0000
,
0000
0320
0000
0032
0000
2003
0000
3010
,
0100
0001
2000
0000
3020
0000
0230
0000
,
0301
0010
0100
1000
0001
0010
0100
1000
0010
0000
0100
0000
0001
0000
1000
0000
,
0001
0010
0100
0000
0000
0000
0010
0000
0100
0000
0010
0000
0001
0000
1000
0000
,
0010
0100
0010
1000
0001
0100
0000
0100
,
0001
0010
0100
1000
0022
0000
0033
0000
;

//--------------- dance-single - ----------------
#NOTES:
     dance-single:
     :
     Challenge:
     18:
     1.047957,1.241502,0.465884,0.055274,1.069954,929,870,59,7,0,0,1.047957,1.241502,0.465884,0.055274,1.069954,929,870,59,7,0,0:
0000
0000
0000
0000
,
0000
0000
0000
0000
,
0000
0000
0000
0000
,
1001
0000
1000
0100
1100
1000
0010
0100
,
0001
1000
0001
0100
0101
0001
1000
0001
,
0010
0100
1000
0001
1001
1000
0010
0100
,
0010
1000
0001
0010
0110
0100
1000
0100
,
1000
0001
0100
0010
1010
1000
0001
0010
,
0100
0010
0001
1000
1001
0001
0100
0001
,
0010
0100
1000
0010
0110
0100
0001
1000
,
0001
0010
0001
1000
1010
0010
0110
0000
,
1001
0000
0001
0000
1000
0100
0010
0100
1000
0100
0010
0001
1000
0000
0010
0000
,
0100
0001
0000
1000
0001
0000
0010
0000
0100
0000
1000
0010
0100
0000
0001
0000
,
0010
0100
1001
0000
1001
0010
0100
0000
,
1000
0001
0100
0000
0010
0100
0010
0000
1000
0100
0010
0001
1000
0001
0100
0000
,
0101
0000
0001
0000
1000
0010
0100
0010
1000
0010
0100
0001
1000
0000
0100
0000
,
0010
0001
0000
1000
0001
0100
0010
0000
1010
0000
1000
0000
0001
0000
0100
0000
,
0010
0000
0100
0001
1000
0000
0100
0000
0110
0000
0010
0000
0001
0000
1000
0000
,
0000
0001
0100
0001
1000
0100
1000
0000
,
2200
3300
0000
0000
0000
0000
0000
0000
0000
0000
0000
0000
0000
0000
0000
0000
0000
0000
0000
0000
0000
0000
0000
0000
1000
0000
0000
0000
0000
0000
0000
0000
0000
0000
0000
0000
0000
0000
0000
0000
0000
0000
0000
0000
0000
0000
0000
0000
0001
0000
0000
0000
0000
0000
0000
0000
0000
0000
0000
0000
0000
0000
0000
0000
0000
0000
0000
0000
0000
0000
0000
0000
0100
0000
0000
0000
0000
0000
0000
0000
0000
0000
0000
0000
0000
0000
0000
0000
0000
0000
0000
0000
0000
0000
0000
0000
0101
0000
0000
0000
0000
0000
0000
0000
0000
0000
0000
0000
0000
0000
0000
0000
0000
0000
0000
0000
0000
0000
0000
0000
0001
0000
0000
0000
0000
0000
0000
0000
0000
0000
0000
0000
0000
0000
0000
0000
0000
0000
0000
0000
0000
0000
0000
0000
1000
0000
0000
0000
0000
0000
0000
0000
0000
0000
0000
0000
0100
0000
0000
0000
0000
0000
0000
0000
0000
0000
0000
0000
1000
0000
0000
0000
0000
0000
0000
0000
0000
0000
0000
0000
0100
0000
0000
0000
0000
0000
0000
0000
0000
0000
0000
0000
,
0110
0100
1000
0001
0100
0000
0010
0000
0110
0000
0100
0001
1000
0001
0010
0100
,
1000
0000
0000
0001
0010
0100
1000
0010
0100
0000
0000
0010
1000
0100
0010
0001
,
1000
0000
0000
0001
0100
0010
1000
0001
0010
0000
0000
0100
1000
0010
0100
0001
,
0010
0001
1000
0100
1000
0010
0100
0001
0100
0010
1000
0100
0010
0100
1000
0001
,
0100
0000
0010
0000
0100
0000
1000
0000
0100
0000
0001
1000
0100
0000
0000
0000
,
1100
0000
1000
0010
0001
0000
0010
1000
0100
0010
0100
0000
1000
0100
1000
0010
,
0100
0001
1000
0000
0001
0010
0100
0010
0001
1000
0001
0010
0100
1000
0001
0010
,
1000
0000
0010
0001
1000
0000
0001
0100
0010
0100
1000
0100
0010
1000
0100
0010
,
0001
0000
1000
0010
0100
0000
1000
0100
0001
0000
0010
0100
1000
0001
0010
0100
,
1000
0000
0001
1000
0010
0000
0100
0001
1000
0100
1000
0001
0010
0000
0100
1000
,
0010
0000
0100
0000
0101
0000
0001
1000
0010
0100
0010
1000
0001
0010
0100
0000
,
1100
0000
1000
0010
0100
0000
1000
0100
0001
0000
0100
0001
0010
0100
1000
0001
,
0010
0000
0100
0000
0110
0000
0010
0001
1000
0100
0000
0100
1000
0001
0100
0000
,
0220
0330
0000
0000
0000
0000
0000
0000
0000
0000
0000
0000
0000
0000
0000
0000
0000
0000
0000
0000
0000
0000
0000
0000
1001
0000
0000
0000
0000
0000
0000
0000
0000
0000
0000
0000
0000
0000
0000
0000
0000
0000
0000
0000
0000
0000
0000
0000
1000
0000
0000
0000
0000
0000
0000
0000
0000
0000
0000
0000
0000
0000
0000
0000
0000
0000
0000
0000
0000
0000
0000
0000
0001
0000
0000
0000
0000
0000
0000
0000
0000
0000
0000
0000
0100
0000
0000
0000
0000
0000
0000
0000
0000
0000
0000
0000
1000
0000
0000
0000
0000
0000
0000
0000
0000
0000
0000
0000
0100
0000
0000
0000
0000
0000
0000
0000
0000
0000
0000
0000
0001
0000
0000
0000
0000
0000
0000
0000
0000
0000
0000
0000
0000
0000
0000
0000
0000
0000
0000
0000
0000
0000
0000
0000
0100
0000
0000
0000
0000
0000
0000
0000
0000
0000
0000
0000
0010
0000
0000
0000
0000
0000
0000
0000
0000
0000
0000
0000
0100
0000
0000
0000
0000
0000
0000
0000
0000
0000
0000
0000
0000
0000
0000
0000
0000
0000
0000
0000
0000
0000
0000
0000
,
0010
1000
0001
0000
0010
0000
0100
0010
0001
0100
0010
0000
0001
0010
0100
0000
,
0010
1000
0001
0000
0020
0000
0130
0000
1000
0001
0100
0000
1000
0000
0100
0001
,
0010
0100
1000
0000
0001
0000
0101
0000
0100
0000
0110
0000
0010
1000
0001
0000
,
0010
0000
0110
0000
0000
0000
1000
0000
0001
0000
0100
0010
0100
0001
0100
0010
,
1000
0001
0010
0100
0010
0000
0100
1000
0010
0100
1000
0000
0100
0001
0010
0000
,
0100
1000
0002
0000
0000
0000
0013
0000
0010
0000
0110
0000
0100
0000
1200
0000
,
1000
1300
0001
0200
0000
0320
0030
2010
,
0000
0000
0000
0000
0000
0000
0001
0000
0000
0000
0000
0000
0000
0100
0000
0000
,
0000
0000
0000
0000
0000
0000
0001
0000
0000
0000
0000
0000
0000
0000
0000
0000
0000
0000
3001
0000
0000
0000
0000
0000
0000
0000
0000
0000
0000
0000
0001
0000
0010
0000
0100
0000
1000
0000
0100
0000
0010
0000
0001
0000
0000
0010
0000
0000
,
0100
0000
0000
1000
0000
0000
0001
0000
0010
0000
0100
0000
1000
0000
0000
0000
0000
0000
0010
0000
0000
0000
0000
0000
0101
0000
0000
0000
0000
0000
0101
0000
0000
0000
0000
0000
0000
0000
0000
0000
0000
0000
1100
0000
0000
0000
0000
0000
,
1100
0000
0000
0000
0000
0000
0000
0000
0000
0000
0000
0000
1010
0000
0000
0000
0000
0000
1010
0000
0000
0000
0000
0000
0100
0000
0000
0000
0000
0000
0001
0000
0000
0010
0000
0000
0100
0000
0000
1000
0000
0000
0100
0000
0010
0000
0001
0000
,
1000
0100
0010
0001
1000
0100
0010
0000
0000
0001
0010
0100
2000
0000
0000
0000
0000
0000
3001
0010
0100
2000
0000
0000
,
0000
0000
0000
3001
0010
0100
1000
0001
0010
0100
0000
0000
0010
0000
0000
0001
0000
0000
1000
0000
0000
0010
0000
0000
,
0100
0001
0020
0000
0130
1000
0020
0000
0130
0000
0001
0010
0200
0000
1000
0000
,
1300
0000
0010
0100
0001
0010
0100
1000
0000
1100
0000
0000
0001
0000
0110
0000
,
0000
0000
0000
1010
0000
0000
0101
0000
,
0000
0000
0000
1001
0000
0000
0000
0000
0000
1000
0100
1000
0100
1000
0100
0010
0000
0000
0100
0000
0000
1000
0000
0000
,
0001
0000
0000
0010
0000
0000
0100
0000
1000
0000
0100
0000
1000
0000
0000
0000
0000
0000
0000
0000
0000
0000
0000
0000
1100
0000
0000
0000
0000
0000
1001
0000
0000
0000
0000
0000
0000
0000
0000
0000
0000
0000
0101
0000
0000
0000
0000
0000
,
1001
0000
0000
0000
1010
0000
1001
0000
0001
0010
0001
0010
0100
1000
0010
0000
,
0100
0000
0001
0010
0100
1000
0001
0010
0100
1000
0001
0000
0100
0000
0010
0000
,
1000
0000
0001
0100
0010
0000
1000
0000
0100
0000
0010
0000
0100
0000
1000
0000
,
0001
0101
0100
0010
1010
0100
0110
0000
,
0110
0000
0000
0000
0000
0000
0000
0000
0000
0000
0000
0000
0000
0000
0000
0000
0000
0000
0000
0000
0000
0000
0000
0000
0001
0000
0000
0000
0000
0000
0000
0000
0000
0000
0000
0000
0000
0000
0000
0000
0000
0000
0000
0000
0000
0000
0000
0000
1000
0000
0000
0000
0000
0000
0000
0000
0000
0000
0000
0000
0000
0000
0000
0000
0000
0000
0000
0000
0000
0000
0000
0000
0001
0000
0000
0000
0000
0000
0000
0000
0000
0000
0000
0000
0000
0000
0000
0000
0000
0000
0000
0000
0000
0000
0000
0000
1000
0000
0000
0000
0000
0000
0000
0000
0000
0000
0000
0000
0000
0000
0000
0000
0000
0000
0000
0000
0000
0000
0000
0000
0010
0000
0000
0000
0000
0000
0000
0000
0000
0000
0000
0000
0000
0000
0000
0000
0000
0000
0000
0000
0000
0000
0000
0000
0000
0000
0000
0000
0000
0000
0000
0000
0000
0000
0000
0000
0000
0000
0000
0000
0000
0000
0000
0000
0000
0000
0000
0000
0220
0330
0000
0000
0000
0000
0000
0000
0000
0000
0000
0000
0000
0000
0000
0000
0000
0000
0000
0000
0000
0000
0000
0000
,
0001
0000
0010
0000
0100
0000
1100
0000
0000
0000
1000
0010
0100
0001
0101
0001
,
0010
0100
1000
0000
0010
0000
0101
0000
0001
0000
1000
0000
0010
0000
0110
0000
,
0000
1000
0010
0100
0001
0010
0100
0000
0000
0100
1000
0001
0100
0010
1000
0000
,
0000
1000
0010
0100
0001
0010
0100
0000
0000
0100
1000
0010
0100
0001
0010
0100
,
0010
0100
1000
0001
1000
0001
0100
0010
0100
1000
0100
0001
1000
0100
0010
0000
,
0010
0000
0000
0001
0000
0000
1000
0000
0000
0010
0000
0000
0001
0000
0000
0000
0000
0000
0010
0000
0000
1000
0000
0000
0001
0000
0000
0010
0000
0000
0110
0000
0000
0000
0000
0000
0000
0000
0000
0000
0000
0000
0010
0000
0100
0000
0010
0000
,
0100
0000
1001
0000
1000
0010
0100
0000
0010
1000
0100
0010
0100
1000
0001
0000
,
1000
0010
0100
0000
1000
0100
0001
0010
0100
1000
0001
0000
0010
0000
0110
0000
,
0100
1000
0010
0000
0100
0001
1000
0000
0001
0010
0100
0000
0010
0000
0001
0000
,
1000
0010
0100
0010
0100
1000
0001
0010
0100
0010
0100
0001
0010
0100
1000
0000
,
0001
0100
0010
0000
0001
0010
0100
0000
0010
1000
0001
0000
0010
0000
1100
0000
,
1100
0000
1000
0000
0010
0100
0001
0010
0100
1000
0001
0000
0100
0000
0110
0000
,
0010
1000
0001
0000
0010
0000
0110
0000
0100
1000
0001
0000
0100
0000
0110
0000
,
0010
0000
0000
0000
0000
0000
0000
0000
0000
0000
0000
0000
1000
0000
0000
0000
0000
0000
0000
0000
0000
0000
0000
0000
0001
0000
0000
0000
0000
0000
0000
0000
0000
0000
0000
0000
0000
0000
0000
0000
0000
0000
0000
0000
0000
0000
0000
0000
0010
0000
0000
0000
0000
0000
0000
0000
0100
0000
0000
0000
0000
0000
0000
0000
0010
0000
0000
0000
0000
0000
0000
0000
0100
0000
0000
0000
0000
0000
0000
0000
0000
0000
0000
0000
1000
0000
0000
0000
0000
0000
0000
0000
0000
0000
0000
0000
0000
0000
0000
0000
0000
0000
0000
0000
0000
0000
0000
0000
0001
0000
0000
0000
0000
0000
0000
0000
0000
0000
0000
0000
0100
0000
0000
0000
0000
0000
0000
0000
0010
0000
0000
0000
0000
0000
0000
0000
0100
0000
0000
0000
0000
0000
0000
0000
0010
0000
0000
0000
0000
0000
0000
0000
0000
0000
0000
0000
0000
0000
0000
0000
0000
0000
0000
0000
0000
0000
0000
0000
0220
0330
0000
0000
0000
0000
0000
0000
0000
0000
0000
0000
0000
0000
0000
0000
0000
0000
0000
0000
0000
0000
0000
0000
,
1001
0000
1000
0000
0001
0010
0100
0010
0001
1000
0010
0100
0010
1000
0001
0010
,
0100
1000
0001
0100
0010
0100
0001
1000
0001
0100
1000
0100
0001
0000
0010
0100
,
1000
0010
0100
0000
1000
0000
0100
0001
0010
0100
0010
0000
0001
0000
1000
0010
,
0100
0000
1000
0100
0010
0000
1000
0100
0010
0000
0100
1000
0001
0000
0000
0000
,
1001
0000
0001
0000
1000
0100
0010
0100
1000
0001
0100
0010
0100
0001
0010
0100
,
1000
0010
1000
0100
1000
0001
0100
0010
1000
0000
1000
0000
1001
0000
0010
0000
,
0200
0000
0301
0010
0100
1000
0020
0000
,
0130
0000
0100
0000
0001
0000
1000
0000
0001
0010
0100
1000
0001
0000
0010
0000
,
0100
1000
0010
1000
0100
0010
0001
0010
0100
0000
1000
0000
0001
0000
0100
0000
,
0010
1000
0001
0000
0000
0000
0011
0000
1000
0000
0011
0000
1000
0000
0010
0000
,
0100
0101
1000
0010
0100
1100
0000
1010
,
0001
1000
0010
0100
0022
0000
0033
0000
;
