#TITLE:マヌルネコのうた;
#SUBTITLE:;
#ARTIST:小田朋美;
#TITLETRANSLIT:Pallas's cat song;
#SUBTITLETRANSLIT:;
#ARTISTTRANSLIT:Oda Tomomi;
#GENRE:POP;
#CREDIT:;
#MUSIC:Pallas's cat song.ogg;
#BANNER:Pallas's cat song.png;
#BACKGROUND:Pallas's cat song-bg.png;
#CDTITLE:;
#SAMPLESTART:35.841;
#SAMPLELENGTH:14.015;
#SELECTABLE:YES;
#OFFSET:0.947;
#BPMS:0.000=137.000;
#STOPS:;
#BGCHANGES:2.000=Pallas's cat song.avi=1.000=0=0=0=StretchNoLoop====,
99999.000=-nosongbg-=1.000=0=0=0=StretchNoLoop====
;
#FGCHANGES:;

//--------------- dance-single - ----------------
#NOTES:
     dance-single:
     :
     Hard:
     13:
     0,0,0,0,0:
0000
0000
0000
0000
,
1002
0000
0013
0100
1000
0100
0010
0100
,
1000
0100
0010
0100
1000
0100
0010
0100
,
2000
0000
3001
0100
0010
0100
0001
0100
,
0010
0100
0001
0100
0010
0100
0001
0100
,
0020
0000
1030
0100
0010
0001
0000
0011
,
0000
1100
0000
0011
0000
1100
0000
0001
,
1000
0000
0001
0100
0010
1000
0000
1010
,
0000
0101
0000
0001
0100
0010
0100
0001
,
1000
0000
0000
1000
0100
0000
0010
0000
0000
0100
0000
1000
0001
0000
0100
0000
,
0001
0000
0000
1000
0010
0000
0100
0000
0000
0010
0000
1000
0001
0000
0010
0000
,
0100
0000
0000
1000
0100
0000
0010
0000
0000
0001
0000
1000
0010
0000
0100
0000
,
0001
0000
0000
1000
0001
0000
0010
0000
0100
1000
0100
1000
0100
1000
0001
0000
,
0100
0001
1000
0100
1000
0100
0010
0001
,
1000
0001
0100
0010
1000
0001
0020
0000
,
0130
1000
0001
0010
1000
0010
0011
1001
,
1000
0010
0100
0001
1000
0001
0200
0000
,
0310
0000
1000
0001
0100
0001
0010
0100
,
1000
0010
0100
0010
1000
0100
0002
0000
,
0103
1000
0010
0010
0100
0001
1000
1000
,
0100
0010
2001
0000
0000
3001
0100
0010
,
1000
0100
0010
0100
1000
0000
1001
0000
,
0001
0100
0010
0100
0001
0000
1001
0000
,
1000
0100
0010
0100
0010
0100
0010
0100
,
1000
0100
0010
0100
1000
0000
1001
0000
,
0001
0100
0010
0100
0001
0000
1001
0000
,
1000
0100
0010
0100
1000
0000
1001
0000
,
0001
0100
0010
0100
0010
0100
0010
0100
,
0001
0100
0010
0100
0001
0000
1001
0000
,
2001
0000
3001
0100
0010
1000
0000
1010
,
0000
0101
0000
1010
0000
0101
0000
1000
,
0001
0000
1000
0100
0010
0001
0000
0011
,
0000
1100
0000
1000
0100
0010
0100
1000
,
0001
0000
0000
0001
0100
0000
0010
0000
0000
0100
0000
0001
1000
0000
0100
0000
,
1000
0000
0000
0001
0010
0000
0100
0000
0000
0010
0000
0001
1000
0000
0010
0000
,
0100
0000
0000
0001
0100
0000
0010
0000
0000
1000
0000
0001
0010
0000
0100
0000
,
1000
0000
0000
0001
1000
0000
0010
0000
0100
0001
0100
0001
0100
0001
1000
0000
,
0100
0010
0001
0010
0100
1000
0001
0100
,
0001
0010
0100
0010
0001
0100
0010
0100
,
0001
1000
0110
0000
1001
1000
0010
0001
,
0010
1000
0001
0100
1000
0100
1001
0000
,
1001
0001
0010
0010
0100
0100
1000
0000
,
0010
0010
0100
0100
0001
0001
1000
0100
,
0010
0100
1000
0010
0100
0010
1001
0000
,
0001
0010
0110
0000
0000
1000
0100
1000
,
0001
0100
0010
0100
0001
0000
1001
0000
,
1000
0100
0010
0100
1000
0000
1001
0000
,
0001
0100
0010
0100
0010
0100
0010
0100
,
0001
0100
0010
0100
0001
0000
1001
0000
,
1000
0100
0010
0100
1000
0000
1001
0000
,
0001
0100
0010
0100
0001
0000
1001
0000
,
1000
0100
0010
0100
0010
0100
0010
0100
,
1000
0100
0010
0100
1000
0000
1001
0001
,
1000
0000
0001
0100
0000
0000
1000
0000
0100
0000
0001
0010
0000
0000
0100
0000
,
1000
0100
0001
0100
1000
0100
0110
0000
,
0010
0000
0001
1000
0000
0000
0010
0000
0100
0000
0001
0000
1001
0000
0000
0000
,
0001
0100
1000
0001
1000
0100
0001
0000
,
0010
0000
0100
1000
0000
0000
0001
0100
0001
0000
0010
0000
1100
0000
0000
0000
,
1000
0100
0010
0001
0010
0100
1100
0000
,
1000
0000
0001
0100
0000
0010
0000
0100
0001
0000
0010
0000
1001
0000
0000
0000
,
1000
0000
0110
0000
0001
0000
0110
0000
1000
0000
0001
0010
0000
0000
0100
0000
,
1001
0000
1000
0010
0100
0001
0000
0101
,
0000
1010
0000
0101
0000
1010
0000
0001
,
1000
0000
0001
0010
0100
1000
0000
1100
,
0000
0011
0000
0001
0010
0100
0010
0001
,
1000
0000
0000
1000
0010
0000
0100
0000
0000
0010
0000
1000
0001
0000
0010
0000
,
0001
0000
0000
1000
0100
0000
0010
0000
0000
0100
0000
1000
0001
0000
0100
0000
,
0010
0000
0000
1000
0010
0000
0100
0000
0000
0001
0000
1000
0100
0000
0010
0000
,
0001
0000
0000
1000
0001
0000
0100
0000
0010
1000
0010
1000
0010
1000
0001
0000
,
1000
0000
0000
0000
0100
0000
0000
0000
0000
0010
0000
0000
0000
0000
0000
0001
0000
0000
0000
0000
0000
1000
0000
0000
0000
0000
0000
0000
0000
0000
0000
0000
0000
0000
0000
0000
0000
0000
0000
0000
0000
0000
0000
0000
0000
0000
0000
0000
0000
0000
0000
0000
0000
0000
0000
0000
0000
0000
0000
0000
0000
0000
0000
0000
;

//--------------- dance-single - ----------------
#NOTES:
     dance-single:
     :
     Challenge:
     16:
     0.805315,0.942395,0.015992,0,0.971518,705,703,2,0,0,0,0.805315,0.942395,0.015992,0,0.971518,705,703,2,0,0,0:
0000
0000
0000
0000
,
1002
0000
0000
0000
1003
0000
0001
0100
0001
0000
1000
0100
1000
0000
0001
0100
,
0001
0000
1000
0100
1000
0000
0001
0100
0001
0000
1000
0100
1000
0000
0001
0100
,
0002
0000
0000
0000
1003
0000
0001
0100
0001
0000
1000
0100
1000
0000
0001
0100
,
0001
0000
1000
0100
1000
0000
0001
0000
1000
0100
1000
0001
0100
0001
1000
0100
,
1000
0000
0010
0100
0001
1000
0000
1100
,
0000
0101
0000
1100
0000
0101
0000
0001
,
0010
0000
0010
0100
1000
0001
0000
0101
,
0000
1100
0000
0100
1000
0001
1000
0001
,
0100
0000
0010
1000
0010
0000
0100
0000
0001
0010
0000
0001
1000
0000
0100
0000
,
0010
0000
0001
0100
0001
0000
0100
0000
0010
1000
0000
0010
0100
0000
0001
0000
,
1000
0000
0001
1000
0100
0100
0001
0000
1000
0100
0010
0001
0100
0100
1000
0000
,
0010
0000
0000
0000
1000
0000
0001
0000
0100
0000
0100
0000
1000
0000
0000
0000
0001
0000
0010
0000
0100
0000
1000
0001
1000
0000
0010
0000
0100
0000
0000
0000
,
0001
0010
0001
1000
0010
0100
0010
0100
0001
1000
0010
0100
0001
1000
0001
1000
,
0100
0010
0100
1000
0001
0100
0010
1000
0010
0100
0001
1000
0200
0000
0000
0000
,
0310
0001
0010
0001
1000
0100
0010
0001
1000
0001
0010
0100
1100
0000
0011
0000
,
0001
0100
0010
0100
0001
1000
0010
0100
0010
1000
0001
0010
0200
0000
0000
0000
,
1300
0010
0000
0100
0001
1000
0001
0010
0100
0010
0001
1000
0001
0000
0100
0010
,
0100
0000
0010
0000
1000
0100
0010
0100
1000
0001
0100
0010
2000
0000
0000
0000
,
3001
0100
0001
0000
0010
0000
0100
0000
1000
0100
1000
0000
0001
0010
0001
0000
,
1000
0001
2001
0000
0000
3001
0100
0010
,
1000
0100
0001
0100
1000
0000
1001
0000
,
0001
0100
1000
0100
0001
0000
1001
0000
,
1000
0100
0001
0100
0001
0100
0001
0100
,
1000
0100
0001
0100
1000
0000
1001
0000
,
0001
0100
1000
0100
0001
0000
1001
0000
,
1000
0100
0001
0100
1000
0000
1001
0000
,
0001
0100
1000
0100
1000
0100
1000
0100
,
0001
0100
1000
0100
0001
0000
1001
0000
,
0001
0000
0010
0100
1000
0001
0000
0101
,
0000
1100
0000
0101
0000
1100
0000
1000
,
0010
0000
0010
0100
0001
1000
0000
1100
,
0000
0101
0000
0100
0001
1000
0001
1000
,
0100
0000
0010
0001
0010
0000
0100
0000
1000
0010
0000
1000
0001
0000
0100
0000
,
0010
0000
1000
0100
1000
0000
0100
0000
0010
0001
0000
0010
0100
0000
1000
0000
,
0001
0000
1000
0001
0100
0100
1000
0000
0001
0100
0010
1000
0100
0100
0001
0000
,
0010
0000
0000
0000
0001
0000
1000
0000
0100
0000
0100
0000
0001
0000
0000
0000
1000
0000
0010
0000
0100
0000
0001
1000
0001
0000
0010
0000
0100
0000
0000
0000
,
1000
0010
0000
0100
0001
0100
0001
1000
0001
0010
0100
1000
0001
0010
0100
0000
,
1000
0000
0000
0000
0000
0000
0000
0000
0000
0000
0000
0000
0010
0000
0000
0000
0000
0000
0000
0000
0000
0000
0000
0000
0100
0000
0000
0000
0000
0000
0000
0000
0000
0000
0000
0000
0001
0000
0000
0000
0000
0000
0000
0000
0000
0000
0000
0000
0000
0000
0000
0000
0000
0000
0000
0000
0000
0000
0000
0000
1000
0000
0000
0000
0000
0000
0000
0000
0000
0000
0000
0000
0100
0000
0000
0000
0000
0000
0000
0000
0000
0000
0000
0000
1000
0000
0000
0000
0000
0000
0000
0000
0001
0000
0000
0000
0000
0000
0000
0000
0000
0000
0100
0000
0000
0000
0000
0000
0000
0000
0000
0000
0000
0000
0010
0000
0000
0000
0000
0000
0000
0000
0000
0000
0000
0000
0100
0000
0000
0000
0000
0000
0000
0000
0000
0000
0001
0000
0000
0000
0000
0000
0000
0000
0000
0000
0000
1000
0000
0000
0000
0000
0000
0000
0000
0000
0000
0000
0000
0000
0100
0000
0000
0000
0000
0000
0000
0000
0000
0000
0000
0000
1000
0000
0000
0000
0000
0000
0000
0000
0000
0000
0001
0000
0000
0000
0000
0000
0000
0000
0000
0000
,
0010
0000
0000
0000
0000
0000
0100
0000
0000
0000
0000
0010
0000
0000
0000
0000
0001
0000
0000
0000
0000
0010
0000
0000
0000
0100
0000
0000
0000
0000
1000
0000
0000
0000
0000
0000
0000
0000
0000
0000
0000
0000
0000
0000
0000
0000
0000
0000
0001
0000
0000
0000
0000
0000
0100
0000
0000
0000
0000
0000
0000
0000
0000
0010
0000
0000
0000
0000
0000
1000
0000
0000
0000
0000
0000
0001
0000
0000
0000
0000
0000
1000
0000
0000
0000
0000
0000
0100
0000
0000
0000
0000
0000
0010
0000
0000
,
0000
0000
0000
0000
0000
0000
0001
0000
0000
0000
0000
0000
0000
0000
0000
0000
0000
0000
0000
0000
0000
0000
0000
0000
0000
0000
0000
1000
0000
0000
0000
0000
0000
0000
0000
0000
0000
0001
0000
0000
0000
0000
0000
0000
0000
0000
0000
0000
0100
0000
0000
0000
0000
0000
0000
0000
0000
0000
0000
0000
0010
0000
0000
0000
0000
0000
0000
0000
0000
0000
0000
0000
0100
0000
0000
0000
0000
0000
0000
0000
0000
0000
0000
0000
0010
0000
0000
0000
0000
0000
0000
0000
0000
0000
0000
0000
1000
0000
0000
0000
0000
0000
0000
0000
0000
0000
0000
0000
0001
0000
0000
0000
0000
0000
0000
0000
0000
0000
0000
0000
0010
0000
0000
0000
0000
0000
0000
0000
0000
0100
0000
0000
0000
0000
0000
0000
0000
0000
0010
0000
0000
0000
0000
0000
0000
0000
0000
0000
0000
0000
0000
0000
0000
0000
0000
0000
0000
0000
0000
0000
0000
0000
0000
0000
0000
0000
0000
0000
0000
0000
0000
0000
0000
0000
0000
0000
0000
0000
0000
0000
0000
0000
0000
0000
0000
0000
0000
0000
0000
0000
0000
0000
,
0100
1000
0000
0001
0100
0010
0100
0001
1000
0001
1000
0100
0010
0000
0000
0000
,
0100
1000
0000
0001
0100
0010
0100
0001
1000
0100
0010
0100
1000
0000
0100
0010
,
0001
1000
0100
0000
0001
0010
0100
1000
0001
0100
0010
0100
0001
0000
0000
0000
,
1000
0000
0000
0000
0001
0000
0000
0000
1001
0000
0000
0000
0000
0000
0000
0000
0000
0000
0000
0000
1000
0000
0000
0000
0100
0010
0100
0000
1000
0000
0001
0000
,
1000
0010
0100
0010
0001
0010
0100
0010
1000
0000
0000
0000
1001
0000
0000
0000
,
0001
0010
0100
0010
1000
0010
0100
0010
0001
0000
0000
0000
1001
0000
0000
0000
,
1000
0010
0100
0010
0001
0010
0100
0010
0001
0010
0100
0010
0001
0010
0100
0010
,
1000
0010
0100
0010
0001
0010
0100
0010
1000
0000
0000
0000
1001
0000
0000
0000
,
0001
0010
0100
0010
1000
0010
0100
0010
0001
0000
0000
0000
1001
0000
0000
0000
,
1000
0010
0100
0010
0001
0010
0100
0010
1000
0000
0000
0000
1001
0000
0000
0000
,
0001
0010
0100
0010
1000
0010
0100
0010
1000
0010
0100
0010
1000
0010
0100
0010
,
0001
0010
0100
0010
1000
0010
0100
0010
0001
0000
0000
0000
1001
0000
0001
0100
,
0001
0000
1000
0010
0000
0000
0100
0000
0001
0000
1000
0100
0000
0000
0010
0000
,
0001
0010
0100
1000
0001
0010
0100
1000
0010
0000
0110
0000
0100
0001
0100
0001
,
0010
0000
0100
1000
0000
0000
0010
0000
0100
0000
0001
1000
0001
0000
0100
0000
,
0010
1000
0010
0100
0001
0000
0000
0010
0100
0010
0001
0000
1000
0000
0100
0000
,
0010
0100
1000
0001
0000
0000
0100
0010
0100
0000
0101
0000
1010
0000
1000
0010
,
0100
0001
0100
0010
1000
0000
0001
0000
0011
0000
0110
0000
1100
0000
1000
0000
,
0001
0010
0100
0010
0000
0001
0000
1000
0010
0000
1010
0000
0101
0000
0001
0000
,
1000
0100
0010
0100
0010
0001
0100
0010
0100
0010
1000
0001
0000
0000
0110
0000
,
1001
0000
0010
0100
0001
1000
0000
1100
,
0000
0101
0000
1100
0000
0101
0000
0001
,
0010
0000
0010
0100
1000
0001
0000
0101
,
0000
1100
0000
0100
1000
0001
1000
0001
,
1000
0100
1000
0000
0001
0100
0001
0000
1000
0100
1000
0000
0001
0100
0001
0000
,
1000
0010
1000
0000
0001
0010
0001
0000
1000
0010
1000
0000
0001
0010
0001
0000
,
1000
0100
1000
0000
0001
0010
0001
0000
0100
0001
0100
0000
0010
1000
0010
0000
,
0100
0001
0100
0000
0010
0100
0010
0000
1000
0001
1000
0000
0100
0010
0100
0000
,
1000
0000
0000
0000
0010
0000
0000
0000
0000
0100
0000
0000
0000
0000
0000
0001
0000
0000
0000
0000
0000
1000
0000
0000
0000
0000
0000
0000
0000
0000
0000
0000
0000
0000
0000
0000
0000
0000
0000
0000
0000
0000
0000
0000
0000
0000
0000
0000
0000
0000
0000
0000
0000
0000
0000
0000
0000
0000
0000
0000
0000
0000
0000
0000
;
